#TITLE:DORNWALD ~Junge~;
#SUBTITLE:;
#ARTIST:DJ TOTTO;
#TITLETRANSLIT:;
#SUBTITLETRANSLIT:;
#ARTISTTRANSLIT:;
#GENRE:;
#CREDIT:;
#MENUCOLOR:;
#METERTYPE:DDR;
#BANNER:DORNWALD ~Junge~.png;
#BACKGROUND:DORNWALD ~Junge~-bg.png;
#LYRICSPATH:;
#CDTITLE:./CDTITLES/BEATMANIA IIDX.PNG;
#MUSIC:DORNWALD ~Junge~.ogg;
#OFFSET:0.000;
#SAMPLESTART:90.178;
#SAMPLELENGTH:15.000;
#SELECTABLE:YES;
#LISTSORT:;
#BPMS:0.000=169.000,240.000=84.500,248.000=169.000,312.000=84.500;
#STOPS:;
#BGCHANGES:0.000=DORNWALD ~Junge~.avi=1.000=0=0=0,
99999=-nosongbg-=1.000=0=0=0 // don't automatically add -songbackground-
;
#ATTACKS:;

//---------------dance-single - ----------------
#NOTES:
     dance-single:
     :
     Beginner:
     3:
     0.110,0.154,0.030,0.037,0.000: // measure 1
0000
0000
0000
0000
,  // measure 2
0000
0000
0000
0000
,  // measure 3
0000
0000
0000
0000
,  // measure 4
0000
0000
0000
0000
,  // measure 5
0000
0000
0000
0000
,  // measure 6
0010
0000
0000
0000
,  // measure 7
0000
0000
0000
0000
,  // measure 8
1000
0000
0001
0000
,  // measure 9
0200
0000
0000
0000
,  // measure 10
0000
0000
0000
0300
,  // measure 11
0010
0000
0000
0000
,  // measure 12
0000
0000
0000
0000
,  // measure 13
1001
0000
0000
0000
,  // measure 14
0000
0000
0000
0000
,  // measure 15
0100
0000
0000
0000
,  // measure 16
0010
0000
0000
0000
,  // measure 17
0001
0000
1000
0000
,  // measure 18
0001
0000
0000
0000
,  // measure 19
1000
0000
1000
0000
,  // measure 20
1000
0000
0000
0000
,  // measure 21
0001
0000
0001
0000
,  // measure 22
0001
0000
0000
0000
,  // measure 23
0100
0000
0100
0000
,  // measure 24
0100
0000
0000
0000
,  // measure 25
0010
0000
0010
0000
,  // measure 26
0010
0000
0000
0000
,  // measure 27
1001
0000
0000
0000
,  // measure 28
0001
0000
0000
0000
,  // measure 29
0010
0000
0000
0000
,  // measure 30
0100
0000
0000
0000
,  // measure 31
1000
0000
0000
0000
,  // measure 32
0010
0000
0000
0000
,  // measure 33
0100
0000
0000
0000
,  // measure 34
0001
0000
0000
0000
,  // measure 35
1000
0000
1000
0000
,  // measure 36
1000
0000
0000
0000
,  // measure 37
0010
0000
0010
0000
,  // measure 38
0010
0000
0000
0000
,  // measure 39
0100
0000
0100
0000
,  // measure 40
0100
0000
0000
0000
,  // measure 41
0001
0000
0001
0000
,  // measure 42
0001
0000
0000
0000
,  // measure 43
0010
0000
0000
0000
,  // measure 44
0100
0000
0000
0000
,  // measure 45
0010
0000
0000
0000
,  // measure 46
0001
0000
0000
0000
,  // measure 47
1000
0000
0000
0000
,  // measure 48
0001
0000
0000
0000
,  // measure 49
0100
0000
0000
0000
,  // measure 50
0100
0000
0000
0000
,  // measure 51
0010
0000
0000
0000
,  // measure 52
0010
0000
0000
0000
,  // measure 53
1000
0000
0000
0000
,  // measure 54
1000
0000
0000
0000
,  // measure 55
0001
0000
0000
0000
,  // measure 56
0001
0000
0000
0000
,  // measure 57
1001
0000
1000
0000
,  // measure 58
1000
0000
0000
0000
,  // measure 59
0001
0000
0001
0000
,  // measure 60
0001
0000
0000
0000
,  // measure 61
0020
0000
0000
0030
,  // measure 62
0200
0000
0000
0300
,  // measure 63
0010
0000
0000
0000
,  // measure 64
0010
0000
0000
0000
,  // measure 65
0001
0000
0000
0000
,  // measure 66
0001
0000
0000
0000
,  // measure 67
1000
0000
0000
0000
,  // measure 68
1000
0000
0000
0000
,  // measure 69
0010
0000
0000
0000
,  // measure 70
0010
0000
0000
0000
,  // measure 71
0100
0000
0100
0000
,  // measure 72
0100
0000
0000
0000
,  // measure 73
0010
0000
0010
0000
,  // measure 74
0010
0000
0000
0000
,  // measure 75
0000
0000
1000
1000
,  // measure 76
0000
0000
0001
0001
,  // measure 77
0000
0000
0010
0010
,  // measure 78
0000
0000
0100
0100
,  // measure 79
0100
0000
0010
0000
,  // measure 80
0001
0000
1000
0000
,  // measure 81
0010
0000
0100
0000
,  // measure 82
0010
0000
2002
0000
,  // measure 83
0000
0000
0000
0000
,  // measure 84
0000
3003
0000
0000
;

//---------------dance-single - ----------------
#NOTES:
     dance-single:
     :
     Easy:
     8:
     0.337,0.525,0.163,0.171,0.000: // measure 1
0000
0000
0000
0000
,  // measure 2
0000
0000
0000
0000
,  // measure 3
0000
0000
0000
0000
,  // measure 4
0000
0000
0000
0000
,  // measure 5
0000
0000
0000
0000
,  // measure 6
1001
0000
0010
0000
,  // measure 7
1000
0000
0001
0100
,  // measure 8
0001
0000
0010
0000
,  // measure 9
0220
0000
0000
0030
,  // measure 10
0002
0000
0000
0303
,  // measure 11
1100
0010
0000
0010
,  // measure 12
0000
0010
0100
0010
,  // measure 13
0101
0010
0000
0010
,  // measure 14
0000
0010
1000
0001
,  // measure 15
1001
0000
0000
1100
0000
0000
0000
0000
,  // measure 16
1001
0000
0000
0101
0000
0000
0000
0000
,  // measure 17
0010
0010
0000
0000
0100
0100
0000
0000
,  // measure 18
0001
1000
0001
0010
,  // measure 19
1001
0010
0100
1000
,  // measure 20
0001
0000
0010
0000
0100
1000
0100
0000
,  // measure 21
1000
0010
0100
0001
,  // measure 22
1000
0000
0010
0000
0100
0000
0001
1000
,  // measure 23
0010
0100
0010
0100
,  // measure 24
1001
0000
0010
0000
0100
1000
0001
0000
,  // measure 25
1001
0010
0100
0001
,  // measure 26
1000
0002
1003
0100
,  // measure 27
0020
0000
0100
0000
,  // measure 28
1000
0000
0130
0000
,  // measure 29
0002
0000
0100
0000
,  // measure 30
0010
0000
1003
0000
,  // measure 31
2000
0000
0100
0000
,  // measure 32
0010
0000
3001
0000
,  // measure 33
0200
0000
0010
0000
,  // measure 34
1000
0000
0002
0303
,  // measure 35
1100
0010
0100
0001
,  // measure 36
1000
0100
0010
0001
,  // measure 37
1000
0010
0100
0001
,  // measure 38
1000
0000
0001
0000
0100
0010
0100
0010
,  // measure 39
0100
0001
0010
0100
,  // measure 40
1000
0010
1000
0100
,  // measure 41
1000
0001
0100
0010
,  // measure 42
0100
0001
0010
1000
,  // measure 43
0010
0010
0001
0001
,  // measure 44
0100
0100
1000
1000
,  // measure 45
0100
0100
0001
0001
,  // measure 46
0010
0010
1000
1000
,  // measure 47
1001
0000
0000
0000
,  // measure 48
0100
0000
0000
0000
,  // measure 49
0010
0000
0010
0000
,  // measure 50
0010
0000
0010
0000
0001
0010
0100
0000
,  // measure 51
0010
0000
0010
0000
,  // measure 52
0010
0000
0010
0000
1000
0010
0100
0000
,  // measure 53
0001
0000
0001
0000
,  // measure 54
0001
0000
0001
0000
0010
0001
0100
0000
,  // measure 55
1000
0000
1000
0000
,  // measure 56
1000
0000
1000
0000
0100
1000
0010
0000
,  // measure 57
0110
0001
0100
1000
,  // measure 58
0010
1000
0100
0001
,  // measure 59
0100
0100
0010
0010
,  // measure 60
1000
0001
0100
0010
,  // measure 61
2002
0000
0000
3003
,  // measure 62
0020
0000
0000
0000
0230
0000
0301
1000
,  // measure 63
0001
0000
0010
0001
0010
0000
0010
0000
,  // measure 64
0100
1000
0010
0100
,  // measure 65
0010
0000
1000
0010
1000
0000
1000
0000
,  // measure 66
0001
0100
1000
0100
,  // measure 67
1001
0010
1000
1000
,  // measure 68
0001
0010
0001
0001
,  // measure 69
1000
0010
0001
0010
,  // measure 70
1000
0100
0001
0100
,  // measure 71
1000
0000
0001
0100
0001
0000
1000
0000
,  // measure 72
0001
0000
1000
0010
1000
0000
0001
0000
,  // measure 73
1000
0100
0010
0001
,  // measure 74
0100
0000
0010
0000
0100
0000
0001
1000
,  // measure 75
0100
0010
0100
1100
,  // measure 76
0001
0100
0010
0101
,  // measure 77
1000
1001
0001
1001
,  // measure 78
0010
0000
0110
0000
0010
1000
0001
0100
,  // measure 79
0002
0023
0230
2300
,  // measure 80
3002
0203
0302
2003
,  // measure 81
3001
0000
0010
0000
0100
1000
0001
1000
,  // measure 82
0010
0100
2002
0000
,  // measure 83
0000
0000
0000
0000
,  // measure 84
0000
3003
0000
0000
;

//---------------dance-single - ----------------
#NOTES:
     dance-single:
     :
     Medium:
     11:
     0.498,0.586,0.193,0.245,0.096: // measure 1
0000
0000
0000
0000
,  // measure 2
0000
0000
0000
0000
,  // measure 3
0000
0000
0000
0000
,  // measure 4
0000
0000
0000
0000
,  // measure 5
0000
0000
0000
0000
,  // measure 6
1001
0000
0010
0000
,  // measure 7
1000
0001
0010
0100
,  // measure 8
0010
0000
1001
0000
,  // measure 9
0220
0000
0000
0030
,  // measure 10
0002
0000
0000
0303
,  // measure 11
1001
0010
0000
0010
,  // measure 12
0000
0000
0010
0000
0100
0010
0100
0000
,  // measure 13
1001
0100
0000
0100
,  // measure 14
0000
0000
0100
0000
0010
0000
0100
1000
,  // measure 15
0001
0000
0000
2001
0000
0000
3010
0000
,  // measure 16
1000
0000
0000
1002
0000
0000
0013
0000
,  // measure 17
0001
1000
0000
1000
0001
1000
0000
1000
,  // measure 18
0001
0000
0000
0000
1001
0000
0000
0000
0010
0000
0000
0100
0000
0000
0010
0000
,  // measure 19
1000
0000
0000
1000
0010
0000
0000
0000
1000
0000
0000
0000
0100
0000
0000
0000
,  // measure 20
1000
0000
0000
1000
0010
0000
0000
0000
1000
0000
0010
0000
0100
0000
0000
0000
,  // measure 21
0001
0000
0000
0001
0010
0000
0000
0000
0001
0000
0000
0000
0100
0000
0000
0000
,  // measure 22
0001
0000
0000
0001
0010
0000
0000
0000
0001
1000
0000
0000
0001
1000
0000
0000
,  // measure 23
1001
0000
0000
1000
0010
0000
0000
0000
1000
0000
0000
0000
0100
0000
0000
0000
,  // measure 24
1001
0000
0000
0001
0010
0000
0000
0000
0001
0000
0010
0000
0100
0000
0000
0000
,  // measure 25
1001
0000
0000
1000
0010
0000
0000
0000
1001
0000
0000
0001
0010
0000
0000
0000
,  // measure 26
1001
0000
0000
0000
0110
0000
0000
0000
1001
0000
0000
0100
0000
0000
0100
0000
,  // measure 27
0020
1000
0100
1000
,  // measure 28
0032
0000
1000
0000
,  // measure 29
0203
0010
1000
0001
,  // measure 30
2300
0000
0100
0000
,  // measure 31
3020
1000
0100
0001
,  // measure 32
2030
0000
0010
0000
,  // measure 33
3002
0010
0100
1000
,  // measure 34
0203
0000
0020
0330
,  // measure 35
0010
1000
0010
0000
0100
0001
0100
0000
,  // measure 36
0001
0010
0001
0000
1000
0100
1000
0000
,  // measure 37
0001
0010
0100
0000
1000
0010
0100
0000
,  // measure 38
0010
1000
0001
0000
1000
0001
0001
0001
,  // measure 39
1000
0100
0010
0001
1000
0100
0010
0001
,  // measure 40
1000
0010
0100
0000
0010
1000
0001
0000
,  // measure 41
0100
0001
1000
0010
0100
0001
1000
0010
,  // measure 42
0100
0100
0010
0000
1000
1000
0001
0000
,  // measure 43
1001
1000
1000
1000
0010
0010
0010
0010
,  // measure 44
0100
0100
0100
0100
0001
0001
0001
0001
,  // measure 45
0010
0010
0010
0010
0100
0100
0100
0100
,  // measure 46
1000
1000
1000
1000
0001
0001
0001
0001
,  // measure 47
1000
0000
1001
0000
0001
0100
0001
0100
0001
0100
0001
0100
,  // measure 48
0010
0000
0110
0000
0000
0000
0100
0000
1001
0000
0000
0000
,  // measure 49
1000
0010
0000
0010
1000
0001
0000
0001
,  // measure 50
0010
0001
0000
0001
0010
0100
0000
0010
,  // measure 51
0001
1000
0000
1000
0010
1000
0000
1000
,  // measure 52
0001
0100
0000
0100
0010
0100
0001
0000
,  // measure 53
0001
0010
0000
0010
0100
1000
0000
1000
,  // measure 54
0010
0100
0000
0100
0010
1000
0001
0000
,  // measure 55
1000
0100
0000
0100
0010
0001
0000
0001
,  // measure 56
1000
0010
0100
0001
,  // measure 57
0110
0001
0100
0000
0010
1000
0100
0000
,  // measure 58
0010
0001
1000
0000
0010
1000
0001
0000
,  // measure 59
1000
0001
0100
0000
0001
1000
0100
0000
,  // measure 60
0010
0100
1000
0000
0010
0100
0001
0000
,  // measure 61
0220
0000
0000
0330
,  // measure 62
2000
0000
0000
0000
3002
0000
1003
0001
,  // measure 63
1000
0000
0001
0010
0100
0010
0001
0010
,  // measure 64
0001
0000
1000
0010
0100
0010
1000
0010
,  // measure 65
1000
0000
0001
1000
0100
0000
0010
0001
,  // measure 66
1000
0000
0001
0010
0100
0100
0010
0010
,  // measure 67
1001
0000
0010
1000
0002
0000
2003
0000
,  // measure 68
3001
0000
0010
0001
2000
0000
3002
0000
,  // measure 69
1003
0100
0010
0000
0001
0010
0100
0000
,  // measure 70
1000
0000
0010
0000
0100
0000
0000
0000
0010
0000
0000
0110
0000
0000
0001
0000
,  // measure 71
1000
0000
0001
0010
0100
1000
0001
0010
,  // measure 72
1000
0000
0001
0100
0010
1000
0010
1000
,  // measure 73
0001
0000
1000
0100
0010
0001
1000
0010
,  // measure 74
0001
0000
0010
1000
0100
0100
0010
0100
,  // measure 75
1001
0000
0010
1000
0002
0000
0023
0000
,  // measure 76
0031
0000
0010
0001
2000
0000
3020
0000
,  // measure 77
1030
1000
1000
1000
0001
0001
0001
0001
,  // measure 78
0100
0000
0010
0000
0100
0000
0010
0000
1000
0000
0001
0000
1000
0001
1000
0001
,  // measure 79
2000
0000
3020
0000
1030
0100
0010
0001
,  // measure 80
0020
0000
0031
1000
0020
0000
0230
0000
,  // measure 81
0310
0000
0000
0000
0000
1000
1000
0000
0000
0000
0000
0001
0001
0000
0000
0010
0000
0000
0100
0000
0000
1000
0000
0000
,  // measure 82
0010
0110
2002
0000
,  // measure 83
0000
0000
0000
0000
,  // measure 84
0000
3003
0000
0000
;

//---------------dance-single - ----------------
#NOTES:
     dance-single:
     :
     Hard:
     14:
     0.663,0.710,0.378,0.133,0.475: // measure 1
0000
0000
0000
0000
,  // measure 2
0000
0000
0000
0000
,  // measure 3
0000
0000
0000
0000
,  // measure 4
0000
0000
0000
0000
,  // measure 5
0000
0000
0000
0000
,  // measure 6
1001
0000
0000
0000
0000
0010
0010
0000
0000
0000
0000
1000
,  // measure 7
1000
0001
0010
0100
,  // measure 8
0010
0000
0001
0001
0000
0000
0100
0000
1000
1000
0000
0000
,  // measure 9
0210
0000
0000
0000
,  // measure 10
0002
0000
0000
0303
,  // measure 11
1001
0010
0000
0010
,  // measure 12
0000
0000
0010
0000
0100
0100
0010
0100
,  // measure 13
1001
0010
0000
0010
,  // measure 14
0000
0000
0000
0010
0000
0000
0100
0000
0100
0010
0100
1000
,  // measure 15
1100
0000
0010
0101
1000
0000
0010
0000
,  // measure 16
1100
0000
0010
1100
0001
0010
0100
1000
,  // measure 17
0101
0101
0000
1000
1100
1100
0000
0010
,  // measure 18
0110
0000
0000
0000
1001
0000
0000
0000
0101
0000
0001
0100
0000
0001
1000
0000
,  // measure 19
1001
0000
0000
0010
1000
0000
0000
1000
0100
0000
0000
0100
0010
0000
0000
0010
,  // measure 20
0001
0000
0000
0001
0100
0000
0000
0100
0010
0000
0100
0000
0001
0000
1000
0000
,  // measure 21
0001
0000
0000
0001
0010
0000
0000
0010
0100
0000
0000
0100
1000
0000
0000
1000
,  // measure 22
0100
0000
0000
0100
1000
0000
0000
1000
0010
0000
0000
1000
0001
0000
0100
0000
,  // measure 23
1001
0000
0000
0001
0010
0000
0000
0010
1000
0000
0000
1000
0010
0000
0100
0000
,  // measure 24
1001
0000
0000
1000
0010
0000
0000
0010
0001
0000
0010
0000
0100
0000
0001
0000
,  // measure 25
1001
0000
0000
0001
0100
0000
0001
0000
1001
0000
0000
1000
0100
0000
1000
0000
,  // measure 26
1001
0000
0010
0000
0100
0000
0001
0000
1000
0100
0000
1001
0000
0000
0010
0000
,  // measure 27
0100
0000
0000
0001
0010
0100
2000
0000
0000
0000
0000
0000
,  // measure 28
0010
0100
0001
3100
,  // measure 29
1001
0000
0000
1000
0010
0100
0002
0000
0000
0000
0000
0000
,  // measure 30
0010
1000
0100
1003
,  // measure 31
0110
0000
0000
0010
1000
0010
0200
0000
0000
0000
0000
0000
,  // measure 32
0001
0010
1000
0301
,  // measure 33
1100
0000
0000
0001
0010
0100
0020
0000
0000
0031
1000
0100
,  // measure 34
2000
0000
0000
3010
0100
0001
0020
0000
0000
0000
0000
0000
,  // measure 35
0130
0000
0010
0001
0010
0000
0000
0000
0001
0000
0100
0000
0001
0000
1000
0000
,  // measure 36
0100
0000
1000
0010
1000
0000
0000
0000
1000
0000
0100
0000
0010
0000
0001
0000
,  // measure 37
1000
0000
0010
1000
0010
0000
0000
0000
0100
0000
0001
0000
1000
0000
0010
0000
,  // measure 38
0100
0000
0001
0010
0001
0000
0000
0000
1000
0000
1000
0000
0001
0000
0001
0000
,  // measure 39
1001
0000
0010
1000
0010
0000
1000
0000
0100
0000
1000
0000
0001
0000
0010
0000
,  // measure 40
0100
0000
0010
0001
1000
0000
0000
0000
0001
0000
0100
0000
0001
0000
1000
0000
,  // measure 41
0010
0000
1000
0100
1000
0000
0100
0000
0010
0000
0001
0000
1000
0000
0010
0000
,  // measure 42
0100
0000
0001
1000
0010
0000
1000
0000
0100
0010
0100
0010
0100
0000
0010
0000
,  // measure 43
1001
0010
0010
0010
0100
0001
0001
0001
,  // measure 44
0010
1000
1000
1000
0010
0001
0001
0001
,  // measure 45
1000
0100
0100
0100
0001
0100
0100
0100
,  // measure 46
1001
0000
0100
0010
0000
0010
0100
0000
0001
1000
0000
1000
0001
1000
0001
1000
,  // measure 47
0010
0000
1010
0000
0001
0100
0001
0100
0001
1000
0001
1000
,  // measure 48
0100
0000
0000
0000
0000
0000
0000
0000
0010
0000
0000
0000
0010
0000
0000
0000
0000
0000
0000
0000
0000
0000
0000
0000
0100
0000
0000
0000
0000
0000
0000
0000
0100
0000
0000
0000
1000
0000
0000
0001
0000
0000
1000
0000
0000
0001
0000
0000
,  // measure 49
1000
0000
0010
0000
0100
0000
0010
1000
0100
0000
1000
0000
0000
0000
1000
0000
,  // measure 50
0010
0000
0100
0000
0001
0000
0010
0100
1000
0000
0100
0000
0010
0001
0010
0001
,  // measure 51
1000
0000
0010
0000
0100
0000
0001
0010
0100
0000
0010
0000
0000
0000
0010
0000
,  // measure 52
0001
0000
1000
0000
0001
0000
0100
0000
0001
0000
1000
0000
0001
0010
0001
0010
,  // measure 53
0001
0000
1000
0000
0100
0000
0010
0100
1000
0000
0010
0000
0000
0000
0010
0000
,  // measure 54
0100
0000
0001
0000
1000
0000
0100
1000
0001
0000
1000
0000
0010
0100
0010
0100
,  // measure 55
0001
0000
1000
0000
0010
0000
0100
0001
1000
0000
0001
0000
0000
0000
0001
0000
,  // measure 56
1000
0000
0100
0000
0010
0000
0001
0000
0100
0000
0010
0100
0010
0000
1000
0001
,  // measure 57
1000
0000
1100
0001
0010
0000
0101
1000
,  // measure 58
0010
0000
0000
0000
1100
0000
0001
0000
0010
0000
0100
0010
0001
0000
0100
0010
,  // measure 59
1000
0000
0010
0101
1000
0000
0010
1100
,  // measure 60
0001
0000
0000
0000
0100
0000
1010
0000
0001
0000
1000
0001
0100
0000
0001
1000
,  // measure 61
0020
0000
0000
0030
,  // measure 62
0220
0000
0300
0000
2030
0000
3002
2003
,  // measure 63
3001
0000
0000
0100
0001
0000
0100
0000
0001
0000
0010
0000
0100
0000
1000
0000
,  // measure 64
0010
0000
0000
1000
0010
0000
0100
0000
0010
0000
1000
0000
0100
0000
0010
0000
,  // measure 65
0100
0000
0000
1000
0100
0000
0010
0000
0001
0000
1000
0000
0010
0000
0100
0000
,  // measure 66
0001
0000
0000
1000
0001
0000
0010
0000
0001
0010
0100
0000
0010
0100
1000
0000
,  // measure 67
0010
0000
0100
0001
0000
1000
1000
0000
0010
0010
0000
0000
,  // measure 68
0100
0000
0010
1000
0000
0001
0001
0000
0010
0010
0000
0000
,  // measure 69
0001
0000
0000
1000
0100
0000
1000
0000
0001
0000
0000
0001
0100
0000
0001
0000
,  // measure 70
1000
0000
0000
0010
0100
0000
0010
0000
1001
0000
0000
0110
0000
0000
1001
0000
,  // measure 71
1000
0000
0100
0000
0010
0000
0001
0000
1000
0000
0010
1000
0010
0000
0100
0001
,  // measure 72
0100
0000
0001
0000
0010
0000
0100
0000
1000
0000
0001
0010
0001
0000
1000
0010
,  // measure 73
1000
0000
0001
0000
0100
0000
1000
0000
0100
0000
0001
0010
0100
0000
0010
0001
,  // measure 74
1000
0000
0010
0000
0001
0000
0010
0000
1000
0100
1000
0000
0001
0100
0001
0000
,  // measure 75
0110
0000
0000
0000
0000
0000
0000
0000
0000
0010
0000
0000
1000
0000
0000
0000
0000
0000
0000
0000
0001
0000
0000
0000
1001
0000
0000
0000
0000
0000
0000
0000
0010
0000
0000
0000
1010
0000
0000
0000
0000
0000
0000
0000
0000
0000
0000
0000
,  // measure 76
1100
0000
0000
0000
0000
0000
0000
0000
0000
0100
0000
0000
0010
0000
0000
0000
0000
0000
0000
0000
0100
0000
0000
0000
1100
0000
0000
0000
0000
0000
0000
0000
0010
0000
0000
0000
0011
0000
0000
0000
0000
0000
0001
0000
0000
1000
0000
0000
,  // measure 77
0001
0001
1000
1000
0010
0010
0100
0100
,  // measure 78
0001
0010
0100
0000
1000
0010
0100
0000
0001
0100
1000
0100
0001
0010
0100
1000
,  // measure 79
0001
0011
1100
1010
,  // measure 80
0110
0000
0000
0000
0100
0000
0010
0000
2001
0000
0000
3010
0200
0000
0000
0000
,  // measure 81
0301
0000
0000
0000
0000
0010
0010
0000
0000
0000
0000
1000
1000
0000
0000
0010
0000
0000
0001
0000
0000
0100
0000
0000
,  // measure 82
0001
1000
0220
0000
,  // measure 83
0000
0000
0000
0000
,  // measure 84
0000
0330
0000
0000
;

//---------------dance-single - ----------------
#NOTES:
     dance-single:
     :
     Challenge:
     19:
     1.000,1.000,0.578,0.252,1.000: // measure 1
0000
0000
0000
0000
,  // measure 2
0000
0000
0000
0000
,  // measure 3
0000
0000
0000
0000
,  // measure 4
0000
0000
0000
0000
,  // measure 5
0000
0000
0000
0000
,  // measure 6
2001
0000
0000
0000
0000
3010
0020
0000
0000
0000
0000
1030
,  // measure 7
2000
3002
0023
0230
,  // measure 8
0320
0000
0031
0002
0000
0000
2003
0000
3010
0010
0000
0000
,  // measure 9
0220
0000
0000
0330
,  // measure 10
2002
0000
0000
3003
,  // measure 11
1010
0000
0001
0000
1000
0100
1000
0100
0010
0000
0001
0000
1000
0100
1000
0100
,  // measure 12
0010
0000
0001
0000
1000
0100
1000
0100
0010
0100
1000
0000
0001
0100
0010
0000
,  // measure 13
1001
0000
0100
0000
0001
0100
0001
0100
0010
0000
1000
0000
0001
0100
0001
0100
,  // measure 14
0010
0000
0000
0000
0000
0000
1000
0000
0000
0000
0000
0000
0001
0000
0000
0100
0000
0000
0001
0000
0000
0100
0000
0000
0010
0000
0000
0000
0000
0000
0000
0000
0100
0000
0000
0000
0001
0000
0000
0000
1000
0000
0000
0000
0001
0000
0000
0000
,  // measure 15
1001
0000
0010
1100
0001
0000
1010
0000
,  // measure 16
1001
0000
0000
0000
0010
0000
0101
0000
1000
0001
0100
0000
0001
1000
0100
0000
,  // measure 17
1001
0000
1001
0000
0010
0000
0100
0001
1001
0000
1001
0000
0010
0000
0100
1000
,  // measure 18
1001
0000
0100
0000
1001
0100
0000
0100
1001
0000
0010
1001
0000
0100
1010
0000
,  // measure 19
1001
0000
0010
0000
0001
0010
0100
1000
0001
0000
1000
0000
0001
0010
0100
1000
,  // measure 20
0001
0000
1000
0000
0001
0010
0100
1000
0010
1000
0100
0000
0010
0001
0100
0000
,  // measure 21
1001
0000
0010
0000
1000
0010
0100
0001
1000
0000
0010
0000
1000
0010
0100
0001
,  // measure 22
1000
0000
0000
0000
0000
0000
0010
0000
0000
0000
0000
0000
1000
0000
0000
0010
0000
0000
0100
0000
0000
0001
0000
0000
1000
0000
0100
0000
1000
0000
0100
0000
0000
0000
0000
0000
0001
0000
0100
0000
0001
0000
0100
0000
0000
0000
0000
0000
,  // measure 23
1001
0000
0010
0000
0001
0010
0100
1000
0001
0000
1000
0000
0001
1000
0100
0000
,  // measure 24
1001
0000
0010
0000
1000
0010
0100
0001
1000
0001
0100
0000
0001
1000
0100
0000
,  // measure 25
1001
0000
0010
0000
0001
0100
0010
1000
1100
0000
0010
0000
1000
0100
0010
0001
,  // measure 26
1001
0000
0010
0000
1000
0001
0100
0000
0001
0101
0000
1100
0000
0000
0011
0000
,  // measure 27
1001
0010
1000
0010
1000
0001
0010
0100
1000
0100
0010
0001
,  // measure 28
1000
0100
0010
0100
1000
0010
1000
0010
0001
0010
1000
0001
,  // measure 29
1001
0001
0010
0100
1000
0100
0010
0100
1000
0001
0010
1000
,  // measure 30
0010
0001
0100
0010
1000
0100
0010
0100
1000
0001
0100
0010
,  // measure 31
0110
0010
1000
0010
0100
0001
1000
0100
0001
0100
1000
0001
,  // measure 32
1000
0010
0001
0010
1000
0001
1000
0001
0010
1000
0010
0001
,  // measure 33
0101
0001
0010
0100
1000
0010
0100
0010
1000
0001
0010
0001
,  // measure 34
1000
0100
0010
0001
0010
0100
2000
0000
0000
3000
0000
0000
,  // measure 35
1001
0000
0010
1000
0100
1000
0010
0000
1000
0010
0100
0001
1000
0010
0100
0000
,  // measure 36
0001
0000
0010
0001
0100
0001
0010
0000
0001
0010
0100
1000
0001
0010
0100
0000
,  // measure 37
1000
0000
0010
1000
0001
1000
0010
0000
0100
0001
1000
0010
0100
0001
1000
0000
,  // measure 38
0010
0000
0100
0001
0010
0001
1000
0000
0011
0000
1000
0000
1010
0000
1001
0000
,  // measure 39
1010
0000
0010
0100
0001
1000
0010
1000
0001
0010
0100
1000
0100
0010
0100
1000
,  // measure 40
0010
0000
1000
0001
0010
0000
0000
0000
0001
0010
0100
1000
0001
0010
0100
1000
,  // measure 41
0010
0000
0100
0001
1000
0010
1000
0100
1000
0010
1000
0001
0100
0010
1000
0001
,  // measure 42
0100
0000
0001
0010
0100
0000
0110
0000
1000
0001
1000
0001
1000
0000
0001
1000
,  // measure 43
0001
0010
0001
0010
0001
0010
0001
0010
1000
0010
1000
0010
1000
0010
1000
0010
,  // measure 44
0001
0100
0001
0100
0001
0100
0001
0100
1000
0010
1000
0010
1000
0010
1000
0010
,  // measure 45
0100
0010
0100
0010
0100
0010
0100
0010
0001
1000
0001
1000
0001
1000
0001
1000
,  // measure 46
1001
0000
0100
0100
0000
0100
1001
0000
0010
0010
1001
0000
0100
0100
0001
1000
,  // measure 47
0001
0000
0011
0000
1000
0100
1000
0001
1000
0001
1000
0001
,  // measure 48
0100
0000
0000
0000
0010
0000
0010
0000
0000
0000
0000
0000
0100
0000
0000
0000
0100
0000
0001
1000
0001
1000
0001
1000
,  // measure 49
0001
0000
0010
0000
0100
0010
0001
0010
0100
0000
0010
0000
0001
0100
0010
0100
,  // measure 50
0001
0000
1000
0000
0001
0010
0100
0010
0001
0000
1000
0000
0010
1000
0001
0100
,  // measure 51
0010
0000
1000
0000
0100
0010
0100
1000
0010
0000
1000
0000
0010
1000
0100
1000
,  // measure 52
0010
0000
1000
0000
0100
1000
0010
1000
0001
0000
0100
0000
0001
0010
0100
1000
,  // measure 53
0010
0000
1000
0000
0001
0010
0001
1000
0001
0000
0100
0000
0001
0010
0100
0010
,  // measure 54
0001
0000
1000
0000
0001
0010
1000
0010
0001
0000
1000
0000
0001
0100
0010
0100
,  // measure 55
0001
0000
1000
0000
0010
1000
0010
0100
0001
0000
1000
0000
0100
0010
0001
1000
,  // measure 56
0001
0000
0100
0010
1000
0000
0100
0010
0001
0000
0100
0010
1000
0000
0100
0010
,  // measure 57
1001
0000
0010
0000
1000
0100
0010
0100
1000
0000
0010
0000
1000
0100
0001
0100
,  // measure 58
1000
0000
0001
0000
1000
0010
0100
0010
1000
0000
0001
0000
1000
0001
0100
0010
,  // measure 59
0001
0000
0010
0000
0001
0010
1000
0010
0001
0000
1000
0000
0001
0010
0100
0010
,  // measure 60
0001
0000
1000
0000
0001
0010
1000
0100
1000
0000
0001
1000
0000
0000
0001
1000
,  // measure 61
0020
0000
0000
0030
,  // measure 62
0220
0000
0030
0000
0320
0000
2030
3002
,  // measure 63
1003
0000
0010
1000
0001
0100
0001
0010
0100
0010
0001
0010
0100
0010
0001
1000
,  // measure 64
0010
0000
1000
0010
0100
0010
1000
0100
0010
0100
1000
0010
0100
0010
1000
0001
,  // measure 65
0100
0000
0001
0010
0100
0010
0001
1000
0010
0100
0010
1000
0001
0010
0001
1000
,  // measure 66
0010
0000
0000
0000
0000
0000
1000
0000
0000
0100
0000
0000
0010
0000
0000
0100
0000
0000
1000
0000
0000
0001
0000
0000
1000
0000
0010
0000
1000
0000
0010
0000
0000
0000
0000
0000
0100
0000
0001
0000
0100
0000
0001
0000
0000
0000
0000
0000
,  // measure 67
1000
0000
0000
0000
0000
0000
0100
0000
0000
0010
0000
0000
0001
0000
0000
0000
0000
0000
0000
0000
0010
0000
0000
0000
1010
0000
0000
0000
0000
0000
0000
0000
0001
0000
0000
0000
1001
0000
0000
0000
0000
0000
0000
0000
0000
0000
0000
0000
,  // measure 68
0001
0000
0000
0000
0000
0000
0010
0000
0000
0100
0000
0000
1000
0000
0000
0000
0000
0000
0000
0000
0010
0000
0000
0000
0011
0000
0000
0000
0000
0000
0000
0000
1000
0000
0000
0000
1001
0000
0000
0000
0000
0000
0000
0000
0000
0000
0000
0000
,  // measure 69
0010
0000
1000
0010
0100
0001
1000
0000
0001
0000
0010
0001
1000
0010
0100
0000
,  // measure 70
0010
0000
1000
0001
0100
0000
0001
1000
1010
0000
0000
0011
0000
0000
1001
0000
,  // measure 71
0110
0000
0001
0010
0100
0010
0001
1000
0010
0100
0010
1000
0001
0010
0100
0010
,  // measure 72
0001
0000
1000
0010
0100
0010
1000
0100
0010
0100
1000
0001
0100
0001
1000
0010
,  // measure 73
1000
0000
0001
0010
0100
0010
0001
1000
0010
0000
1000
0010
0100
0010
1000
0001
,  // measure 74
0100
0000
0000
0000
0000
0000
0001
0000
0000
0010
0000
0000
0001
0000
0000
1000
0000
0000
0010
0000
0000
1000
0000
0000
0001
0000
0010
0000
0100
0000
1000
0000
0000
0000
0000
0000
1000
0000
0010
0000
0100
0000
0001
0000
0000
0000
0000
0000
,  // measure 75
0110
0000
0000
0000
0000
0000
0001
0000
0000
1000
0000
0000
0100
0000
0000
0000
0000
0000
0000
0000
1010
0000
0000
0000
1010
0000
0000
0000
0000
0000
0000
0000
1001
0000
0000
0000
1001
0000
0000
0000
0000
0000
0000
0000
0000
0000
0000
0000
,  // measure 76
0110
0000
0000
0000
0000
0000
1000
0000
0000
0001
0000
0000
0100
0000
0000
0000
0000
0000
0000
0000
0011
0000
0000
0000
0011
0000
0000
0000
0000
0000
0000
0000
1001
0000
0000
0000
1001
0000
0000
0000
0000
0000
0001
0000
0000
1000
0000
0000
,  // measure 77
0001
0101
1100
0101
1000
1010
0011
1010
,  // measure 78
0001
0000
0000
0010
0000
0000
1000
0000
0000
0000
0000
0000
0001
0000
0000
0100
0000
0000
1000
0000
0000
0000
0000
0000
1000
0000
0000
0010
0000
0000
0001
0000
0000
0010
0000
0000
1000
0000
0100
0000
1000
0000
0100
0000
0000
1000
0000
0000
,  // measure 79
0001
0000
0000
0010
0100
0010
0002
0000
0000
0013
0000
0000
2000
0000
0000
3010
0000
0000
0002
0000
0000
0103
0000
0000
,  // measure 80
0001
0000
0000
0000
0000
0000
0000
0000
0000
0000
0000
0000
0000
0000
0000
0000
0000
0000
0000
0000
0000
0000
0000
0000
1000
0000
0000
0000
0000
0000
0000
0000
0001
0000
0000
0000
0000
0000
0000
0000
0100
0000
0000
0000
0000
0000
0000
0000
0020
0000
0000
0000
0000
0000
0000
0000
0000
0000
0000
0000
0000
0000
0000
0000
0000
0000
0000
0000
0000
0000
0000
0000
1030
0000
0000
0000
0000
0000
0000
0000
0000
0000
0000
0000
0000
0000
0000
0000
0000
0000
0000
0000
0000
0000
0000
0000
0002
0000
0000
0000
0000
0000
0000
0000
0000
0000
0000
0000
0000
0000
0000
0000
0000
0000
0000
0000
0000
0000
0000
0000
0013
0000
0000
0000
0000
0000
0000
0000
0000
0000
0000
0000
0001
0000
0000
0000
0000
0000
1000
0000
0000
0000
0000
0000
0200
0000
0000
0000
0000
0000
0000
0000
0000
0000
0000
0000
0000
0000
0000
0000
0000
0000
0000
0000
0000
0000
0000
0000
1300
0000
0000
0000
0000
0000
0000
0000
0000
0000
0000
0000
0000
0000
0000
0000
0000
0000
0000
0000
0000
0000
0000
0000
,  // measure 81
2001
0000
0000
0000
0000
3010
2010
0000
0000
0000
0000
3001
1001
0000
0000
0011
0000
0000
0110
0000
0000
1001
0000
0000
,  // measure 82
0220
0330
2200
3300
2002
0000
0000
0000
,  // measure 83
0000
0000
0000
0000
,  // measure 84
0000
3003
0000
0000
;

//---------------dance-double - ----------------
#NOTES:
     dance-double:
     :
     Easy:
     6:
     0.322,0.370,0.163,0.297,0.004:
00000000
00000000
00000000
00000000
,
00000000
00000000
00000000
00000000
,
00000000
00000000
00000000
00000000
,
00000000
00000000
00000000
00000000
,
00000000
00000000
00000000
00000000
,
00022000
00033000
02000000
03000000
,
00010000
00100000
01000000
10000000
,
02000000
03000000
00002000
00000000
,
00020000
00000000
00000000
00033000
,
00000020
00000000
00000000
00000030
,
00000110
00000001
00000000
00000001
,
00000000
00000001
00000010
00000100
,
00011000
00100000
00000000
00100000
,
00000000
00100000
01000000
00100000
,
00011000
00000000
00000000
00011000
00000000
00000000
00000000
00000000
,
00010100
00000000
00000000
00010100
00000000
00000000
00000000
00000000
,
00001000
00010000
00000000
00001000
00010000
00001000
00000000
00100000
,
00001000
00010000
00001000
00010000
,
00101000
01000000
00100000
10000000
,
01000000
00100000
00001000
00010000
,
00001000
00000010
00000001
00000100
,
00010000
00000100
00000010
00001000
,
00011000
00100000
00001000
01000000
,
00011000
00000010
00000001
00000100
,
00011000
00100000
00011000
00000100
,
00011000
01000000
00002000
00003000
,
00100000
00010000
02000000
00000000
,
00010000
00000000
00100000
03000000
,
00001000
00100000
00002000
00000000
,
00000100
00000000
00000001
00003000
,
00000010
00010000
00002000
00000000
,
00100000
00000000
01000000
00003000
,
10000000
01000000
00100000
00010000
,
00000010
00000001
00002000
00003000
,
00000001
00000010
00000100
00000010
,
00000001
00000010
00000100
00010000
,
00001000
00100000
01000000
00100000
,
00001000
00000000
01000000
00000000
00001000
00010000
00001000
00010000
,
00001000
00000100
00000001
00000100
,
00000010
00001000
00000100
00010000
,
00001000
00100000
01000000
10000000
,
01000000
00000000
00100000
00000000
00010000
00000000
01000000
00001000
,
00020000
00030000
00002000
00003000
,
00000020
00000030
00000200
00000300
,
00002000
00003000
00200000
00300000
,
02000000
03000000
20000000
30000000
,
20020000
00000000
00000000
00000000
,
00000000
00000000
00000000
30030000
,
01100000
01000000
01000000
00000000
,
00001000
00000000
00010000
00000000
,
00001000
00001000
00001000
00000000
,
00000100
00000000
00000010
00000000
,
00001001
00000001
00000001
00000000
,
00000010
00000000
00000100
00000000
,
00010000
00010000
00010000
00000000
,
00001000
00000000
00100000
00000000
,
01000000
00100000
00001000
00000000
,
00010000
00000100
00001000
00000000
,
00000100
00010000
00100000
00000000
,
10000000
01000000
00010000
00000000
,
00022000
00000000
00000000
00033000
,
00000020
00000000
00000030
00000000
00000200
00000000
00000301
00001000
,
00000001
00000010
00000100
00001000
,
00010000
00100000
01000000
10000000
,
00200000
00300000
02000000
03000000
,
00002000
00003000
00020000
00030000
,
00011000
00000000
00000010
00000200
,
00000301
00000000
00000010
00000200
,
00010300
00000000
00001000
00000000
,
00100000
00000000
00000000
00000000
00100000
00000000
00000000
00000000
00001000
00000000
00000000
00010000
00000000
00000000
00001000
00000000
,
01000000
00010000
10000000
00100000
,
01000000
00001000
00010000
00000100
,
00020000
00030000
00000200
00000300
,
00000020
00000030
00000002
00000003
,
00001001
00000000
00000100
00010000
,
00011000
00000000
01000000
00001000
,
00011000
00100000
00001000
00010000
,
00000100
00000000
00000100
00000000
00010000
00010000
00001000
00001000
,
02000000
00000000
03010000
00000000
00100000
00001000
00010000
00001000
,
00000100
00000010
00000001
00001000
,
00000020
00000000
00010030
00000000
00000100
00010000
00001000
00010000
,
00100000
01000000
00022000
00000000
,
00000000
00000000
00000000
00000000
,
00000000
00033000
00000000
00000000
;

//---------------dance-double - ----------------
#NOTES:
     dance-double:
     :
     Medium:
     11:
     0.507,0.525,0.311,0.133,0.148:
00000000
00000000
00000000
00000000
,
00000000
00000000
00000000
00000000
,
00000000
00000000
00000000
00000000
,
00000000
00000000
00000000
00000000
,
00000000
00000000
00000000
00000000
,
00011000
00000000
00000000
00000000
00000000
00100000
00010000
00000000
00000000
00000000
00000000
00010000
,
01000000
00001000
00100000
00010000
,
00000100
00000000
00000010
00000001
00000000
00000000
00000100
00000000
00000010
00010000
00000000
00000000
,
00022000
00000000
00000000
00030000
,
00200000
00000000
00000000
00303000
,
01010000
00000000
00100000
10000000
01000000
00000000
00100000
00010000
,
01000000
00000000
00100000
10000000
01000000
00100000
00001000
00000000
,
00011000
00000000
00000010
00001000
00000100
00000000
00000010
00000001
,
00000100
00000000
00000000
00000010
00000000
00000100
00000001
00000000
00000001
00001000
00000000
00000000
,
00010100
00000000
00000000
00101000
00000000
00000000
00001000
00000000
,
00110000
00000000
00000000
01001000
00000000
00000000
00010000
00000000
,
01000000
01000000
00000000
00100000
00100000
00100000
00000000
00001000
,
00010000
00000000
00000000
00000000
00011000
00000000
00000000
00000000
00000100
00000000
00000000
00000010
00000000
00000000
00000100
00000000
,
00010000
00011000
00100000
00101000
,
00010000
00000000
01000000
00000000
00010000
00100000
00001000
00000000
,
00010000
00010100
00000010
00001010
,
00000100
00000000
00010100
00000000
00011000
00000000
00000100
00010000
,
00001000
00000000
00101000
00000000
01000000
00010000
10000000
00000000
,
10010000
00000000
00100000
00000000
01000000
00001000
00010000
00000000
,
00011000
00000000
00000010
00000100
00010000
00000000
00000100
00010000
,
00001000
00000000
00000000
00000000
00101000
00000000
00000000
00000000
01010000
00000000
00000000
01000000
00000000
00000000
00001000
00000000
,
00010000
00000000
00000000
01000000
00000000
00010000
02000000
00000000
00000000
00100000
00000000
00000000
,
10000000
00010000
10000000
03100000
,
01001000
00000000
00000000
00001000
00000000
00100000
00002000
00000000
00000000
00010000
00000000
00000000
,
00100000
00010000
00000100
00013000
,
00001001
00000000
00000000
00000010
00001000
00000001
00000200
00000000
00000000
00000001
00000000
00000000
,
00000010
00001000
00000010
00010300
,
00011000
00000000
00000000
00100000
00010000
01000000
00010000
00000000
00000000
10000000
01000000
00100000
,
01000000
00000000
00000000
10000000
00010000
01000000
00200000
00000000
00000000
00000000
00000000
00000000
,
01300000
00001000
00010000
00000000
00100000
00001000
00010000
00000000
,
00000100
00010000
00001000
00000000
00000010
00000100
00010000
00000000
,
00001000
00100000
00010000
00000000
01000000
00010000
10000000
00000000
,
00100000
01000000
00001000
00000000
00010000
00001000
00010000
00001000
,
00000100
00000010
00000100
00000000
00000010
00000001
00000100
00000000
,
00000001
00001000
00000010
00000000
00010000
00000100
00001000
00000000
,
01000000
00100000
00010000
00000000
00000100
00010000
00001000
00000000
,
00100000
01000000
00010000
00000000
10000000
00010000
01000000
00010000
,
10000000
10000000
10000000
10000000
01000000
01000000
01000000
01000000
,
00100000
00100000
00100000
00100000
00010000
00010000
00010000
00010000
,
00001000
00001000
00001000
00001000
00000100
00000100
00000100
00000100
,
00000010
00000010
00000010
00000010
00000001
00000001
00000001
00000001
,
00001000
00000000
00001100
00000000
00000100
00010000
00000100
00000000
00010000
00000000
00011000
00000000
,
00100000
00000000
00110000
00000000
00000000
00000000
01000000
00000000
01000000
00000000
00000000
00000000
,
01100000
00000000
01000000
00010000
01000000
00000000
00010000
00100000
,
00010000
00000000
01000000
00001000
00010000
00000000
00001000
00000000
,
00000100
00000000
00000010
00001000
00000001
00000000
00000010
00000100
,
00001000
00000000
00000100
00010000
00001000
00000000
00100000
00000000
,
00010000
00000000
01000000
00010000
10000000
00000000
00100000
10000000
,
01000000
00000000
00100000
00001000
00010000
00000000
00001000
00000000
,
00000100
00000000
00000010
00001000
00000100
00000000
00000010
00000100
,
00001000
00011000
00010000
00011000
,
01001000
00000000
00010000
01000000
00010000
00000000
00010000
00000000
,
00101000
00000000
00010000
00000100
00010000
00000000
00010000
00000000
,
00001100
00000000
00000100
00001000
00000100
00000000
00000100
00000000
,
00000011
00000000
00000001
00001000
00000001
00000000
00000001
00000000
,
00002002
00000000
00000000
00003003
,
00002200
00000000
00003300
00000000
00201000
00000000
00310000
10000000
,
00010000
00000000
00000000
01000000
00010000
00000000
00000000
00000000
10000000
00000000
01000000
00000000
10000000
00000000
00000000
00000000
,
00100000
00000000
00000000
10000000
01000000
00000000
00000000
00000000
10000000
00000000
00010000
00000000
10000000
00000000
00000000
00000000
,
01000000
00000000
00000000
00100000
00001000
00000000
00000000
00000000
00010000
00000000
00000100
00000000
00001000
00000000
00000000
00000000
,
00000100
00000000
00000000
00000010
00000001
00000000
00000000
00000000
00001000
00000000
00000001
00000000
00000100
00000000
00000000
00000000
,
00000010
00000000
00000000
00001000
00000000
00000000
00000100
00000000
00000000
00000000
00001000
00000000
00001000
00000000
00000000
00000000
00000001
00000000
00000001
00000000
00000000
00000000
00000000
00000000
,
00000100
00000000
00000000
00000010
00000000
00000000
00010000
00000000
00000000
00000000
00000100
00000000
00000100
00000000
00000000
00000000
00010000
00000000
00010000
00000000
00000000
00000000
00000000
00000000
,
00001000
00010000
00001000
00000000
00100000
00010000
00100000
00000000
,
01000000
00000000
00001000
00000000
00010000
00000000
00000000
00000000
00001000
00000000
00000000
00011000
00000000
00000000
00010000
00000000
,
00000100
00001000
00000100
00000000
00000020
00000000
00000031
00000000
,
00000100
00000001
00000100
00000000
00000020
00000000
00010030
00000000
,
00000100
00010000
00001000
00000000
00200000
00000000
00310000
00000000
,
01000000
00010000
10000000
00000000
01000000
00100000
00010000
00000000
,
00100000
00000000
00000000
00110000
00000000
00001000
00010000
00000000
00001000
00010000
00000000
00000000
,
00000100
00000000
00000000
00000000
00000000
00000000
00010100
00000000
00000000
00000000
00000100
00000000
00000010
00000000
00000000
00000000
00000010
00000000
00000001
00000000
00000000
00000100
00000000
00000000
,
00000001
00000001
00000010
00000010
00000100
00000100
00001000
00000000
,
00010000
00000100
00001000
00000000
00100000
00010000
10000000
00000000
,
20010000
00100000
31000000
00000000
00100000
01000000
00010000
10000000
,
00010000
00100000
00001000
00000000
01000000
00001000
00010000
00000000
,
00000110
00000000
00000000
00000000
00000000
00000001
00001000
00000000
00000000
00000000
00000000
00001000
00000001
00000000
00000000
00000010
00000000
00000000
00000100
00000000
00000000
00010000
00000000
00000000
,
00001000
00100000
00022000
00000000
,
00000000
00000000
00000000
00000000
,
00000000
00033000
00000000
00000000
;

//---------------dance-double - ----------------
#NOTES:
     dance-double:
     :
     Hard:
     15:
     0.635,0.710,0.341,0.171,0.389:
00000000
00000000
00000000
00000000
,
00000000
00000000
00000000
00000000
,
00000000
00000000
00000000
00000000
,
00000000
00000000
00000000
00000000
,
00000000
00000000
00000000
00000000
,
00201000
00000000
00000000
00000000
00000000
00301000
00002000
00000000
00000000
00000000
00000000
00013000
,
00010000
01000000
00001000
00010000
,
00202000
00303000
00020200
00030300
,
00000220
00000000
00000000
00000330
,
00000001
00000010
00000100
00001000
00000100
00010000
00001000
00100000
,
00011000
01000000
00000000
01000000
,
00000000
00000000
01000000
00000000
00010000
10000000
01000000
00100000
,
00011000
00000100
00000000
00000100
,
00000000
00000000
00000000
00000100
00000000
00000000
00000110
00000000
00000001
00001000
00000100
00001000
,
00001001
00000000
00000010
00001100
00010000
00000000
00000000
00000000
,
00011000
00000000
00100000
01001000
00010000
00000000
00000000
01000000
,
00100000
01100000
00000000
10000000
00010000
10010000
00000000
01000000
,
01001000
00000000
00000000
00000000
00101000
00000000
00000000
00000000
00011000
00000000
00000000
00010100
00000000
00000000
00011000
00000000
,
00000010
00000000
00000000
00001000
00000100
00000000
00000000
00000100
00010000
00000000
00000000
00010000
00001000
00000000
00000000
00000000
,
00100000
00000000
00000000
00100000
00010000
00000000
00000000
00010000
01000000
00000000
00001000
00000000
00100000
00000000
00010000
00000000
,
00000100
00000000
00000000
00000100
00000010
00000000
00000000
00000010
00010000
00000000
00000000
00010000
00000100
00000000
00000000
00000000
,
00000010
00000000
00000000
00000010
00000100
00000000
00000000
00000100
00010000
00000000
00000000
00010000
00001000
00000000
01000000
00000000
,
00011000
00000000
00000000
00001000
00100000
00000000
00000000
00100000
00010000
00000000
00000000
00010000
01000000
00000000
00000000
00000000
,
10010000
00000000
00000000
10000000
00100000
00000000
00000000
00100000
01000000
00000000
00001000
00000000
00100000
00000000
00001000
00000000
,
00011000
00000000
00000000
00010000
00000100
00000000
00000000
00000000
00011000
00000000
00000000
00001000
01000000
00000000
00000000
00000000
,
01100000
00000000
00000000
00000000
10010000
00000000
00000000
00000000
01000000
00010000
00000000
00101000
00000000
00000000
00010000
00000000
,
00000200
00000000
00000000
00000310
00000100
00001000
00000020
00000000
00000000
00000000
00000000
00000000
,
00001000
00000100
00000001
00001030
,
00101000
00000000
00000000
01000000
00010000
10000000
00200000
00000000
00000000
00000000
00000000
00000000
,
10000000
01000000
00010000
10300000
,
00010000
01000000
00010000
00100000
00000000
00100000
00001000
00000000
00001000
00010000
00000000
00010000
,
00002000
00000000
00010000
00003100
,
00010000
00000100
00010000
00000100
00000000
00000000
00001000
00000010
00001000
00000010
00000000
00000000
,
00010000
00001000
00010000
00001000
00100000
00001000
00020000
00000000
00000000
00000000
00000000
00000000
,
01030000
00000000
00010000
01000000
00010000
00000000
00000000
00000000
00010000
00000000
00100000
00000000
01000000
00000000
00000000
00000000
,
10000000
00000000
00100000
10000000
00100000
00000000
00000000
00000000
10000000
00000000
00010000
00000000
01000000
00000000
00000000
00000000
,
00001000
00000000
00100000
00001000
00100000
00000000
00000000
00000000
00001000
00000000
00010000
00000000
00000100
00000000
00000000
00000000
,
00000010
00000000
00000100
00001000
00000100
00000000
00000000
00000000
00001000
00000000
00010000
00000000
00001000
00000000
00010000
00000000
,
00011000
00000000
01000000
00001000
01000000
00000000
00100000
00000000
01000000
00000000
00010000
00000000
00100000
00000000
01000000
00000000
,
10000000
00000000
00010000
00100000
00001000
00000000
00000000
00000000
00000100
00000000
00000010
00000000
00001000
00000000
00000001
00000000
,
00000010
00000000
00000100
00010000
00001000
00000000
00100000
00000000
00001000
00000000
01000000
00000000
00100000
00000000
10000000
00000000
,
00010000
00000000
00100000
01000000
10000000
00000000
00000000
00000000
00010000
00000000
00100000
01000000
00001000
00000000
00010000
00000000
,
00011000
00001000
00001000
00001000
00010000
00010000
00010000
00010000
,
01000000
01000000
01000000
01000000
00100000
00100000
00100000
00100000
,
00001000
00001000
00001000
00001000
00010000
00010000
00010000
00010000
,
00000010
00000000
00000100
00000001
00000000
00000000
00000010
00000000
00000100
00001000
00000000
00000001
00001000
00000000
00000001
00001000
,
00000010
00000000
00000110
00000000
00000001
00001000
00000001
00001000
00000100
00010000
00001000
00010000
,
00011000
00000000
00100000
00100000
00000000
00000000
00011000
00000000
00000010
00000010
00000000
00000000
,
00000101
00000000
00000001
00000000
00000100
00000000
00000001
00000010
00000001
00000000
00001000
00000000
00000000
00000000
00001000
00000000
,
00000001
00000010
00000100
00010000
00001000
01000000
00100000
10000000
,
01000000
00000000
10000000
00000000
01000000
00000000
00100000
00010000
00100000
00000000
00010000
00000000
00000000
00000000
00010000
00000000
,
01000000
00001000
00010000
00000100
00010000
00001000
00010000
00000010
,
00000110
00000000
00000001
00000000
00001000
00000000
00000100
00001000
00000100
00000000
00001000
00000000
00000000
00000000
00001000
00000000
,
00000010
00010000
00000100
00001000
00100000
00001000
01000000
00010000
,
00100000
00000000
01000000
00000000
10000000
00000000
00100000
10000000
00100000
00000000
10000000
00000000
00000000
00000000
10000000
00100000
,
01000000
00000000
00100000
10000000
00010000
00000000
01000000
00001000
00010000
00000000
00000100
00010000
00001000
00000000
00000100
00000010
,
00001000
00000010
00000110
00000000
00000001
00000010
00000110
00000000
,
00000100
00000000
00010000
00000000
00011000
00000000
00000000
00000000
00100000
00000000
00001000
00000000
00011000
00000000
00001000
01000000
,
00100000
01000000
01100000
00000000
00010000
10000000
11000000
00000000
,
10000000
00000000
00010000
00000000
01010000
00000000
00001000
00000000
00010000
00000000
00000000
00001000
00010000
00000000
00001000
00100000
,
00020000
00000000
00000000
00030000
,
02000000
00000000
00000000
00000000
03200000
00000000
10300000
00010000
,
10000000
00000000
00000000
01000000
10000000
00000000
01000000
00000000
00100000
00000000
00010000
00000000
01000000
00000000
00001000
00000000
,
00010000
00000000
00000000
00000100
00001000
00000000
00000100
00000000
00000010
00000000
00000001
00000000
00000100
00000000
00000010
00000000
,
00010000
00000000
00000000
00000100
00010000
00000000
00001000
00000000
00100000
00000000
01000000
00000000
00010000
00000000
10000000
00000000
,
00100000
00000000
00000000
01000000
00010000
00000000
10000000
00000000
00010000
01000000
00010000
00000000
00100000
00001000
00100000
00000000
,
00001000
00000000
00000000
00000100
00000000
00000000
00000010
00000000
00000000
00000000
00001000
00000000
00001000
00000000
00000000
00000000
00000001
00000000
00000001
00000000
00000000
00000000
00000000
00000000
,
00000001
00000000
00000000
00000010
00000000
00000000
00000100
00000000
00000000
00000000
00000010
00000000
00000010
00000000
00000000
00000000
00010000
00000000
00010000
00000000
00000000
00000000
00000000
00000000
,
01000000
00001000
00010000
00000000
00100000
00001000
00010000
00000000
,
00000100
00000000
00010000
00000000
00001000
00000000
00100000
00001000
00100000
00000000
00000000
00110000
00000000
00000000
00011000
00000000
,
00000100
00010000
00001000
00100000
00010000
01000000
10000000
01000000
,
00010000
10000000
01000000
00010000
01000000
10000000
00100000
01000000
,
00001000
00010000
00001000
00000100
00000001
00000100
00001000
00000010
,
00000001
00000000
00000010
00000000
00001000
00000000
00000100
00000000
00000010
00001000
00000100
00000000
00000010
00000001
00000100
00000000
,
00000110
00000000
00000010
00001000
00000000
00000100
00010000
00000000
00001000
00010000
00000000
00000000
,
00101000
00000000
00000000
00000000
00010000
00000000
01000000
00000000
00000000
00000000
00100000
00000000
10000000
00000000
00000000
00000000
10000000
00000000
00010000
00000000
00000000
01000000
00000000
00000000
,
00001000
00001000
00001000
00001000
00010000
00010000
00010000
00010000
,
00001000
00100000
00001000
00000000
00010000
00000100
00010000
00000000
00001000
00100000
00001000
00100000
00000100
00010000
00000100
00010000
,
00000020
00000000
00000230
00000000
00000301
00000010
00000100
00001000
,
00000200
00000000
00010300
00001000
00200000
00000000
00320000
00000000
,
10030000
00000000
00000000
00000000
00000000
00100000
00100000
00000000
00000000
00000000
00000000
00001000
00001000
00000000
00000000
00010000
00000000
00000000
00000100
00000000
00000000
00000001
00000000
00000000
,
00000100
00010010
00022000
00000000
,
00000000
00000000
00000000
00000000
,
00000000
00033000
00000000
00000000
;

//---------------dance-double - ----------------
#NOTES:
     dance-double:
     :
     Challenge:
     18:
     0.987,1.000,0.564,0.119,1.000:
00000000
00000000
00000000
00000000
,
00000000
00000000
00000000
00000000
,
00000000
00000000
00000000
00000000
,
00000000
00000000
00000000
00000000
,
00000000
00000000
00000000
00000000
,
01010000
00000000
00000000
00000000
00000000
00001000
00010000
00000000
00000000
00000000
00000000
00010000
,
00001000
00000010
00000100
00010000
,
00001000
00000000
00001000
00100000
00000000
00000000
01000000
00000000
01000000
10000000
00000000
00000000
,
02200000
00000000
00000000
03300000
,
10000000
00100000
01000000
00010000
00001000
00000010
00000100
00000001
,
00001001
00000000
00000010
00000000
00000100
00001000
00000100
00001000
00000100
00000000
00000010
00000000
00000100
00010000
00000100
00010000
,
00001000
00000000
00100000
00000000
00001000
01000000
00001000
01000000
00001000
00100000
00001000
00000000
00010000
00001000
00010000
00000000
,
00011000
00000000
00100000
00000000
01000000
00010000
01000000
00010000
01000000
00000000
00100000
00000000
01000000
00001000
01000000
00001000
,
01000000
00000000
00000000
00000000
00000000
00000000
00001000
00000000
00000000
00000000
00000000
00000000
00100000
00000000
00000000
00010000
00000000
00000000
00100000
00000000
00000000
00010000
00000000
00000000
00100000
00000000
00000000
00000000
00000000
00000000
00000000
00000000
00100000
00000000
00000000
00000000
01000000
00000000
00000000
00000000
00001000
00000000
00000000
00000000
00010000
00000000
00000000
00000000
,
00011000
00000000
00000000
00000000
00000010
00000000
00010100
00000000
00001000
00100000
00001000
00000000
00100000
00001000
00100000
00000000
,
00011000
00000000
00000000
00000000
00100000
00000000
01001000
00000000
00010000
00000100
00010000
00000000
00000010
00010000
00000010
00000000
,
00011000
00000000
00011000
00000000
00000000
00000000
00010000
00000100
00011000
00000000
00011000
00000000
00000000
00000000
00100000
00001000
,
00011000
00000000
01000000
00000000
00011000
00000000
00000010
00000000
00011000
00000100
00000000
00011000
00000000
00100000
00011000
00000000
,
01001000
00000000
00100000
00000000
10000000
00010000
01000000
00010000
10000000
00000000
00100000
00000000
01000000
00010000
10000000
00010000
,
10000000
00000000
00100000
00000000
01000000
00001000
00010000
00000000
00000100
00010000
00000100
00000000
00010000
00000010
00010000
00000000
,
00010100
00000000
00000010
00000000
00000100
00000001
00001000
00000001
00000010
00000000
00000001
00000000
00000100
00000001
00001000
00000001
,
00000010
00000000
00000100
00000000
00010000
00000100
00010000
00001000
00100000
00001000
00100000
00000000
00001000
01000000
00001000
00000000
,
01010000
00000000
00100000
00000000
01000000
00010000
10000000
00000000
01000000
00100000
00010000
00000000
01000000
00100000
10000000
00000000
,
10010000
00000000
01000000
00000000
00001000
00100000
00010000
00000000
00000100
00010000
00001000
00000000
00000100
00010000
00001000
00000000
,
00000110
00000000
00000001
00000000
00001000
00000001
00000100
00000000
00001001
00000000
00000010
00000000
00000100
00010000
00001000
00000000
,
00101000
00000000
00010000
00000000
01000000
00010000
10000000
00000000
01100000
01000000
00000000
01001000
00000000
00010000
00000000
00010000
,
00001000
00100000
00001000
00100000
01000000
10000000
01000000
00100000
00010000
01000000
00001000
00010000
,
00000100
00000010
00000100
00010000
00000100
00000001
00000100
00001000
00000010
00000100
00000001
00001000
,
00000010
00010000
00001000
00100000
00010000
01000000
10000000
01000000
00010000
10000000
00100000
01000000
,
00010000
10000000
01000000
00100000
00010000
00001000
00000100
00000010
00000001
00000010
00000100
00001000
,
00011000
00001000
00010000
00001000
00100000
00001000
01000000
00010000
01000000
00010000
00100000
00010000
,
10000000
01000000
10000000
00100000
01000000
00100000
01000000
00010000
10000000
00010000
00100000
00001000
,
00010000
00000100
00000010
00000001
00000010
00000100
00001000
00010000
00100000
01000000
10100000
01000000
,
00010000
10000000
01000000
00010000
01000000
00100000
00002000
00000000
00000000
00000000
00000000
00000000
,
01003000
00000000
00010000
01000000
00010000
00000000
00100000
00000000
01000000
00000000
10000000
00010000
01000000
00000000
00100000
00000000
,
01000000
00000000
00001000
00100000
00010000
00000000
00100000
00000000
00001000
00000000
00010000
00000100
00001000
00000000
00000100
00000000
,
00000010
00000000
00000001
00001000
00000100
00000000
00001000
00000000
00000010
00000000
00010000
00000100
00001000
00000000
01000000
00000000
,
00100000
00000000
00001000
00010000
00001000
00000000
01000000
00000000
00001000
00000000
00010000
00000000
00011000
00000000
00011000
00000000
,
00101000
00000000
00010000
01000000
00010000
00000000
10000000
00010000
01000000
00000000
00100000
10000000
00010000
00000000
01000000
00001000
,
00010000
00000000
00000100
00010000
00001000
00000000
00010000
00000000
00000010
00000000
00000100
00000001
00001000
00000000
00000001
00000000
,
00000010
00000000
00000100
00001000
00000100
00000000
00010000
00000000
00001000
00000000
00100000
00001000
00100000
00000000
00001000
00000000
,
01000000
00000000
00100000
10000000
00100000
00000000
01000000
00000000
00001000
00010000
00001000
00010000
00001000
00000000
01000000
00001000
,
01000000
00100000
01000000
00100000
01000000
00100000
01000000
00100000
01000000
00010000
01000000
00010000
01000000
00010000
01000000
00010000
,
00100000
00001000
00100000
00001000
00100000
00001000
00100000
00001000
00010000
00001000
00010000
00001000
00010000
00001000
00010000
00001000
,
00000100
00000010
00000100
00000010
00000100
00000010
00000100
00000010
00000001
00001000
00000001
00001000
00000001
00001000
00000001
00001000
,
00000010
00000100
00000010
00000100
00000010
00000100
00000010
00000100
00000010
00010000
00000010
00010000
00000010
00010000
00000010
00010000
,
00011000
00000000
01010000
00000000
00001000
00100000
00001000
00100000
00010000
10000000
00100000
01000000
,
01001000
00000000
00100000
00100000
00000000
00000000
00010100
00000000
00001000
00001000
00000000
00000000
,
00000110
00000000
00000010
00000000
00001000
00000001
00001000
00000001
00000100
00000000
00000001
00000000
00001000
00000100
00001000
00000100
,
00000010
00000000
00000100
00000000
00010000
00001000
00010000
00001000
00010000
00000000
00000100
00000000
00010000
00001000
00010000
00001000
,
00100000
00000000
01000000
00000000
10000000
00100000
10000000
00100000
01000000
00000000
00010000
00000000
01000000
00001000
00010000
00001000
,
00010000
00000000
00000100
00000000
00001000
00000010
00001000
00000010
00001000
00000000
00000001
00000000
00000010
00000001
00001000
00000010
,
00000100
00000000
00000010
00000000
00010000
00000100
00010000
00000100
00001000
00000000
01000000
00000000
00100000
00010000
00100000
00010000
,
10000000
00000000
00100000
00000000
01000000
00010000
01000000
00010000
10000000
00000000
00100000
00000000
10000000
00010000
01000000
00001000
,
00010000
00000000
00000100
00000000
00010000
00000010
00010000
00000010
00001000
00000000
00000001
00000000
00001000
00000100
00001000
00000100
,
00000010
00000000
00000100
00010000
00001000
00000000
00100000
00001000
00010000
00000000
00000100
00010000
00001000
00000000
01000000
00001000
,
00011000
00000000
01000000
00000000
10000000
00100000
10000000
00100000
01000000
00000000
00010000
00000000
01000000
00001000
01000000
00001000
,
00010000
00000000
00000100
00000000
00010000
00000010
00010000
00000010
00001000
00000000
00000001
00000000
00001000
00000100
00000010
00000100
,
00001000
00000000
00000001
00000000
00000010
00000001
00001000
00000001
00010000
00000000
00000010
00000000
00010000
00000100
00010000
00001000
,
00100000
00000000
00010000
00000000
01000000
00100000
10000000
00010000
01000000
00000000
00001000
00100000
00000000
00000000
00001000
00010000
,
00002000
00000000
00000000
00100000
00100000
00100000
00100000
00100000
01003000
00000000
00010000
00000000
10000000
01000000
00100000
00000000
,
01100000
00000000
01000000
00001000
00000000
00001000
00010000
00000000
00010000
00000010
00000000
00000010
00000001
00000000
00000001
00001000
00000000
00001000
00000010
00000000
00000000
00010010
00000000
00000000
,
00011000
00000000
00001000
01000000
00001000
01000000
00001000
00100000
00001000
00100000
00001000
00010000
00001000
00010000
00001000
00010000
,
00001000
00000000
01000000
00001000
00010000
00001000
00100000
00001000
01000000
00001000
00010000
00001000
00100000
00001000
00010000
00001000
,
01000000
00000000
00100000
10000000
01000000
10000000
00100000
10000000
00010000
00000000
10000000
01000000
00100000
00010000
01000000
00001000
,
00010000
00000000
00000100
00010000
00001000
00010000
00000010
00000100
00000001
00000010
00000100
00000000
00010000
00001000
01000000
00000000
,
01100000
00000000
01000000
00010000
00000000
10010000
10010000
00000000
10100000
10100000
00000000
00000000
,
01001000
00000000
00001000
00010000
00000000
00010100
00010100
00000000
00000110
00000110
00000000
00000000
,
00001001
00000000
00000001
00001000
00000100
00000000
00010000
00000000
00011000
00000000
00001000
00100000
00010000
00000000
01000000
00000000
,
01010000
00000000
00010000
01000000
00100000
00000000
01000000
00000000
01100000
00000000
00000000
01001000
00000000
00000000
00011000
00000000
,
00010100
00000000
00000100
00010000
00000100
00010000
00000010
00010000
00000100
00010000
00000100
00000010
00000001
00000100
00000010
00010000
,
00001000
00000000
00100000
00001000
01000000
00001000
00100000
00010000
01000000
00100000
10000000
01000000
00100000
01000000
10000000
00010000
,
01000000
00000000
00001000
00100000
00001000
01000000
00001000
00100000
00001000
00000000
01000000
00001000
00100000
00001000
00010000
00000100
,
00001000
00000000
00000000
00000000
00000000
00000000
00000010
00000000
00000000
00001000
00000000
00000000
00000001
00000000
00000000
00001000
00000000
00000000
00000100
00000000
00000000
00010000
00000000
00000000
00001000
00000000
00010000
00000000
00001000
00000000
00010000
00000000
00000000
00000000
00000000
00000000
00000100
00000000
00010000
00000000
00001000
00000000
00010000
00000000
00000000
00000000
00000000
00000000
,
01100000
00000000
01000000
00010000
00000000
10010000
10010000
00000000
00101000
00101000
00000000
00000000
,
00011000
00000000
00000000
00000000
00000000
00000000
00000000
00000000
00000100
00000000
00000000
00000000
00010000
00000000
00000000
00000000
00000000
00000000
00000000
00000000
00001010
00000000
00000000
00000000
00001010
00000000
00000000
00000000
00000000
00000000
00000000
00000000
00001001
00000000
00000000
00000000
00001001
00000000
00000000
00000000
00000000
00000000
00000001
00000000
00000000
00001000
00000000
00000000
,
00001100
00010100
00011000
00101000
01010000
00101000
00011000
00010100
,
00001000
01000000
00010000
00000000
00100000
00001000
00010000
00000000
00000100
00010000
00001000
00010000
00001000
00100000
00010000
10000000
,
00100000
00000000
00000000
01000000
00010000
10000000
00200000
00000000
00000000
10300000
00000000
00000000
01000000
00000000
01000000
00100000
00000000
00100000
00001000
00000000
00001000
00010000
00000000
00010000
,
00000020
00000000
00000000
00001030
00000100
00000010
00000001
00000000
00000000
00000001
00000010
00000100
00002000
00000000
00000000
00000000
00003100
00010000
00001000
00000000
00000000
00100000
00000000
00000000
,
02000000
00000000
00000000
00000000
00000000
00010000
03020000
00000000
00000000
00000000
00000000
10030000
20000000
00000000
00000000
32000000
00000000
00000000
03002000
00000000
00000000
00003020
00000000
00000000
,
00000032
00001003
00022000
00000000
,
00000000
00000000
00000000
00000000
,
00000000
00033000
00000000
00000000
;
