#TITLE:Cry My Name From The Light;
#SUBTITLE:;
#ARTIST:Far East Dizain;
#TITLETRANSLIT:;
#SUBTITLETRANSLIT:;
#ARTISTTRANSLIT:;
#GENRE:;
#CREDIT:;
#MENUCOLOR:;
#METERTYPE:DDR;
#BANNER:Cry My Name From The Light.png;
#BACKGROUND:Cry My Name From The Light-bg.png;
#LYRICSPATH:;
#CDTITLE:./CDTITLES/NONE.PNG;
#MUSIC:Cry My Name From The Light.ogg;
#OFFSET:0.000;
#SAMPLESTART:53.670;
#SAMPLELENGTH:15.000;
#SELECTABLE:YES;
#LISTSORT:;
#BPMS:0.000=250.000;
#STOPS:;
#BGCHANGES:0.000=Cry My Name From The Light.avi=1.000=0=0=0,
99999=-nosongbg-=1.000=0=0=0 // don't automatically add -songbackground-
;
#ATTACKS:;

//---------------dance-single - ----------------
#NOTES:
     dance-single:
     :
     Beginner:
     4:
     0.126,0.200,0.000,0.000,0.000:
0000
0000
0000
0000
,
0000
0000
0000
0000
,
0000
0000
0000
0000
,
0000
0000
0000
0000
,
0000
0000
0000
0000
,
0000
0000
0000
0000
,
0000
0000
0000
0000
,
0000
0000
0000
0000
,
0000
0000
0000
0000
,
0010
0000
0000
0000
,
0010
0000
0000
0000
,
0100
0000
0000
0000
,
0100
0000
0000
0000
,
0001
0000
0000
0000
,
0001
0000
0000
0000
,
1000
0000
0000
0000
,
1000
0000
0000
0000
,
0010
0000
0000
0000
,
0000
0000
0000
0000
,
0100
0000
0000
0000
,
0000
0000
0000
0000
,
0001
0000
0000
0000
,
0000
0000
0000
0000
,
1000
0000
0000
0000
,
0000
0000
0000
0000
,
0000
0000
0001
0000
,
0001
0000
0000
0000
,
0000
0000
1000
0000
,
1000
0000
0000
0000
,
0000
0000
0010
0000
,
0010
0000
0000
0000
,
0000
0000
0100
0000
,
0100
0000
0000
0000
,
0000
0000
0010
0000
,
0010
0000
0000
0000
,
0000
0000
1000
0000
,
1000
0000
0000
0000
,
0000
0000
0001
0000
,
0001
0000
0000
0000
,
0000
0000
0100
0000
,
0100
0000
0000
0000
,
0010
0000
0010
0000
,
0000
0000
0000
0000
,
1000
0000
0000
0000
,
0001
0000
0000
0000
,
1000
0000
0000
0000
,
0100
0000
0000
0000
,
0010
0000
0000
0000
,
0001
0000
0000
0000
,
0100
0000
0100
0000
,
0000
0000
0000
0000
,
0010
0000
0000
0000
,
1000
0000
0000
0000
,
0001
0000
0000
0000
,
0010
0000
0000
0000
,
0100
0000
0000
0000
,
1000
0000
0000
0000
,
0001
0000
0000
0000
,
0000
0000
0000
0000
,
1000
0000
0000
0000
,
0000
0000
0000
0000
,
0010
0000
0000
0000
,
0000
0000
0000
0000
,
0100
0000
0000
0000
,
0000
0000
0000
0000
,
0010
0000
0000
0000
,
0010
0000
0000
0000
,
0100
0000
0000
0000
,
0100
0000
0000
0000
,
0001
0000
0000
0000
,
1000
0000
0000
0000
,
0001
0000
0000
0000
,
1000
0000
0000
0000
,
0001
0000
0000
0000
,
0010
0000
0000
0000
,
0100
0000
0000
0000
,
1000
0000
0000
0000
,
0100
0000
0000
0000
,
0010
0000
0000
0000
,
0001
0000
0000
0000
,
1000
0000
0000
0000
,
0010
0000
0000
0000
,
0100
0000
0000
0000
,
0001
0000
0000
0000
,
1000
0000
0000
0000
,
0001
0000
0000
0000
,
1000
0000
0000
0000
,
0010
0000
0000
0000
,
0100
0000
0000
0000
,
0010
0000
0000
0000
,
0010
0000
0000
0000
,
0100
0000
0000
0000
,
0100
0000
0000
0000
,
0001
0000
0000
0000
,
0001
0000
0000
0000
,
1000
0000
0000
0000
,
1000
0000
0000
0000
,
0001
0000
0000
0000
,
0010
0000
0000
0000
,
0100
0000
0000
0000
,
1000
0000
0000
0000
,
1000
0000
0000
0000
,
0100
0000
0000
0000
,
0010
0000
0000
0000
,
0001
0000
0000
0000
,
1000
0000
0000
0000
,
0000
0000
0000
0000
,
0001
0000
0001
0000
,
0001
0000
0000
0000
,
1000
0000
1000
0000
,
1000
0000
0000
0000
,
0010
0000
0010
0000
,
0010
0000
0000
0000
,
0100
0000
0100
0000
,
0100
0000
0000
0000
;

//---------------dance-single - ----------------
#NOTES:
     dance-single:
     :
     Easy:
     7:
     0.255,0.401,0.105,0.009,0.000:
0000
0000
0000
0000
,
0000
0000
0000
0000
,
0000
0000
0000
0000
,
0000
0000
0000
0000
,
0000
0000
0000
0000
,
0000
0000
0000
0000
,
0000
0000
0000
0000
,
0000
0000
0000
0000
,
0000
0000
0000
0000
,
0010
0000
0010
0000
,
0100
0000
0001
1000
,
0000
1000
0100
0000
,
1000
0000
0010
0000
,
1000
0000
0100
0000
,
0010
0000
0001
0001
,
0000
0100
0010
0000
,
0100
0000
0100
0000
,
0110
0000
0110
0000
,
0001
0000
1000
0000
,
0000
0001
0010
0000
,
0100
0000
0100
0000
,
0000
1000
0010
0000
,
0100
0000
0100
0000
,
0000
0001
1000
0000
,
0001
0000
0001
0000
,
1000
0001
1000
0000
,
0010
0000
0100
0000
,
0000
0000
0001
0000
,
1000
0000
0001
0000
,
0000
0000
1000
0000
,
0001
0000
1000
0000
,
0010
0000
0000
0000
,
0100
0000
0000
0000
,
0000
0001
0010
0000
,
0100
0000
1000
0000
,
0100
0000
0000
0000
,
1000
0000
0000
0000
,
0010
0000
0000
0000
,
0100
0000
0000
0000
,
0001
0000
1000
0000
,
0001
0000
1000
0000
,
1001
0000
1001
0000
,
0010
0000
0000
0000
,
0100
0000
0000
0000
,
0001
0000
1000
0000
,
0001
0010
0001
0000
,
1000
0000
1000
0000
,
1000
0010
1000
0000
,
0001
0000
0001
0000
,
1001
0000
1001
0000
,
0000
0000
0000
0000
,
0010
0000
0000
0000
,
0100
0000
0000
0000
,
0010
1000
0001
0000
,
1000
0000
1000
0000
,
0010
0100
0001
0000
,
0010
0000
0010
0000
,
0000
1000
0100
1000
,
0100
1000
0100
1000
,
0000
0001
0100
0001
,
0100
0001
0100
0000
,
0010
0000
0000
0000
,
0010
0000
0000
0000
,
1000
0000
0000
0000
,
0001
0000
0000
0000
,
0000
1000
0100
1000
,
0100
1000
0100
0010
,
0000
0001
0100
0001
,
0100
0001
0100
0010
,
0100
0000
0000
0000
,
0010
0000
0000
0000
,
1000
0000
0001
0000
,
1000
0000
0001
0000
,
1001
0000
0000
0000
,
0010
0000
0000
0000
,
0100
0000
0000
0000
,
0001
0000
1000
0000
,
0001
0000
0000
0000
,
0010
0000
0000
0000
,
0100
0000
1000
0000
,
0100
0000
0000
0000
,
1000
0000
0000
0000
,
0010
0000
0000
0000
,
0100
0000
0001
0000
,
0100
0000
0000
0000
,
0001
0000
0000
0000
,
0010
0000
0000
0000
,
0001
0000
1000
0000
,
0001
0000
0000
0000
,
1001
0000
0000
0000
,
0010
0000
0000
0000
,
1000
0000
0100
0000
,
0010
0000
0000
0000
,
0001
0000
0000
0000
,
0100
0000
0000
0000
,
0001
0000
0100
0000
,
0010
0000
0000
0000
,
1010
0000
0000
0000
,
1000
0000
0100
0000
,
1000
0000
0000
0000
,
0001
0000
0100
0000
,
0010
0000
0000
0000
,
1000
0000
0001
0000
,
0010
0000
1001
0000
,
0100
0000
1001
0000
,
0020
0000
0000
0000
,
0100
0000
0130
0000
,
0001
0100
0001
0000
,
1000
0000
1000
0000
,
0100
0000
1000
0000
,
0010
0000
0100
0000
,
0010
1000
0001
0000
,
1000
0000
0001
0001
,
0000
1000
0100
0000
,
0001
0000
1100
0000
;

//---------------dance-single - ----------------
#NOTES:
     dance-single:
     :
     Medium:
     10:
     0.478,0.603,0.184,0.175,0.000:
0000
0000
0000
0000
,
0000
0000
0000
0000
,
0000
0000
0000
0000
,
0000
0000
0000
0000
,
0000
0000
0000
0000
,
0000
0000
0000
0000
,
0000
0000
0000
0000
,
0000
0000
0000
0000
,
0000
0000
0000
0000
,
0010
0010
0100
0100
,
0001
0000
0010
0000
0100
0000
1000
0200
,
0000
1300
0010
0100
,
0001
1000
0001
0010
,
0001
0100
1000
0100
,
0001
0010
0100
0100
,
0000
1000
0010
1000
,
0001
0000
1000
0000
0100
0020
0000
0000
,
0130
0000
0110
0000
,
0001
1000
0100
1000
,
0000
1000
0010
0000
,
1000
0000
0001
0000
0100
0002
0000
0000
,
0003
1000
0100
1000
,
0010
0000
0000
0100
0000
0000
0110
0000
,
0000
0010
0000
0000
1000
0000
0001
0000
,
1000
0000
0010
0000
0100
0020
0000
0000
,
0030
1000
1000
0000
,
0001
0000
0000
1000
0000
0001
0000
0100
,
0000
0001
0010
0100
,
1000
1000
0010
1000
,
0100
0010
0001
0100
,
0100
0010
0100
0001
,
0000
1000
0100
0001
,
0100
0000
1000
0000
0001
2000
0000
0000
,
3001
0010
0001
1000
,
0001
0000
0000
1000
0000
0001
0000
0010
,
0000
0001
0100
0010
,
1000
0001
0010
0100
,
1000
0100
0001
0100
,
1000
0010
0100
0200
,
0000
0310
0010
1000
,
1000
0000
0001
0000
0100
0001
0000
0000
,
1100
0000
1010
0000
,
0001
0000
0000
0100
0000
0000
0100
0000
,
0100
0001
1000
0001
,
0010
0000
0001
0000
0100
0020
0000
0000
,
1030
0010
0010
1000
,
0100
0000
0000
1100
0000
0000
0011
0000
,
0000
1000
0000
0000
0100
0000
0010
0000
,
0001
0000
0000
1001
0000
0000
0000
0000
,
0110
0000
1010
0000
,
1000
0000
0000
0100
0000
0000
0100
0000
,
0100
1000
0100
0010
,
0001
0000
1000
0000
0010
0200
0000
0000
,
0301
0010
0010
0001
,
1000
0000
0000
1001
0000
0000
0110
0000
,
0010
1000
0100
1000
,
0010
0000
0000
0100
0000
0000
0100
0000
,
0002
0010
1000
0010
,
1000
0100
1000
0103
,
2000
0010
0001
0010
,
0001
0100
0001
3100
,
0010
0100
0010
0100
,
0001
0010
0001
0010
,
0100
1000
0001
0100
,
0010
0000
0000
0010
0000
0000
0010
0000
,
0101
1000
0001
1000
,
1100
1000
0001
1000
,
0011
0001
1000
0001
,
0101
1000
0010
0100
,
0010
0000
0010
1000
0000
0001
1000
0000
,
0001
1000
0100
0010
,
0100
1000
0010
0100
,
0001
0010
0100
1000
,
0002
0000
0010
0000
,
0000
0000
0013
0000
,
2000
0000
0010
0000
,
0000
0000
3010
0000
,
0200
0000
0010
0000
,
0000
0000
1300
0000
,
0020
0000
0130
0000
,
0001
0010
0100
1000
,
0200
0000
1000
0000
,
0000
0000
0310
0000
,
0002
0000
0010
0000
,
0000
0000
1003
0000
,
0200
0000
1000
0000
,
0000
0000
0301
0000
,
1001
0000
0010
0100
,
0001
0000
0100
0000
,
0010
0000
1000
1000
,
0010
0000
1000
0100
,
0010
0000
0001
0001
,
0010
0000
1001
0000
,
0110
0000
0010
0010
,
1000
0000
0001
0100
,
0010
1000
0100
0001
,
0100
1000
0010
0100
,
0010
0000
1000
1000
,
0001
0000
0100
0001
,
1000
0000
0001
0010
,
0100
0100
1000
0000
,
0010
0000
1000
0100
,
0010
0000
0001
0100
,
0010
0000
1001
0000
,
0100
0000
1001
0000
,
0220
0000
0000
0030
,
0010
0000
0310
0000
,
1000
0100
1000
0100
,
0010
0000
0100
0000
1000
0000
0001
0200
,
0000
0310
0100
0001
,
1000
0001
0010
0001
,
1000
0100
0001
0100
,
1000
0001
1000
1000
,
0000
0001
0100
0001
,
0010
0000
0001
0100
0010
1000
0000
0000
;

//---------------dance-single - ----------------
#NOTES:
     dance-single:
     :
     Hard:
     14:
     0.757,0.803,0.394,0.166,0.000: // measure 1
0000
0000
0000
0000
,  // measure 2
0000
0000
0000
0000
,  // measure 3
0000
0000
0000
0000
,  // measure 4
0000
0000
0000
0000
,  // measure 5
0000
0000
0000
0000
,  // measure 6
0000
0000
0000
0000
,  // measure 7
0000
0000
0000
0000
,  // measure 8
0000
0000
0000
0000
,  // measure 9
0000
0000
0000
0000
,  // measure 10
0010
0000
1000
0000
0100
1000
0100
0000
,  // measure 11
1000
0000
0010
0000
0100
0001
1000
0020
,  // measure 12
0000
1030
0100
1000
,  // measure 13
0001
0100
0001
0000
1000
0000
1000
0000
,  // measure 14
0001
0010
0001
0010
0100
1000
0100
1000
,  // measure 15
0010
0000
0100
0001
1000
0000
2002
0000
,  // measure 16
3003
0000
0010
0000
0110
0000
0100
0010
,  // measure 17
1000
0000
0001
1000
0100
2000
0000
0000
,  // measure 18
3001
0000
0101
0000
,  // measure 19
1000
0100
1000
0001
0000
0100
0001
0000
,  // measure 20
1000
0100
0010
0100
1000
0000
0010
0000
,  // measure 21
0100
0000
1001
0000
0001
0020
0000
0000
,  // measure 22
0031
0100
0001
0000
1000
0000
0100
0000
,  // measure 23
0010
0001
1000
0100
0000
0000
0101
0000
,  // measure 24
0000
1001
0000
0000
0110
0000
0010
0000
,  // measure 25
0100
0010
0100
0010
1000
0002
0000
0000
,  // measure 26
1003
0100
1000
1100
,  // measure 27
1001
0000
0001
0010
0000
0001
0000
1001
,  // measure 28
0000
0010
0100
0001
,  // measure 29
1000
0010
1000
0000
0001
0000
0001
0000
,  // measure 30
1000
0100
0010
0000
0100
0010
0001
0000
,  // measure 31
1000
0000
0010
0100
0001
0000
0101
0000
,  // measure 32
0000
0000
0001
0000
0010
0000
0100
1000
,  // measure 33
0001
0000
1000
0001
0100
0002
0000
0000
,  // measure 34
1003
0010
0100
0110
,  // measure 35
1000
0000
0001
0010
0000
0100
0000
1001
,  // measure 36
0000
0010
0100
0100
,  // measure 37
0001
1000
0100
1000
0001
1000
0010
0000
,  // measure 38
1000
0100
0010
0100
1000
0100
0010
0100
,  // measure 39
1000
0000
0001
0100
0010
0000
0110
0000
,  // measure 40
0000
0000
0100
0000
1001
0000
0001
1000
,  // measure 41
0100
0000
1000
0001
0100
0002
0000
0000
,  // measure 42
0013
0000
0011
0000
,  // measure 43
0100
1000
0100
1000
0000
0010
0100
0000
,  // measure 44
0010
0000
0100
0001
1000
0000
0001
0000
,  // measure 45
0110
0000
0110
0000
1000
0020
0000
0000
,  // measure 46
1030
0000
0100
0000
0010
0100
1000
0000
,  // measure 47
0001
0010
0001
1000
0000
0001
0200
0000
,  // measure 48
0000
0310
0000
0000
1001
0000
1000
0100
,  // measure 49
1000
0000
0001
0100
0001
0020
0000
0000
,  // measure 50
0031
0000
1001
0000
,  // measure 51
1000
0001
1000
0001
0000
0100
0010
0000
,  // measure 52
1000
0000
0010
1000
0100
1000
0010
0000
,  // measure 53
0110
0000
0110
0000
0001
0200
0000
0000
,  // measure 54
0301
0000
1000
0000
0001
1000
0100
0000
,  // measure 55
1000
0100
0010
0001
0000
1000
0020
0000
,  // measure 56
0000
0130
0000
0000
0110
0000
0010
0000
,  // measure 57
1000
0100
1000
0001
1000
0000
0001
0000
,  // measure 58
0102
0010
1000
0010
,  // measure 59
1000
0100
1000
0103
,  // measure 60
2100
0010
0001
0010
,  // measure 61
0001
0100
0001
3010
,  // measure 62
1000
0000
0100
1000
0100
1000
0100
1000
,  // measure 63
0010
0000
0100
0001
0100
0001
0100
0001
,  // measure 64
0010
0000
0100
1000
0100
1000
0100
1000
,  // measure 65
0001
0000
0100
0001
0000
1000
0100
0000
,  // measure 66
1100
0000
0010
1000
0100
1000
0010
0000
,  // measure 67
0101
0000
0010
0001
0100
0001
0010
0000
,  // measure 68
1100
0000
0001
1000
0100
1000
0001
0000
,  // measure 69
0101
0000
1000
0001
0100
0001
1000
0000
,  // measure 70
0110
0000
0010
1000
0000
0001
1000
0000
,  // measure 71
1001
0000
1000
0100
0010
0001
1000
0000
,  // measure 72
0110
0000
0010
1000
0100
0000
0010
0001
,  // measure 73
1000
0000
0001
0100
0010
0100
0001
0000
,  // measure 74
1000
0000
0100
1000
0000
0100
1000
0100
,  // measure 75
0010
0001
0000
0001
1000
0002
0000
0000
,  // measure 76
0103
0010
0100
0000
0010
1000
0000
0001
,  // measure 77
1000
0001
0000
1000
0010
0000
1000
0000
,  // measure 78
1010
0000
0010
0000
0100
0001
0000
1000
,  // measure 79
0100
1000
0001
0010
0100
1000
0001
0000
,  // measure 80
1000
0000
0001
1000
0100
0000
1000
0000
,  // measure 81
0010
1000
0010
1000
0100
1000
0010
1000
,  // measure 82
0001
0000
0000
0000
0110
0000
0010
0100
,  // measure 83
0001
1000
0000
1000
0000
0001
0000
0010
,  // measure 84
0000
0010
0001
0000
1000
0010
0000
1000
,  // measure 85
0100
0000
1001
0000
0010
0100
0001
0100
,  // measure 86
0010
0000
1000
0100
1000
0001
0000
0001
,  // measure 87
0100
0000
0001
0010
0001
1000
0001
1000
,  // measure 88
0010
0000
0000
0010
1000
0000
0001
0000
,  // measure 89
0010
0000
0000
0010
0001
1000
0100
0000
,  // measure 90
1000
0000
0100
1000
0000
0100
1000
0001
,  // measure 91
0100
0010
0000
0100
0000
0100
0000
0001
,  // measure 92
0000
0010
0001
0000
0001
0100
0000
0010
,  // measure 93
1000
0010
1001
0100
,  // measure 94
1001
0000
0010
0000
0100
1000
0000
0001
,  // measure 95
0100
0010
1000
0100
1000
0010
1000
0001
,  // measure 96
0100
0000
0010
1000
0010
0000
0100
0000
,  // measure 97
0001
0010
0100
1000
0001
0000
1000
0000
,  // measure 98
0001
0000
0011
0000
,  // measure 99
0100
1000
0000
0100
0000
0100
0000
1000
,  // measure 100
0000
0010
0100
0000
0001
0010
0000
0100
,  // measure 101
1000
0000
1001
0000
0010
0100
0001
0100
,  // measure 102
0001
0000
1000
0010
1000
0000
0001
0100
,  // measure 103
0001
0010
0100
1000
0100
0000
1000
0010
,  // measure 104
0100
0000
0000
0100
0010
0000
0100
0000
,  // measure 105
0001
0000
0000
0001
1000
0000
0001
0000
,  // measure 106
2002
0000
0000
3003
,  // measure 107
0010
0100
1000
0100
0010
0001
0100
0000
,  // measure 108
1001
0010
0100
0001
,  // measure 109
1000
0000
0100
0000
1000
0010
0100
0002
,  // measure 110
0000
1003
1001
1001
,  // measure 111
0010
1000
0100
0000
0010
0001
0100
0000
,  // measure 112
0001
0100
0001
0100
0010
1000
0010
1000
,  // measure 113
0100
0000
0010
0100
1000
0000
1001
0000
,  // measure 114
0000
0000
0100
0000
0110
0000
0010
0100
,  // measure 115
0001
0000
1000
0100
0001
0010
0000
0000
;

//---------------dance-single - ----------------
#NOTES:
     dance-single:
     :
     Challenge:
     17:
     0.964,1.000,0.429,0.307,0.162: // measure 1
0000
0000
0000
0000
,  // measure 2
0000
0000
0000
0000
,  // measure 3
0000
0000
0000
0000
,  // measure 4
0000
0000
0000
0000
,  // measure 5
0000
0000
0000
0000
,  // measure 6
0000
0000
0000
0000
,  // measure 7
0000
0000
0000
0000
,  // measure 8
0000
0000
0000
0000
,  // measure 9
0000
0000
0000
0000
,  // measure 10
0001
0000
0000
0000
0101
0000
0000
0000
0001
0000
1000
0001
1000
0000
0000
0000
,  // measure 11
0001
0000
0101
0000
1001
0000
0001
0200
,  // measure 12
0000
0000
0301
0000
0010
0001
0010
0000
0001
0000
0000
0000
1001
0000
0000
0000
,  // measure 13
1000
0010
0100
0000
0010
1000
0001
0000
,  // measure 14
1000
0100
0010
0100
1000
0100
0001
0100
,  // measure 15
0020
0000
0031
0100
0010
0000
2020
0000
,  // measure 16
3030
0000
0000
0000
1000
0000
0000
0000
0110
0000
0000
0000
0001
0000
0100
0001
,  // measure 17
0100
0001
0010
0100
1000
0020
0000
0000
,  // measure 18
1030
0000
2002
3003
,  // measure 19
1000
0010
0100
0010
0000
0010
1000
0000
,  // measure 20
0001
0000
0010
0001
0010
0000
0001
0000
0100
0000
0010
0000
1000
0000
0001
0000
,  // measure 21
0100
0010
1000
0001
0100
0020
0000
0000
,  // measure 22
0130
0000
0110
0000
0001
0100
0020
0000
,  // measure 23
1030
0000
0100
0010
0100
0000
0020
0000
0000
0000
0031
0000
1000
0000
0000
0000
,  // measure 24
0000
0000
0110
0000
0000
0000
0000
0000
0001
0000
0100
0001
0100
0000
0001
0000
,  // measure 25
1000
0000
0100
1000
0100
0000
1000
0000
0001
0000
2000
0000
0000
0000
0000
0000
,  // measure 26
3010
0000
0000
0000
0110
0000
0000
0000
0001
0000
0010
0001
0010
0000
0001
0000
,  // measure 27
2000
0000
3001
0010
0000
0001
0100
0002
,  // measure 28
0000
1003
0010
0000
1010
0000
0101
0000
,  // measure 29
0001
0000
1000
0100
1000
0000
0001
0000
1000
0000
0100
0000
0010
0000
0100
0000
,  // measure 30
1000
0010
1000
0001
1000
0010
1000
0001
,  // measure 31
1000
0100
0010
0001
1000
0100
0001
0200
,  // measure 32
0000
0000
0000
0000
0310
0000
0000
0000
0011
0000
0000
0000
0001
0000
0100
0001
,  // measure 33
0200
0000
0000
0000
0310
0000
1000
0010
2000
0000
0000
0000
0000
0000
0000
0000
,  // measure 34
3010
0000
0000
0000
0110
0000
0000
0000
0001
0000
1000
0001
1000
0000
0001
0000
,  // measure 35
1000
0010
0100
0001
1000
0010
0001
0020
,  // measure 36
0000
0000
1030
0000
0100
1000
0100
0000
1000
0000
0000
0000
1100
0000
0000
0000
,  // measure 37
0001
0010
0100
1000
0001
0100
0020
0000
,  // measure 38
1030
0001
0100
0010
1000
0001
0100
0010
,  // measure 39
1000
0000
0100
0010
0001
0000
0012
0000
,  // measure 40
0000
0000
0000
0000
0103
0000
0000
0000
0110
0000
0000
0000
1000
0000
0001
1000
,  // measure 41
0001
0000
1000
0000
0010
0000
0100
0001
0100
0000
0002
0000
0000
0000
0000
0000
,  // measure 42
1003
0000
2200
3300
,  // measure 43
0001
0010
0100
1000
0000
1000
0010
1000
,  // measure 44
0001
0010
0001
0100
0001
0010
0001
1000
,  // measure 45
0010
0000
0110
0000
0001
2000
0000
0000
,  // measure 46
3010
0000
0101
0000
0000
0100
0010
0000
,  // measure 47
1000
0000
0010
1000
0010
0000
1000
0000
0000
0000
0001
0000
0020
0000
0000
0000
,  // measure 48
0000
0130
0000
0000
0110
0000
0001
1000
,  // measure 49
0010
0100
0001
1000
0010
0200
0000
0000
,  // measure 50
0310
0000
2020
3030
,  // measure 51
1000
0100
0010
0001
0000
0001
1000
0001
,  // measure 52
1000
0010
1000
0001
1000
0100
1000
0010
,  // measure 53
1000
0000
0110
0000
0001
0200
0000
0000
,  // measure 54
0301
0010
0200
0000
0000
0310
0001
1000
,  // measure 55
0001
0000
1000
0010
1000
0000
0002
0000
0000
0000
1003
0000
0200
0000
0000
0000
,  // measure 56
0000
0000
1300
0000
0000
0000
0000
0000
1000
0000
0100
1000
0100
0000
1000
0000
,  // measure 57
0001
0000
0100
0001
0100
0000
0001
0000
1000
0000
0001
1000
0001
0000
1000
0000
,  // measure 58
0001
0101
0101
0101
,  // measure 59
0011
0000
0001
1000
0100
1000
0001
1000
,  // measure 60
0010
1010
1100
1010
,  // measure 61
1001
0000
1000
0100
0010
0100
1000
0001
,  // measure 62
0100
0110
0101
0110
,  // measure 63
1010
0000
0001
0010
0100
1000
0001
0100
,  // measure 64
0001
0010
1000
0010
0001
0010
1000
0010
,  // measure 65
0001
0100
1000
0100
0001
0100
1000
0100
,  // measure 66
0001
0000
0010
0000
0001
1000
0001
0000
0010
0000
0001
0000
1000
0001
1000
0000
,  // measure 67
0010
0000
1000
0000
0001
1000
0001
0000
0010
0000
0001
0000
1000
0100
1000
0000
,  // measure 68
0010
0000
0100
0000
0001
0100
0001
0000
0010
0000
0100
0000
1000
0100
1000
0000
,  // measure 69
0010
0100
0100
0100
0001
1000
1000
1000
,  // measure 70
0010
0000
0100
0010
0000
1000
0010
0000
,  // measure 71
1000
0000
0100
1000
0100
0000
1000
0001
1000
0000
0001
0100
0001
0000
0000
0000
,  // measure 72
0110
0000
0001
1000
0100
1000
0001
0000
,  // measure 73
1000
0000
0010
0000
0100
0000
0001
0000
1000
0000
0100
1000
0100
0000
0000
0000
,  // measure 74
1010
0000
0100
0100
0000
0100
0010
0100
,  // measure 75
0001
0010
0100
1000
0001
0010
0100
1000
,  // measure 76
0001
0000
0010
0010
0000
0010
0001
0100
,  // measure 77
0001
1000
0010
0100
0001
1000
0010
0100
,  // measure 78
0010
0000
0100
0100
0000
0100
0010
0100
,  // measure 79
0010
1000
0001
0100
0010
1000
0001
0100
,  // measure 80
0001
0010
1000
0010
0001
0010
1000
0010
,  // measure 81
0001
0100
1000
0100
0001
0010
0100
1000
,  // measure 82
0001
0000
0000
0000
0110
0000
0001
1000
,  // measure 83
0010
1000
0001
0100
0010
1000
0001
0100
,  // measure 84
0010
0000
0110
0000
0100
0010
0000
1000
,  // measure 85
0100
0010
0001
1000
0100
0010
0001
1000
,  // measure 86
0010
0000
1000
1000
0001
1000
0000
1000
,  // measure 87
0001
0100
0010
1000
0001
0100
0010
1000
,  // measure 88
0010
0000
0100
0001
1000
0000
0110
0000
,  // measure 89
0001
0000
1000
0001
0010
0100
0010
0100
,  // measure 90
1000
0000
0010
0010
0000
0100
0100
0001
,  // measure 91
0100
0010
0000
0010
1000
0001
0100
0010
,  // measure 92
1000
0001
0010
0000
0001
1000
0000
1000
,  // measure 93
0010
0000
1000
0010
0100
0001
1000
0100
,  // measure 94
1000
0000
0001
0000
1000
0100
0000
0100
,  // measure 95
1000
0100
0001
0100
1000
0100
0001
0100
,  // measure 96
1000
0010
0001
0010
1000
0010
0001
0010
,  // measure 97
1000
0100
0010
0001
1000
0001
0100
0010
,  // measure 98
1000
0000
0000
0000
1010
0000
0100
0010
,  // measure 99
0100
0100
0000
0100
0001
0100
0000
0100
,  // measure 100
0010
0000
1000
0001
0100
0000
0001
1000
,  // measure 101
0010
1000
0100
1000
0001
0100
0010
1000
,  // measure 102
0001
0000
0010
0001
0010
0010
0000
0010
,  // measure 103
0001
0010
1000
0010
0001
0010
1000
0010
,  // measure 104
0001
0000
1000
0001
0100
0000
0110
0000
,  // measure 105
0101
0000
0000
0000
1000
0000
0001
0000
0010
0000
0001
0010
0001
0000
1000
0000
,  // measure 106
0002
0000
0000
0003
,  // measure 107
0100
0000
0010
0100
0010
0000
1000
0010
1000
0000
0001
1000
0001
0000
0000
0000
,  // measure 108
1100
0000
0000
0000
0101
0000
0000
0000
1000
0000
0100
1000
0100
0000
1000
0000
,  // measure 109
0001
0000
0101
0000
0001
0010
0100
2000
,  // measure 110
0000
0000
3001
0000
0010
0001
0010
0000
0001
0000
0000
0000
0011
0000
0000
0000
,  // measure 111
0001
1000
0010
0100
0001
1000
0020
0000
,  // measure 112
1030
0000
0100
1000
0100
0000
1000
0000
0001
0000
0100
0000
1000
0000
0100
0000
,  // measure 113
0001
0000
0010
0100
1000
0000
0012
0000
,  // measure 114
1003
0000
0010
0000
0101
0100
0001
1000
,  // measure 115
0010
1000
0001
0100
1000
0010
0000
0000
;
