#TITLE:All is Wrecked;
#SUBTITLE:;
#ARTIST:Destron;
#TITLETRANSLIT:;
#SUBTITLETRANSLIT:;
#ARTISTTRANSLIT:;
#GENRE:;
#CREDIT:;
#MENUCOLOR:;
#METERTYPE:DDR;
#BANNER:All is Wrecked.png;
#BACKGROUND:All is Wrecked-bg.png;
#LYRICSPATH:;
#CDTITLE:./CDTITLES/BEATMANIA IIDX.PNG;
#MUSIC:All is Wrecked.ogg;
#OFFSET:-1.412;
#SAMPLESTART:12.660;
#SAMPLELENGTH:15.000;
#SELECTABLE:YES;
#LISTSORT:;
#BPMS:0.000=170.000;
#STOPS:;
#BGCHANGES:;
#ATTACKS:;

//---------------dance-single - ----------------
#NOTES:
     dance-single:
     :
     Beginner:
     3:
     0.110,0.168,0.019,0.000,0.000:
0000
0000
0000
0000
,
0000
0000
0000
0000
,
0000
0000
0000
0000
,
0000
0000
0000
0000
,
1000
0000
0000
0000
,
0000
0000
0000
0000
,
0001
0000
0000
0000
,
0000
0000
0000
0000
,
0000
0100
0000
0100
,
0000
0100
0000
0000
,
0000
0010
0000
0010
,
0000
0010
0000
0000
,
0000
1000
0000
1000
,
0000
1000
0000
0000
,
0000
0001
0000
0001
,
0001
0000
0000
0000
,
1000
0000
0000
0000
,
0001
0000
0000
0000
,
0100
0000
0000
0000
,
0010
0000
0000
0000
,
1000
0000
0000
0000
,
0001
0000
0000
0000
,
0100
0000
0000
0000
,
0010
0000
0000
0000
,
1000
0000
0000
0000
,
0100
0000
0000
0000
,
0010
0000
0000
0000
,
0001
0000
0000
0000
,
1000
0000
0000
0000
,
0100
0000
0000
0000
,
0010
0000
0000
0000
,
0001
0000
0000
0000
,
0000
1000
0000
1000
,
0000
1000
0000
0000
,
0000
0001
0000
0001
,
0000
0001
0000
0000
,
0000
0100
0000
0100
,
0000
0100
0000
0000
,
0000
0010
0000
0010
,
0010
0000
0000
0000
,
0110
0000
0000
0000
,
1000
0000
0000
0000
,
0001
0000
0000
0000
,
0000
0000
0000
0000
,
0110
0000
0000
0000
,
0001
0000
0000
0000
,
1000
0000
0000
0000
,
0000
0000
0000
0000
,
0010
0000
0000
0000
,
0000
0010
0000
0010
,
0000
0100
0000
0100
,
0000
0001
0000
0000
,
0000
1000
0000
1000
,
0000
0001
0000
0001
,
0000
0100
0000
0100
,
0000
0000
0000
0000
,
0010
0000
0000
0000
,
0000
0000
0000
0000
,
1000
0000
0000
0000
,
0000
0000
0000
0000
,
0001
0000
0000
0100
,
0100
0000
0000
0010
,
0010
0000
0000
0000
,
0000
0000
0000
0000
,
0000
1000
0000
1000
,
0000
1000
0000
0000
,
0000
0001
0000
0001
,
0000
0001
0000
0000
,
0000
0100
0000
0100
,
0000
0100
0000
0000
,
0000
0010
0000
0010
,
0000
0000
0010
0010
;

//---------------dance-single - ----------------
#NOTES:
     dance-single:
     :
     Easy:
     6:
     0.307,0.404,0.197,0.197,0.000:
0000
0000
0000
0000
,
0000
0000
0000
0000
,
0000
0000
0000
0000
,
0000
0000
0000
0000
,
1001
0100
0100
0000
,
0010
0010
1000
0000
,
1000
0100
0100
0000
,
0020
0000
0000
0030
,
0001
0100
0001
0000
,
1000
0010
1000
0000
,
0001
0010
0001
0000
,
1000
0100
1000
0000
,
0001
1000
0100
0000
,
1000
0001
0010
0000
,
0001
1000
0001
0000
,
0100
0010
0100
0000
,
0210
0000
0301
0000
,
0120
0000
1030
0000
,
2001
0000
3100
0000
,
1000
1000
0100
0110
,
1002
0000
0103
0000
,
2001
0000
3010
0000
,
0210
0000
0301
0000
,
0100
0100
0001
1001
,
0210
0000
0301
0001
,
0120
0000
1030
1000
,
2001
0000
3010
0010
,
1000
1000
0100
0110
,
1002
0000
0103
0100
,
2001
0000
3010
0010
,
0210
0000
0001
0301
,
0100
0100
0001
1001
,
0010
0010
0010
0000
,
1000
1000
1000
0000
,
0001
0001
0001
0000
,
0100
0100
0100
0000
,
0010
0010
1000
1000
,
0001
0001
0100
0100
,
0001
0001
0010
0010
,
0100
0000
0110
0000
,
1001
0000
0010
0000
,
1000
0001
1000
0001
,
0100
0000
0001
0000
,
1000
0001
1000
0001
,
0010
0000
0001
0000
,
0010
0001
0100
0010
,
0100
0000
0010
0000
,
0100
0010
1000
0100
,
0020
0000
0000
0030
,
0001
0000
0010
0000
,
0100
0100
0100
0000
,
1000
1000
0020
0030
,
1000
0010
1000
0000
,
0001
0100
0001
0000
,
1000
0100
0010
0000
,
0001
0100
0010
0000
,
2000
0000
0000
0001
,
0001
0000
0000
0010
,
3010
0000
0000
0000
,
0100
0100
0100
0100
,
0002
0000
0000
1000
,
1000
0000
0000
0010
,
0013
0000
0000
0000
,
1000
0100
0010
0001
,
1001
0010
0100
0010
,
0200
0000
0010
0000
,
1000
0000
0001
0000
,
0020
0000
0000
0330
,
2000
0000
0100
0000
,
0010
0000
3001
0000
,
0002
0000
0100
0000
,
0010
0000
1003
0110
;

//---------------dance-single - ----------------
#NOTES:
     dance-single:
     :
     Medium:
     10:
     0.497,0.506,0.141,0.253,0.056: // measure 1
0000
0000
0000
0000
,  // measure 2
0000
0000
0000
0000
,  // measure 3
0000
0000
0000
0000
,  // measure 4
0000
0000
0000
0000
,  // measure 5
1001
0000
0010
0100
0010
0000
0000
0200
,  // measure 6
0000
0001
0001
1300
,  // measure 7
0001
0000
0010
0100
0010
0000
0000
0200
,  // measure 8
0000
1000
1000
0301
,  // measure 9
1001
0000
0010
0000
2000
0000
0000
3001
,  // measure 10
0000
0100
0000
0001
0010
0100
1000
0000
,  // measure 11
0001
0000
1000
0000
0020
0000
0000
0130
,  // measure 12
0000
0001
0000
0100
0010
0100
0010
0000
,  // measure 13
1001
0000
0010
0000
0200
0000
0000
1300
,  // measure 14
0000
0001
0000
1000
0010
0100
0001
0000
,  // measure 15
0100
0000
0001
0000
0020
0000
0000
0130
,  // measure 16
0000
0010
0000
0001
1000
0000
0110
0000
,  // measure 17
0002
0000
0000
0000
0000
0000
0000
0000
0103
0000
0000
0001
0000
0000
0100
0000
,  // measure 18
0020
0000
0000
0000
0000
0000
0000
0000
1030
0000
0000
0100
0000
0000
1000
0000
,  // measure 19
0002
0000
0000
0000
0000
0000
0000
0000
0103
0000
0000
0010
0000
0000
0100
0000
,  // measure 20
0010
0000
1000
0001
1000
0000
1001
0000
,  // measure 21
2000
0000
0000
0000
0000
0000
0000
0000
3100
0000
0000
0010
0000
0000
0100
0000
,  // measure 22
0020
0000
0000
0000
0000
0000
0000
0000
0031
0000
0000
0100
0000
0000
0001
0000
,  // measure 23
2000
0000
0000
0000
0000
0000
0000
0000
3010
0000
0000
1000
0000
0000
0010
0000
,  // measure 24
0100
0000
0001
1000
0001
0000
1001
0000
,  // measure 25
0002
0000
0000
0000
0013
0000
0000
0000
0001
0000
0000
0100
0000
0000
0001
0000
,  // measure 26
2000
0000
0000
0000
3010
0000
0000
0000
1000
0000
0000
0100
0000
0000
1000
0000
,  // measure 27
0020
0000
0000
0000
0130
0000
0000
0000
0001
0000
0000
1000
0000
0000
0100
0000
,  // measure 28
0010
0000
0100
0000
1000
0001
0100
0000
,  // measure 29
0020
0000
0000
0000
1030
0000
0000
0000
0001
0000
0000
0100
0000
0000
0001
0000
,  // measure 30
2000
0000
0000
0000
3100
0000
0000
0000
0010
0000
0000
0001
0000
0000
0010
0000
,  // measure 31
0002
0000
0000
0000
1003
0000
0000
0000
0010
0000
0000
0100
0000
0000
0001
0000
,  // measure 32
0100
0000
0010
0000
1000
0001
0010
0000
,  // measure 33
0001
0100
0001
0100
0010
0000
0010
0000
,  // measure 34
1000
0100
1000
0100
0010
0000
0010
0000
,  // measure 35
0001
1000
0001
1000
0100
0000
0100
0000
,  // measure 36
2000
3001
0002
1003
,  // measure 37
0010
0100
0010
0100
0010
0000
0010
0000
,  // measure 38
1000
0001
1000
0001
1000
0000
1000
0000
,  // measure 39
0001
0101
1000
1100
,  // measure 40
0010
0000
0010
0000
0010
0010
0010
0010
,  // measure 41
0001
0000
0100
0001
1000
0000
0001
0100
,  // measure 42
0000
0100
0001
0000
1000
0100
0010
0000
,  // measure 43
0100
0000
1000
0001
0100
0000
0010
1000
,  // measure 44
0000
1000
0010
0000
0100
0000
0110
0000
,  // measure 45
1001
0000
0010
1000
0100
0000
0010
0001
,  // measure 46
0000
0001
0100
0000
0010
0100
0001
0000
,  // measure 47
1000
0000
0001
1000
0010
0000
0100
0010
,  // measure 48
0000
0010
1000
0000
0100
0000
0110
0000
,  // measure 49
2002
0000
0000
3003
,  // measure 50
1000
0100
0001
0100
,  // measure 51
1000
0010
1000
0000
0001
0010
0001
0000
,  // measure 52
1000
0100
1000
0000
0002
0000
0003
0000
,  // measure 53
1000
0100
1000
0000
0001
0100
0001
0000
,  // measure 54
1000
0010
1000
0000
0001
0010
0001
0000
,  // measure 55
1000
0100
0001
0000
0001
0100
1000
0000
,  // measure 56
1000
0010
0001
0000
0001
0010
1000
0000
,  // measure 57
2001
0000
0000
0010
,  // measure 58
0010
0000
0000
3100
,  // measure 59
0100
0000
0010
0001
0100
0000
0001
1000
,  // measure 60
0000
1000
0010
0000
1000
0001
0100
0000
,  // measure 61
1002
0000
0000
0010
,  // measure 62
0010
0000
0000
0103
,  // measure 63
0100
0000
0010
1000
0100
0000
0010
0001
,  // measure 64
0000
0001
1000
0010
0100
0010
0100
0000
,  // measure 65
0110
0000
1000
0000
0001
0100
0001
0010
,  // measure 66
0000
0010
0001
0000
1000
0100
0010
0000
,  // measure 67
0100
0000
1000
0000
0010
1000
0010
0100
,  // measure 68
0000
0100
0001
0000
1000
0001
1000
0000
,  // measure 69
0001
0010
0001
0010
0100
0000
0010
0002
,  // measure 70
0000
1003
0010
0000
0100
0010
0100
0000
,  // measure 71
0001
1000
0001
1000
0100
0000
0010
0200
,  // measure 72
0000
1300
0010
0100
0001
1000
0001
1000
;

//---------------dance-single - ----------------
#NOTES:
     dance-single:
     :
     Hard:
     13:
     0.639,0.573,0.291,0.150,0.056: // measure 1
0000
0000
0000
0000
,  // measure 2
0000
0000
0000
0000
,  // measure 3
0000
0000
0000
0000
,  // measure 4
0000
0000
0000
0000
,  // measure 5
1001
0000
0010
0100
0001
0000
0100
0020
,  // measure 6
0000
1030
0100
0010
0100
0100
1000
0001
,  // measure 7
0100
0000
0010
1000
0100
0000
0010
2002
,  // measure 8
0000
0000
0000
3003
,  // measure 9
0110
0000
0010
0100
0001
0000
0010
0001
,  // measure 10
0000
1000
0100
0010
0100
0100
1000
0001
,  // measure 11
0100
0000
0010
1000
0100
0000
0010
0001
,  // measure 12
0000
1000
0001
1000
0001
0000
1001
0000
,  // measure 13
0110
0000
0010
1000
0001
0000
1000
0100
,  // measure 14
0000
0010
0001
0100
0010
0010
0100
0100
,  // measure 15
0001
0000
0100
0001
1000
0000
0001
0010
,  // measure 16
0000
0100
0010
0001
0100
0000
0110
0000
,  // measure 17
2010
0000
0000
0000
3001
0000
0100
0000
0001
0000
0000
0001
0000
0000
0010
0000
,  // measure 18
0200
0000
0000
0000
0310
0000
0001
0000
1000
0000
0000
1000
0010
0000
1000
0000
,  // measure 19
0002
0000
0000
0000
0103
0000
0010
0000
0100
0000
0000
0100
0000
0000
0001
0000
,  // measure 20
1000
0100
0010
0100
1000
0001
0110
0000
,  // measure 21
1002
0000
0000
0000
0103
0000
0010
0000
1000
0000
0000
1000
0000
0000
0100
0000
,  // measure 22
0020
0000
0000
0000
0130
0000
1000
0000
0001
0000
0000
0001
0100
0000
0010
0000
,  // measure 23
0200
0000
0000
0000
0301
0000
1000
0000
0100
0000
0000
0100
0000
0000
0010
0000
,  // measure 24
0100
1000
0001
0100
0010
0100
1001
0000
,  // measure 25
0001
0000
0010
0000
0001
0000
0010
0000
0100
0000
0000
1100
0000
0000
1000
0000
,  // measure 26
0010
0000
1000
0000
0010
0000
1000
0000
0100
0000
0000
0101
0000
0000
0001
0000
,  // measure 27
0100
0000
1000
0000
0010
0000
0001
0000
0010
0000
0000
1010
0000
0000
0001
0000
,  // measure 28
0010
0100
1000
0100
0010
0001
1001
0000
,  // measure 29
1000
0000
0010
0000
1000
0000
0010
0000
0100
0000
0000
0101
0000
0000
0001
0000
,  // measure 30
0010
0000
0001
0000
0010
0000
0001
0000
0100
0000
0000
1100
0000
0000
1000
0000
,  // measure 31
0100
0000
0001
0000
0010
0000
1000
0000
0010
0000
0000
0011
0000
0000
1000
0000
,  // measure 32
0010
0100
0001
1000
0100
0010
1001
0000
,  // measure 33
1000
0010
1000
0010
0100
0100
0100
0100
,  // measure 34
0002
0010
1000
0013
,  // measure 35
0001
0100
0001
0100
0010
0010
0010
0010
,  // measure 36
2000
3010
0002
0013
,  // measure 37
1000
0100
1000
0100
0001
0001
0001
0001
,  // measure 38
0100
0010
0100
0010
1000
1000
1000
1000
,  // measure 39
0010
1100
0010
0101
,  // measure 40
0001
0001
0001
0000
1000
1000
0001
1000
,  // measure 41
0110
0000
0010
0100
0001
0000
0100
0010
,  // measure 42
0000
0100
0010
0100
0001
0001
0100
0100
,  // measure 43
0010
0000
1000
0100
0010
0000
0100
1000
,  // measure 44
0000
1000
0001
0100
0010
0000
0110
0000
,  // measure 45
1010
0000
0001
0100
0010
0000
0100
0001
,  // measure 46
0000
1000
0100
0010
0100
0100
1000
0001
,  // measure 47
0100
0000
0010
1000
0001
0000
1000
0100
,  // measure 48
0000
0010
0100
1000
0100
0010
1001
0000
,  // measure 49
0020
0000
0000
0030
,  // measure 50
0100
0001
0100
1000
0100
0001
0010
1000
,  // measure 51
0010
0001
0100
1000
0100
0001
0010
1000
,  // measure 52
0100
0001
0100
1000
0010
0001
0010
0000
,  // measure 53
1000
0100
0001
0010
1000
0100
0001
0010
,  // measure 54
1000
0010
0001
0100
1000
0010
0001
0100
,  // measure 55
0001
0010
1000
0100
1000
0100
0010
0001
,  // measure 56
1000
0010
0001
0100
0001
0010
0100
1000
,  // measure 57
0002
0000
1003
0001
0100
0000
0010
0100
,  // measure 58
0000
0001
0010
0100
0010
0010
0001
1000
,  // measure 59
0010
0000
1000
0010
0100
0000
0010
0100
,  // measure 60
0000
0100
0001
1000
0001
0000
1001
0000
,  // measure 61
1100
0000
1000
0100
0010
0000
0100
1000
,  // measure 62
0000
0001
0100
0010
0100
0100
0001
1000
,  // measure 63
0100
0000
0010
0001
1000
0000
0001
0100
,  // measure 64
0000
0010
0100
0001
0100
0000
0110
0000
,  // measure 65
2010
0001
0001
0100
,  // measure 66
3001
0000
0001
0100
0010
0100
0001
1000
,  // measure 67
0100
0000
1000
0010
0010
0010
0010
0010
,  // measure 68
2000
0001
0100
3001
,  // measure 69
1001
0100
0010
0100
0001
0000
0100
0010
,  // measure 70
0000
1000
0100
0010
0100
0100
1000
0001
,  // measure 71
0100
0010
0100
0001
1000
0010
0100
0001
,  // measure 72
0000
1000
0100
0010
0110
0010
0110
0100
;

//---------------dance-single - ----------------
#NOTES:
     dance-single:
     :
     Challenge:
     15:
     0.741,0.910,0.150,0.169,0.403: // measure 1
0000
0000
0000
0000
,  // measure 2
0000
0000
0000
0000
,  // measure 3
0000
0000
0000
0000
,  // measure 4
0000
0000
0000
0000
,  // measure 5
1001
0000
0010
0100
0001
0000
0100
0010
,  // measure 6
0000
0000
0010
0000
1000
0000
0100
0000
0010
0000
0100
0000
1000
0001
1000
0001
,  // measure 7
1000
0000
0010
0100
0001
0000
0100
0220
,  // measure 8
0000
0000
0000
0330
,  // measure 9
1010
0000
0000
0000
0001
0000
0100
0001
1000
0000
0000
0000
0001
0000
0010
0000
,  // measure 10
0000
0010
0100
0010
0001
0001
0100
0100
,  // measure 11
0010
0000
0000
0000
0100
0000
0001
1000
0100
0000
0000
0000
1000
0000
0100
0000
,  // measure 12
0000
0000
0100
0000
0010
0000
0100
0000
1000
0001
0000
0001
1000
0001
1000
0001
,  // measure 13
1000
0000
0000
0000
0010
0000
0100
0001
0010
0000
0000
0000
0100
0000
0010
0000
,  // measure 14
0000
0010
0100
1000
0010
0010
0100
0100
,  // measure 15
0001
0000
0000
0000
1000
0000
0010
1000
0100
0000
0000
0000
1000
0000
0001
0000
,  // measure 16
0000
0000
0100
0000
0010
0000
0100
0000
0001
0000
0000
0000
1000
0001
1000
0001
,  // measure 17
2000
0000
0000
0000
3010
0000
0100
0001
0100
0000
0000
0100
0010
0000
0100
0000
,  // measure 18
0002
0000
0000
0000
0013
0000
0100
0010
0100
0000
0000
0100
0010
0000
0100
0000
,  // measure 19
2000
0000
0000
0000
3010
0000
0100
0010
0100
0000
0000
0100
0010
0000
0100
0000
,  // measure 20
0001
0010
1000
0010
0001
0100
1001
0000
,  // measure 21
0020
0000
0000
0000
0130
0000
0001
1000
0001
0000
0000
0001
1000
0000
0001
0000
,  // measure 22
0200
0000
0000
0000
0310
0000
1000
0001
1000
0000
0000
1000
0001
0000
0100
0000
,  // measure 23
0020
0000
0000
0000
0130
0000
0001
1000
0001
0000
0000
0001
1000
0000
0001
0000
,  // measure 24
1000
0100
0001
0100
1000
0010
0110
0000
,  // measure 25
0010
1000
0010
1000
0010
0000
0100
0000
0001
0000
0000
0001
1000
0000
0001
0000
,  // measure 26
0010
0001
0010
0001
0010
0000
0100
0000
1000
0000
0000
1000
0001
0000
1000
0000
,  // measure 27
0100
1000
0100
1000
0100
0000
0010
0000
0001
0000
0000
0001
0100
0000
0010
0000
,  // measure 28
0100
0000
0100
0000
0001
0000
1000
0000
0100
0000
0010
0001
1000
0000
0000
0000
,  // measure 29
0001
0100
0001
0100
0001
0000
0100
0000
0010
0000
0000
0010
1000
0000
0001
0000
,  // measure 30
1000
0100
1000
0100
1000
0000
0100
0000
0010
0000
0000
0010
0001
0000
1000
0000
,  // measure 31
0010
1000
0010
1000
0010
0000
0100
0000
0001
0000
0000
0001
1000
0000
0001
0000
,  // measure 32
0100
0000
0100
0000
0010
0000
0100
0000
0001
0000
1000
0001
0100
0000
0000
0000
,  // measure 33
0001
0100
1000
0100
0011
0010
0010
0010
,  // measure 34
1000
0100
0001
0100
1010
0010
0010
0010
,  // measure 35
0001
0010
1000
0010
0101
0100
0100
0100
,  // measure 36
2000
3001
0002
1003
,  // measure 37
1000
0010
0001
0010
1100
0100
0100
0100
,  // measure 38
0001
0010
1000
0010
0101
0100
0100
0100
,  // measure 39
0010
0000
0001
0000
1000
0000
0000
1000
0001
0000
0100
0000
0010
0000
0000
0010
,  // measure 40
1000
0000
1000
0000
0001
0000
0000
0001
1000
0000
1000
0000
0001
1000
0001
1000
,  // measure 41
0020
0000
0000
0000
0130
0000
0001
1000
0100
0000
0000
0000
1000
0000
0010
0000
,  // measure 42
0000
0010
0100
0001
1000
1000
0100
0100
,  // measure 43
0010
0000
0000
0000
0100
0000
1000
0001
0100
0000
0000
0000
0010
0000
0100
0000
,  // measure 44
0000
0000
0100
0000
0001
0000
0010
0000
0100
1000
0000
0001
1000
0001
1000
0001
,  // measure 45
0100
0000
0000
0000
0010
0000
1000
0010
0100
0000
0000
0000
0010
0000
1000
0000
,  // measure 46
0000
1000
0001
0010
0100
0100
0010
0010
,  // measure 47
0001
0000
0000
0000
0100
0000
0001
0010
0100
0000
0000
0000
0010
0000
0001
0000
,  // measure 48
0000
0001
1000
0100
0010
0100
1001
0000
,  // measure 49
0020
0000
0000
0030
,  // measure 50
0100
0000
0001
0100
0001
0000
1000
0000
0010
0000
0010
0000
0010
0000
0010
0000
,  // measure 51
1000
0000
0100
0010
0001
0000
0100
0010
1000
0000
0010
0100
0001
0000
1000
0000
,  // measure 52
0100
0000
1000
0010
1000
0000
0001
0100
0001
0000
1000
0000
1000
0000
0000
0000
,  // measure 53
0001
0000
0010
0100
1000
0000
0100
0000
0010
0100
1000
0000
0100
0000
0010
0000
,  // measure 54
0001
0000
1000
0010
0100
0000
0010
0000
1000
0010
0100
0000
0010
0000
1000
0000
,  // measure 55
0001
0100
0001
0100
0010
0000
1000
0100
1000
0100
0010
0000
0100
0000
1000
0000
,  // measure 56
0001
1000
0001
1000
0010
0000
1000
0001
1000
0001
0010
0000
0001
1000
0001
1000
,  // measure 57
0002
1000
0000
1000
,  // measure 58
1000
0000
0000
1003
,  // measure 59
1100
0000
0001
0010
0100
0000
0010
0001
,  // measure 60
0000
0000
0001
0000
1000
0000
0010
0000
1000
0001
0000
1000
0001
1000
0001
0000
,  // measure 61
1010
0000
0000
0000
0001
0000
0100
0001
0010
0000
0000
0000
0100
0000
0010
0000
,  // measure 62
0000
0010
0001
0100
0010
0010
0100
0100
,  // measure 63
0001
0000
0000
0000
1000
0000
0001
1000
0100
0000
0000
0000
0010
0000
0100
0000
,  // measure 64
0000
0000
0100
0000
1000
0000
0010
0000
0100
0000
0001
0000
1000
0001
1000
0001
,  // measure 65
2000
0000
3010
0100
0001
0100
0010
2000
,  // measure 66
0000
3100
0010
0100
1000
1000
0100
0100
,  // measure 67
0010
0000
0001
1000
1000
1000
1000
1000
,  // measure 68
0020
0000
0000
0030
,  // measure 69
0110
0100
0001
0100
1000
0100
0001
0020
,  // measure 70
0000
0000
1030
0000
0010
0000
0001
0000
0010
0000
0001
0000
0100
0000
1000
0001
,  // measure 71
0010
0100
1000
0100
0001
0100
1000
0020
,  // measure 72
0000
0000
0130
0010
0100
0000
0100
0000
1001
0000
1000
0000
1001
0000
0001
0000
;
