#TITLE:All Rise;
#SUBTITLE:;
#ARTIST:Wovenwar;
#TITLETRANSLIT:;
#SUBTITLETRANSLIT:;
#ARTISTTRANSLIT:;
#GENRE:;
#CREDIT:;
#MENUCOLOR:;
#METERTYPE:DDR;
#BANNER:All Rise.png;
#BACKGROUND:All Rise-bg.png;
#LYRICSPATH:;
#CDTITLE:./CDTITLES/NONE.PNG;
#MUSIC:All Rise.ogg;
#OFFSET:-1.500;
#SAMPLESTART:42.938;
#SAMPLELENGTH:15.000;
#SELECTABLE:YES;
#LISTSORT:;
#BPMS:0.000=160.000;
#STOPS:;
#BGCHANGES:-4.000=All Rise.avi=1.000=0=0=0,
99999=-nosongbg-=1.000=0=0=0 // don't automatically add -songbackground-
;
#ATTACKS:;

//---------------dance-single - ----------------
#NOTES:
     dance-single:
     :
     Beginner:
     2:
     0.113,0.129,0.024,0.040,0.000:
0000
0000
0000
0000
,
0000
0000
0000
0000
,
0000
0000
0000
0000
,
0000
0000
0000
0000
,
0010
0000
0000
0000
,
0100
0000
0000
0000
,
0001
0000
0000
0000
,
1000
0000
0000
0000
,
0001
0000
0001
0000
,
0001
0000
0000
0000
,
1000
0000
1000
0000
,
1000
0000
0000
0000
,
0020
0000
0000
0030
,
0000
0000
0000
0000
,
0200
0000
0000
0300
,
0000
0000
0000
0000
,
0002
0000
0000
0003
,
0000
0000
0000
0000
,
2000
0000
0000
3000
,
0000
0000
0000
0000
,
1001
0000
0000
0000
,
0100
0000
0000
0000
,
0010
0000
0000
0000
,
1000
0000
0000
0000
,
0001
0000
0001
0000
,
0001
0000
0000
0000
,
1000
0000
1000
0000
,
1000
0000
0000
0000
,
0000
0010
0000
0010
,
0000
0010
0000
0000
,
0000
0100
0000
0100
,
0000
0100
0000
0000
,
0000
0001
0000
0001
,
0000
0001
0000
0000
,
0000
1000
0000
1000
,
0000
1000
0000
0000
,
0001
0000
0001
0000
,
0001
0000
0000
0000
,
1000
0000
0000
0000
,
1000
0000
0000
0000
,
0010
0000
0010
0000
,
0010
0000
0000
0000
,
0100
0000
0100
0000
,
0100
0000
0000
0000
,
0001
0000
0000
0000
,
1000
0000
0000
0000
,
0001
0000
0000
0000
,
1000
0000
0000
0000
,
0001
0000
0000
0000
,
0010
0000
0000
0000
,
0100
0000
0000
0000
,
1000
0000
0000
0000
,
0100
0000
0100
0000
,
0100
0000
0000
0000
,
0010
0000
0010
0000
,
0010
0000
0000
0000
,
0000
0001
0000
0001
,
0000
0001
0000
0000
,
0000
1000
0000
1000
,
0000
1000
0000
0000
,
0000
0010
0000
0010
,
0000
0010
0000
0000
,
0000
0100
0000
0100
,
0000
0100
0000
0000
,
0020
0000
0000
0030
,
0000
0000
0000
0000
,
1001
0000
0000
0000
,
0001
0000
0000
0000
,
0000
1000
0000
1000
,
0000
1000
0000
0000
,
0000
0001
0000
0001
,
0000
0001
0000
0000
,
0010
0000
0000
0000
,
0100
0000
0000
0000
,
0010
0000
0000
0000
,
0001
0000
0000
0000
,
1000
0000
0000
0000
,
0010
0000
0000
0000
,
0100
0000
0000
0000
,
0010
0000
0000
0000
,
1000
0000
0000
0000
,
1001
0000
0000
0000
;

//---------------dance-single - ----------------
#NOTES:
     dance-single:
     :
     Easy:
     4:
     0.214,0.290,0.024,0.183,0.000:
0000
0000
0000
0000
,
0000
0000
0000
0000
,
0000
0000
0000
0000
,
0000
0000
0000
0000
,
0002
0000
0000
0003
,
2000
0000
0000
3000
,
0020
0000
0000
0030
,
0200
0000
0000
0300
,
0001
0000
0001
1000
,
0001
0000
1000
0001
,
1000
0000
0010
0100
,
0020
0000
0000
0030
,
0100
0000
0000
0000
,
0100
0000
0000
0000
,
0010
0000
0000
0000
,
0010
0000
0000
0000
,
1000
0000
0000
0000
,
1000
0000
0000
0000
,
0001
0000
0000
0000
,
0001
0000
0000
0000
,
2001
0000
0000
0000
,
3010
0000
0000
0000
,
1002
0000
0000
0000
,
0013
0000
0000
0000
,
1000
0000
0100
0000
,
1000
0000
0000
0000
,
0001
0000
0100
0000
,
0001
0000
0000
0000
,
0100
0000
0100
0000
,
0100
0000
0000
0000
,
0010
0000
1000
0000
,
0001
0000
0000
0000
,
0010
0000
0010
0000
,
0010
0000
0000
0000
,
0001
0000
0010
0000
,
0100
0000
0000
0000
,
1000
0000
1000
0000
,
2000
0000
0000
3000
,
0001
0000
0001
0000
,
0002
0000
0000
0003
,
0100
0000
0010
0000
,
0100
0000
0000
0000
,
0001
0010
0001
0000
,
1000
0010
1000
0000
,
2002
0000
0000
0000
,
0000
0000
0000
0000
,
3003
0000
0000
0000
,
0000
0000
0000
0000
,
0010
0000
0010
1000
,
0001
0000
0001
1000
,
0010
0000
0010
1000
,
0001
0000
1000
0001
,
0100
0100
0010
0000
,
0100
0100
0001
0000
,
1000
1000
0010
0000
,
1000
1000
0002
0000
,
1003
0100
1000
0000
,
0001
0100
0001
0000
,
1000
0010
1000
0000
,
0001
0010
0001
0000
,
1000
0001
0100
0000
,
0001
1000
0010
0000
,
0200
0010
0000
0010
,
0000
1000
0000
1300
,
0001
0001
0001
0001
,
1000
1000
1000
0010
,
2000
0100
3100
0000
,
0002
0100
0103
0000
,
0010
1000
0001
0000
,
0100
0001
1000
0000
,
0001
0010
0100
1000
,
0001
0010
0001
0000
,
2000
0010
0000
3010
,
0200
0001
0000
0301
,
0020
1000
0000
1030
,
0002
0100
0000
0103
,
2000
0001
0000
3100
,
0002
1000
0000
0013
,
0200
0010
0000
1300
,
0020
0100
0000
0031
,
1000
1000
0000
0000
0000
0000
0001
0000
,
0001
0001
0000
0000
0000
0000
0000
0000
;

//---------------dance-single - ----------------
#NOTES:
     dance-single:
     :
     Medium:
     9:
     0.481,0.483,0.071,0.437,0.000: // measure 1
0000
0000
0000
0000
,  // measure 2
0000
0000
0000
0000
,  // measure 3
0000
0000
0000
0000
,  // measure 4
0000
0000
0000
0000
,  // measure 5
0002
0010
0000
0013
,  // measure 6
1000
0100
1000
0000
0001
0100
0001
0000
,  // measure 7
2000
3010
0002
0103
,  // measure 8
2000
0100
0000
3100
,  // measure 9
0001
0000
0010
0100
1000
0000
1000
0000
,  // measure 10
0001
0000
0100
0010
1000
0000
1000
0000
,  // measure 11
0010
0000
0100
0001
1000
0000
0010
0000
,  // measure 12
0200
0000
0000
0300
,  // measure 13
0020
1000
0100
0130
,  // measure 14
2000
0100
0010
3001
,  // measure 15
0002
0010
0100
0103
,  // measure 16
0020
0100
0001
1030
,  // measure 17
0200
0010
1000
0301
,  // measure 18
0020
0001
1000
0130
,  // measure 19
2000
0010
0100
3001
,  // measure 20
0200
0010
1000
1300
,  // measure 21
0001
0002
0000
0000
0000
0000
0000
0000
,  // measure 22
1000
0010
0100
1003
,  // measure 23
1000
2000
0000
0000
0000
0000
0000
0000
,  // measure 24
0001
0010
0100
3001
,  // measure 25
1000
0010
1000
0000
0001
0000
0001
0000
,  // measure 26
0001
0010
0001
0000
1000
0000
1000
0000
,  // measure 27
0010
0100
0010
0000
0100
0000
0100
0000
,  // measure 28
0001
1000
0001
0000
2002
0000
3003
0000
,  // measure 29
1020
0000
0100
0000
1030
0000
0001
1000
,  // measure 30
0200
0000
0010
0000
0301
0000
1000
0001
,  // measure 31
0020
0000
0001
0000
1030
0000
0001
0100
,  // measure 32
0002
0000
1000
0000
0103
0000
1000
0010
,  // measure 33
0200
0000
0010
0000
1300
0000
0001
1000
,  // measure 34
0020
0000
1000
0000
0130
0000
1000
0100
,  // measure 35
0020
0001
0000
0031
,  // measure 36
2000
0100
0000
3100
,  // measure 37
1000
0001
1000
0001
1000
0000
0010
0000
,  // measure 38
0100
0001
0100
0001
0100
0000
0001
0000
,  // measure 39
1000
0100
1000
0100
1000
0000
0010
0000
,  // measure 40
0100
0001
0100
0001
0100
0000
0001
0000
,  // measure 41
2000
0000
0100
0000
3010
0000
0100
0001
,  // measure 42
0200
0000
0010
0000
1300
0000
0001
0010
,  // measure 43
0200
0010
0001
1300
,  // measure 44
0001
0000
0100
0000
0010
1000
0001
0000
,  // measure 45
0210
0010
0010
0010
,  // measure 46
1000
1000
1000
1000
,  // measure 47
0001
0001
0001
0001
,  // measure 48
0010
0010
0010
0310
,  // measure 49
0100
0001
0000
1000
0100
0000
1000
0000
,  // measure 50
0001
0010
0000
0100
1000
0000
0010
0000
,  // measure 51
0100
0001
0000
1000
0100
0000
1000
0000
,  // measure 52
0001
0100
0000
1000
0100
0000
0001
0000
,  // measure 53
1000
0010
1000
0000
0001
0001
0001
0000
,  // measure 54
0001
0010
0001
0000
1000
1000
1000
0000
,  // measure 55
0010
0100
0010
0000
0100
0100
0100
0000
,  // measure 56
0001
1000
0100
0000
2002
0000
3003
0000
,  // measure 57
2010
0000
0001
0000
3100
0000
0001
0010
,  // measure 58
0200
0000
0010
0000
0301
0000
0100
1000
,  // measure 59
0002
0000
0100
0000
1003
0000
0010
0001
,  // measure 60
2000
0000
0010
0000
3001
0000
1000
0100
,  // measure 61
0020
0000
0100
0000
1030
0000
0001
0100
,  // measure 62
0002
0000
1000
0000
0103
0000
1000
0100
,  // measure 63
0020
0100
0000
1030
,  // measure 64
0200
0010
0000
1300
,  // measure 65
0001
0010
0000
0010
0001
0000
1000
0010
,  // measure 66
1000
0001
0000
0001
1000
0000
0002
0000
,  // measure 67
1003
0100
0010
0100
1000
0000
1001
0000
,  // measure 68
0001
0100
0010
0100
0001
0000
1001
0000
,  // measure 69
0020
0000
1000
0000
0130
0000
1000
0001
,  // measure 70
0200
0000
0001
0000
0310
0000
0001
0010
,  // measure 71
0100
0010
0001
0000
0100
0010
1000
0000
,  // measure 72
0010
1000
0001
0100
0001
0000
1000
0000
,  // measure 73
2001
0000
3010
0200
0000
0301
0020
0000
,  // measure 74
0130
2000
0000
0000
0001
0000
3100
0000
,  // measure 75
0002
0000
1003
0020
0000
0130
2000
0000
,  // measure 76
3001
0200
0000
0000
0010
0000
0301
0000
,  // measure 77
2000
0010
3010
0200
0001
0000
0310
0000
,  // measure 78
0001
0100
0001
0000
1000
0000
0100
0000
,  // measure 79
0002
0010
0013
0200
1000
0000
0310
0000
,  // measure 80
1000
0001
0100
0000
0001
1000
0100
0000
,  // measure 81
1000
0001
0000
0000
0002
0000
1003
0000
,  // measure 82
0010
0110
0000
0000
0000
0000
0000
0000
;

//---------------dance-single - ----------------
#NOTES:
     dance-single:
     :
     Hard:
     12:
     0.590,0.580,0.349,0.222,0.044: // measure 1
0000
0000
0000
0000
,  // measure 2
0000
0000
0000
0000
,  // measure 3
0000
0000
0000
0000
,  // measure 4
0000
0000
0000
0000
,  // measure 5
0010
0000
0000
0010
1000
0000
0001
0000
0100
0000
0000
0000
0010
0000
0000
0000
,  // measure 6
1000
0000
0000
1000
0100
0000
0010
0000
0001
0000
0000
0001
0010
0000
0100
0000
,  // measure 7
0010
0000
0000
0010
0001
0000
1000
0000
0010
0000
0000
0000
1000
0000
0000
0000
,  // measure 8
0001
0000
0000
0001
1000
0000
0100
0000
0010
0000
0000
0000
0100
0000
0000
0000
,  // measure 9
1000
0100
0100
0001
0100
0100
1000
0010
,  // measure 10
0001
0010
0010
1000
0010
0010
1000
0100
,  // measure 11
1000
0100
0100
0010
0001
0001
0100
0010
,  // measure 12
0100
0000
0000
0100
0010
0000
0100
0000
0001
0000
0000
0000
1000
0000
0000
0000
,  // measure 13
2001
0000
3010
0000
0100
0001
0010
0200
,  // measure 14
1000
0000
0310
0000
1000
0001
0100
0000
,  // measure 15
0002
0000
0103
0000
0001
0010
0100
2000
,  // measure 16
0010
0000
3001
0000
1000
0100
0010
0000
,  // measure 17
2001
0000
3010
0000
0001
0010
0100
0020
,  // measure 18
0001
0000
1030
0000
0010
0100
1000
0000
,  // measure 19
1002
0000
0103
0000
0010
1000
0100
0002
,  // measure 20
0010
0000
1003
0000
0100
0010
1001
0000
,  // measure 21
0020
0000
0130
0000
,  // measure 22
2000
0000
3001
0000
,  // measure 23
0002
0000
0013
0000
,  // measure 24
0020
0000
0130
0000
,  // measure 25
1000
0100
1000
0001
1000
0000
1000
0000
,  // measure 26
0001
0100
0001
1000
0001
0000
0001
0000
,  // measure 27
0010
0100
1000
0100
0010
0000
0010
0001
,  // measure 28
1000
0010
0100
0001
2000
0000
3001
1000
,  // measure 29
0001
0000
0101
0000
1100
0000
0001
0010
,  // measure 30
0010
0000
1100
0000
0101
0000
1000
0010
,  // measure 31
0010
0000
1100
0000
0101
0000
0100
0010
,  // measure 32
0010
0000
0100
0000
0001
0000
1000
0001
,  // measure 33
0100
0000
0101
0000
1100
0000
0001
0010
,  // measure 34
0010
0000
1100
0000
0101
0000
1000
0010
,  // measure 35
0100
0000
0001
0000
1000
0000
0001
0100
,  // measure 36
0100
0000
0000
0100
0010
0000
0100
0000
0001
0000
1000
0000
0001
0000
1000
0000
,  // measure 37
0001
0010
0001
0010
0001
0010
1000
0100
,  // measure 38
1000
0010
1000
0010
1000
0010
0001
0100
,  // measure 39
0001
1000
0001
1000
0001
1000
0100
0010
,  // measure 40
0100
1000
0010
0001
0010
0100
1001
0000
,  // measure 41
0011
0000
1100
0000
0101
0000
1000
0001
,  // measure 42
0001
0000
0101
0000
1010
0000
1000
0100
,  // measure 43
1000
0001
0001
0100
0010
0010
1000
0100
,  // measure 44
0100
0001
0100
1000
0010
0001
0010
0100
,  // measure 45
0002
0103
0200
1300
,  // measure 46
2000
3010
0020
0031
,  // measure 47
0002
0013
0020
1030
,  // measure 48
2000
3100
0200
0301
,  // measure 49
1100
0000
0001
0000
0001
0000
1000
0001
,  // measure 50
0100
0000
0001
0000
1000
0010
1000
0100
,  // measure 51
1000
0000
0010
0000
0010
0000
0100
0001
,  // measure 52
1000
0000
0001
0000
0010
0001
0100
0010
,  // measure 53
0100
0000
0001
0000
0001
0000
1000
0000
0100
0000
0000
1000
0000
0000
0100
0000
,  // measure 54
1000
0000
0010
0000
0010
0000
0001
0000
0010
0000
0000
0100
0000
0000
0001
0000
,  // measure 55
0010
0000
0100
0000
0100
0000
1000
0000
0100
0000
0000
0010
0000
0000
0001
0000
,  // measure 56
1000
0100
0001
0100
2000
0000
3001
1000
,  // measure 57
0001
0000
0101
0000
1100
0000
0001
0010
,  // measure 58
0010
0000
1100
0000
0101
0000
1000
0010
,  // measure 59
0010
0000
0101
0000
1100
0000
0001
0010
,  // measure 60
0010
0000
1010
0000
0011
0000
1000
0001
,  // measure 61
0100
0000
0110
0000
1001
0000
0010
0100
,  // measure 62
0001
0000
0101
0000
1010
0000
1000
0100
,  // measure 63
1000
0000
0001
0000
0100
0000
0010
0100
,  // measure 64
0100
0000
0110
0000
0001
1000
0100
1000
,  // measure 65
0002
0000
0000
0000
,  // measure 66
2000
0000
3003
0110
,  // measure 67
0010
1000
0010
1000
0010
1000
0100
0001
,  // measure 68
0010
0001
0010
0001
0010
1000
0100
0010
,  // measure 69
0100
0000
1100
0000
0101
0000
1000
0010
,  // measure 70
0010
0000
0101
0000
1100
0000
0001
0010
,  // measure 71
0010
0100
0100
1000
0100
0100
0001
0100
,  // measure 72
0100
0000
1000
0000
0010
0000
0001
0000
0010
0000
0100
0000
0001
0000
0000
0001
,  // measure 73
1000
0100
0100
0020
0001
0000
0031
0000
,  // measure 74
0001
0100
0001
0100
0010
1000
0001
0000
,  // measure 75
0100
0010
0010
2000
0100
0000
3100
0000
,  // measure 76
0100
0010
0001
0100
0010
0100
0001
0000
,  // measure 77
1001
0010
0010
0200
1000
0000
1300
0000
,  // measure 78
1000
0010
1000
0010
0100
0001
0010
0000
,  // measure 79
0001
0010
0001
0010
1000
0100
1000
0100
,  // measure 80
1000
0010
1000
0010
0001
0100
0001
0100
,  // measure 81
0110
0110
0000
0000
0020
0000
0130
0001
,  // measure 82
1001
1001
0000
0000
0000
0000
0000
0000
;

//---------------dance-single - ----------------
#NOTES:
     dance-single:
     :
     Challenge:
     14:
     0.717,0.837,0.556,0.119,0.310: // measure 1
0000
0000
0000
0000
,  // measure 2
0000
0000
0000
0000
,  // measure 3
0000
0000
0000
0000
,  // measure 4
0000
0000
0000
0000
,  // measure 5
0010
0000
0000
0010
1000
0000
0001
0000
0100
0000
0000
0000
0001
0000
0000
0000
,  // measure 6
1000
0000
0000
1000
0100
0000
0010
0000
0001
0000
0000
0000
1000
0000
0000
0000
,  // measure 7
0001
0000
0000
0001
0100
0000
0010
0000
1000
0000
0000
0000
0001
0000
0000
0000
,  // measure 8
0100
0000
0000
0100
0010
0000
1000
0000
0100
0000
0000
0000
0010
0000
0000
0000
,  // measure 9
0100
1000
1000
0100
0001
0001
0100
0010
,  // measure 10
0001
0100
0100
0010
1000
1000
0001
1000
,  // measure 11
0010
0001
0001
0010
1000
1000
0100
0010
,  // measure 12
0200
0000
0000
0300
,  // measure 13
0010
0000
1001
0000
0001
0100
0001
0010
,  // measure 14
0001
0000
0001
0000
1000
0100
1000
0010
,  // measure 15
1001
0000
0100
0000
0010
1000
0010
0100
,  // measure 16
0010
0000
0010
0000
0100
0001
1000
0100
,  // measure 17
0011
0000
0001
0000
1000
0001
0100
0010
,  // measure 18
0100
0000
0100
0000
0001
0100
0010
1000
,  // measure 19
1001
0000
0100
0000
0010
0100
1000
0001
,  // measure 20
0010
0000
0100
0000
0010
0001
1000
0001
,  // measure 21
1000
0100
1000
0100
2000
0000
0000
0000
0001
0000
0000
0000
3000
0000
0001
0100
,  // measure 22
0001
0010
0002
0000
0000
0000
0000
0000
1000
0000
0000
0000
0003
0000
0000
0000
,  // measure 23
1000
0100
0010
0200
0000
0000
0000
0000
1000
0000
0000
0000
0300
0000
0001
0010
,  // measure 24
0100
0010
0002
0000
0000
0000
0000
0000
1000
0000
0000
0000
0003
0000
0000
0000
,  // measure 25
0100
0010
0100
0010
0100
0000
0010
0000
1000
0000
0000
0000
1000
0000
0100
0010
,  // measure 26
0100
0010
0100
0000
0010
0000
0000
0000
0001
0000
0000
0000
0001
0000
0000
0000
,  // measure 27
0100
0010
0100
0010
1000
0000
0000
0000
0010
0000
0000
0000
1000
0000
0100
0010
,  // measure 28
0001
0010
0100
0000
0010
0000
0001
0000
1000
0000
0100
0000
0001
0000
0100
0000
,  // measure 29
1010
0000
0101
0000
1100
0000
0011
1000
,  // measure 30
1000
0000
1100
0000
0101
0000
1010
0001
,  // measure 31
0001
0000
0101
0000
1100
0000
0011
1000
,  // measure 32
1000
0000
0100
0000
0010
0000
0100
1001
,  // measure 33
1001
0000
0110
0000
0001
0000
0110
1000
,  // measure 34
1000
0000
1100
0000
0101
0000
1000
0010
,  // measure 35
0100
0001
1000
0000
0001
1000
0010
0100
,  // measure 36
0100
0000
0000
0100
0010
0000
0100
0000
0001
0000
1000
0001
1000
0000
0001
0000
,  // measure 37
0011
0010
0010
0010
0100
1000
0010
0100
,  // measure 38
0001
0001
0001
0001
1000
0010
1000
0001
,  // measure 39
1000
1000
1000
1000
0001
1000
0100
0010
,  // measure 40
0100
0100
0100
0100
1001
0100
1001
0000
,  // measure 41
1010
0000
1100
0000
1001
0000
1100
0001
,  // measure 42
0001
0000
0101
0000
0110
0000
1001
0010
,  // measure 43
0010
0100
0001
0010
0100
1000
0001
0010
,  // measure 44
0001
0000
1000
0001
1000
0000
0001
0100
0001
0000
1000
0010
0100
0000
0100
0000
,  // measure 45
2001
0000
0000
0000
3100
0000
1000
0000
0100
0001
0000
0001
0100
0000
0000
0000
,  // measure 46
1002
0000
0000
0000
0103
0000
0001
0000
0100
1000
0000
1000
0100
0000
0000
0000
,  // measure 47
2000
3100
0002
0013
,  // measure 48
2000
3010
0002
0103
,  // measure 49
0010
0100
0010
0100
0010
0000
0100
0010
0000
0010
0100
0000
0010
0000
0000
0000
,  // measure 50
0100
0000
0001
1000
0000
1000
0001
0000
1000
0001
1000
0001
0000
0001
1000
0000
,  // measure 51
0001
0010
0001
0000
0010
0000
0001
1000
0000
1000
0001
0000
1000
0000
0000
0000
,  // measure 52
0010
0000
1000
0001
0000
0001
1000
0000
0001
0100
0001
0100
0000
0001
1000
0000
,  // measure 53
0001
0010
0001
0010
0001
0000
1000
0000
0100
1000
0000
0001
0100
0000
0001
0000
,  // measure 54
1000
0010
1000
0010
1000
0000
0001
0000
0100
0001
0000
1000
0100
0000
1000
0000
,  // measure 55
0010
1000
0001
1000
0010
0000
1000
0000
0001
1000
0100
1000
0001
0000
1000
0000
,  // measure 56
0100
0010
0001
0010
0100
0000
1000
0000
2001
0000
0000
0000
3001
1000
0001
1000
,  // measure 57
0010
0000
0101
0000
1100
0000
0011
1000
,  // measure 58
1100
0000
1100
0000
0101
0000
1010
0001
,  // measure 59
0101
0000
0101
0000
1010
0000
0110
1000
,  // measure 60
1001
0000
0110
0000
1001
0000
1100
0001
,  // measure 61
1001
0000
0001
0000
0100
0000
1010
0100
,  // measure 62
0101
0000
0110
0000
1001
0000
1100
0001
,  // measure 63
0021
0000
0001
0000
1000
0000
0031
0100
,  // measure 64
0100
0000
0000
0000
0010
0000
0000
0000
0100
0000
0000
0000
0010
0000
1000
0001
,  // measure 65
2000
0001
0000
0001
0100
0000
0100
3001
,  // measure 66
0020
1000
0000
1000
0031
0000
1001
0000
,  // measure 67
0110
1000
0001
1000
0001
1000
0100
0010
,  // measure 68
0100
0000
1000
0000
0100
0000
1000
0000
0001
0000
0010
0001
0010
0000
0001
1000
,  // measure 69
0001
0000
0101
0000
1100
0000
0011
1000
,  // measure 70
1100
0000
1010
0000
0011
0000
1100
0001
,  // measure 71
0010
0100
0010
0100
0010
0000
0100
0010
0100
0010
0100
0000
1000
0001
1000
0001
,  // measure 72
1000
0000
0001
1000
0001
1000
0001
0100
0010
0000
0100
0000
0100
0000
0000
0100
,  // measure 73
0010
0010
0100
0001
1000
0001
1000
0001
,  // measure 74
0010
0000
0100
0000
0010
0000
0100
0000
1000
0000
0100
0000
0010
0000
0100
0010
,  // measure 75
0001
0100
0100
0010
1000
0010
1000
0010
,  // measure 76
1000
0000
0100
0000
0010
0000
0001
0000
1000
0000
0100
0000
0001
0000
0100
1000
,  // measure 77
0001
1000
1000
0001
0010
0100
0010
0100
,  // measure 78
1000
0010
0100
0001
1000
0100
0010
0100
,  // measure 79
1000
0010
0001
0010
1000
0100
0001
0100
,  // measure 80
1000
0100
0100
0100
0010
0100
1001
0000
,  // measure 81
0110
0000
0110
0000
0000
0000
0000
0000
0001
1000
0100
0000
1000
0000
1010
0000
,  // measure 82
0011
0110
0000
0000
0000
0000
0000
0000
;
