#TITLE:Air Reading Power;
#SUBTITLE:;
#ARTIST:ADULTIC TEACHERS;
#TITLETRANSLIT:;
#SUBTITLETRANSLIT:;
#ARTISTTRANSLIT:;
#GENRE:;
#CREDIT:;
#MENUCOLOR:;
#METERTYPE:DDR;
#BANNER:Air Reading Power.png;
#BACKGROUND:Air Reading Power-bg.png;
#LYRICSPATH:;
#CDTITLE:./CDTITLES/REFLEC BEAT.PNG;
#MUSIC:Air Reading Power.ogg;
#OFFSET:0.000;
#SAMPLESTART:22.174;
#SAMPLELENGTH:15.000;
#SELECTABLE:YES;
#LISTSORT:;
#BPMS:0.000=184.000;
#STOPS:;
#BGCHANGES:;
#ATTACKS:;

//---------------dance-single - ----------------
#NOTES:
     dance-single:
     :
     Beginner:
     3:
     0.116,0.183,0.063,0.000,0.000:
0000
0000
0000
0000
,
0000
0000
0000
0000
,
0000
0000
0000
0000
,
0000
0000
0000
0000
,
0000
0000
0000
0000
,
0000
0000
0000
0000
,
0000
0000
0000
0000
,
0000
0000
0000
0000
,
0000
0000
0000
0000
,
1001
0000
0000
0000
,
0000
0000
0000
0000
,
0010
0000
0000
0000
,
0000
0000
0000
0000
,
0100
0000
0000
0000
,
0000
0000
0000
0000
,
1000
0000
0000
0000
,
0000
0000
0000
0000
,
0001
0000
0001
0000
,
0001
0000
0000
0000
,
1000
0000
1000
0000
,
1000
0000
0000
0000
,
0010
0000
0010
0000
,
0010
0000
0000
0000
,
0100
0000
0100
0000
,
0100
0000
0000
0000
,
0001
0000
0000
0000
,
1000
0000
0000
0000
,
0010
0000
0000
0000
,
0100
0000
0000
0000
,
1001
0000
0000
0000
,
1000
0000
0000
0000
,
0001
0000
0000
0000
,
0010
0000
0000
0000
,
0000
0100
0000
0100
,
0000
0100
0000
0000
,
0000
0010
0000
0010
,
0000
0010
0000
0000
,
0000
0001
0000
0001
,
0000
0001
0000
0000
,
0000
1000
0000
1000
,
0000
1000
0000
0000
,
1000
0000
0000
0000
,
0001
0000
0000
0000
,
0000
0100
0000
0100
,
0000
0100
0000
0000
,
0000
0010
0000
0010
,
0000
0010
0000
0000
,
0000
1000
0000
1000
,
1000
0000
0000
0000
,
1001
0000
0000
0000
,
0010
0000
0000
0000
,
0001
0000
0000
0000
,
1000
0000
0000
0000
,
0010
0000
0000
0000
,
0100
0000
0000
0000
,
0100
0000
0000
0000
,
0010
0000
0000
0000
,
0010
0000
0000
0000
,
1001
0000
0000
0000
,
1000
0000
0000
0000
,
0001
0000
0000
0000
,
0100
0000
0000
0000
,
0000
0010
0000
0010
,
0000
0010
0000
0000
,
0000
0100
0000
0100
,
0000
0100
0000
0000
,
1001
0000
0000
0000
,
1000
0000
0000
0000
,
0001
0000
0000
0000
,
0010
0000
0000
0000
,
1001
0000
0000
0000
,
1000
0000
0000
0000
,
0010
0000
0000
0000
,
0100
0000
0000
0000
,
0001
0000
0000
0000
,
1000
0000
0000
0000
,
0100
0000
0000
0000
,
0010
0000
0000
0000
,
0100
0000
0000
0000
,
1000
0000
0000
0000
,
0001
0000
0000
0000
,
0100
0000
0010
0000
,
0110
0000
0000
0000
;

//---------------dance-single - ----------------
#NOTES:
     dance-single:
     :
     Easy:
     7:
     0.395,0.487,0.322,0.295,0.000:
0000
0000
0000
0000
,
0000
0000
0000
0000
,
0000
0000
0000
0000
,
0000
0000
0000
0000
,
0000
0000
0000
0000
,
0000
0000
0000
0000
,
0000
0000
0000
0000
,
0000
0000
0000
0000
,
0000
0000
0000
0000
,
0020
0130
0200
0301
,
0002
0000
1003
0000
,
2000
3100
0200
0310
,
0020
0000
0031
0000
,
1002
1003
2000
3010
,
0020
0000
0130
0000
,
0020
1030
2000
3001
,
0002
0000
0000
1003
,
1100
0100
0010
0000
,
0001
0100
0010
0000
,
1000
0010
0100
0000
,
0001
0010
0100
1000
,
0010
1000
0001
0000
,
0010
0001
1000
0000
,
0001
1000
0100
0000
,
1000
0001
0100
0000
,
0210
0310
0020
1030
,
2000
0000
3001
0000
,
0002
0013
0020
0130
,
0200
0000
1300
0000
,
2000
3010
0020
1030
,
2000
0000
3001
0000
,
0002
0013
0020
0031
,
0002
0000
0000
1003
,
0010
0000
0100
0100
,
0100
0000
0001
0001
,
0001
0000
1000
1000
,
1000
0000
0010
0010
,
0010
0000
1000
1000
,
1000
0000
0001
0001
,
0001
0000
0010
0010
,
0010
0000
0100
0100
,
0010
0001
1000
0100
,
0010
0001
1000
0010
,
0100
1010
0000
0011
,
0000
1100
0000
0101
,
0001
1000
0001
1000
,
0010
0100
0110
0000
,
0001
0011
0100
1100
,
0010
0100
0110
1001
,
0210
0000
0000
0310
,
1000
0001
1000
0001
,
0100
0010
0100
0010
,
1000
0100
0010
0001
,
1000
0100
0010
0100
,
1000
1100
0000
1100
,
0000
0101
0000
0101
,
0000
0011
0000
0011
,
0000
1010
0000
1000
,
0001
1000
0001
1000
,
0010
0100
0010
0100
,
0001
0010
0100
1000
,
0001
0100
0010
0100
,
0001
0101
0000
0101
,
0000
1100
0000
1100
,
0000
1010
0000
1010
,
0000
0011
0000
0010
,
0001
1000
1000
0010
,
0010
0100
0100
0001
,
1000
0100
0100
0010
,
0100
0110
0001
1001
,
1010
0010
0010
1000
,
2000
0000
3001
0000
,
0001
0010
0010
0100
,
0100
1000
0100
0010
,
1001
0000
0000
0110
0000
0001
1000
0000
,
0010
0010
0100
0100
,
1001
0000
0000
0110
0000
1000
0001
0000
,
1000
0100
0010
0001
,
2001
3010
0020
0130
,
0200
0301
0010
0100
,
0020
0031
0002
1003
,
0010
0100
0010
1000
,
2002
0000
0000
0000
,
0000
0000
0000
3003
;

//---------------dance-single - ----------------
#NOTES:
     dance-single:
     :
     Medium:
     10:
     0.556,0.637,0.233,0.331,0.004:
0000
0000
0000
0000
,
0000
0000
0000
0000
,
0000
0000
0000
0000
,
0000
0000
0000
0000
,
0000
0000
0000
0000
,
0000
0000
0000
0000
,
0000
0000
0000
0000
,
0000
0000
0000
0000
,
0000
0000
0000
0000
,
0020
0000
0130
0100
0200
0000
0301
0001
,
0002
0000
1003
0000
,
2000
0000
3100
0100
0200
0000
0310
0010
,
0020
0000
0130
0000
,
1002
0000
1003
1000
2000
0000
3010
0010
,
0020
0000
0130
0000
,
0002
0000
0013
0010
0020
0000
0130
0100
,
0100
0100
0100
0110
,
0001
1000
0001
0000
0001
0100
0000
0100
,
0010
0000
0010
1000
0000
1000
0100
0000
,
1000
0001
1000
0000
1000
0100
0000
0100
,
0010
1100
0010
0101
,
0001
1000
0001
0000
1000
0010
0000
0010
,
1000
0000
0001
0002
0000
1003
0001
0000
,
1000
0100
1000
0000
0001
0100
0000
0010
,
1000
0000
0100
0000
0010
0010
0100
0100
,
0020
0000
0031
0001
0002
0000
1003
1000
,
0010
0100
0001
1000
,
0002
0000
1003
1000
2000
0000
3010
0010
,
0100
0010
0100
0100
,
2001
0000
3001
0001
0002
0000
0103
0100
,
0100
0010
1000
0001
,
0020
0000
0031
0001
0002
0000
0103
0100
,
0010
0100
0001
0010
,
1100
0001
1000
0100
,
0010
0001
0000
1000
0001
0000
0100
0000
,
0010
0100
0000
0001
0010
0000
0001
0000
,
1000
0010
0100
0001
,
1000
0100
0000
1000
0001
0000
0100
0000
,
0010
0100
0000
0001
0010
0000
0001
0000
,
1000
0100
0000
0001
0100
0000
1000
0000
,
0010
1000
0000
0010
0001
0000
0010
0000
,
0100
0100
0010
0000
1000
1000
0001
0000
,
0010
0010
0100
0000
0010
0010
0001
0000
,
1100
0001
0101
1000
,
0010
0000
0100
0000
0010
1000
0000
0000
,
0001
0010
0001
0000
1000
0010
1000
0000
,
0001
0100
0001
0000
0100
0100
0000
0100
,
0010
0000
0110
0000
0001
1000
0100
0000
,
0010
0001
0010
0000
0001
1000
0100
0000
,
0120
0000
0000
0031
,
2000
0000
0100
0000
3100
0000
1000
0010
,
0200
0000
0001
0000
0301
0000
0010
0001
,
2000
0000
0001
0000
3001
0000
0001
0100
,
0020
0000
0100
0000
0130
0000
0001
0100
,
0010
1010
0010
1010
,
0001
0101
0001
0101
,
1000
0000
1100
0000
1000
0000
0100
0010
,
0002
0000
0000
0000
1003
1000
0001
0001
,
0200
0000
0010
0000
0310
0000
1000
0010
,
2000
0000
0001
0000
3001
0000
0010
0001
,
0020
0000
0001
0000
0031
0000
0100
0010
,
0200
0000
0010
0000
0310
0000
1000
0001
,
0100
0110
0100
0110
,
1000
1001
1000
1001
,
0001
0000
0011
0000
0001
0000
0010
0001
,
0100
0000
0010
0000
0100
0100
0010
0100
,
0001
0010
0001
0000
1000
0010
0000
0010
,
1000
0000
0001
1000
0000
1000
0001
0000
,
1000
0100
1000
0000
0001
0100
0000
0100
,
0010
0000
0110
0000
0001
1000
0100
0000
,
1000
0001
0100
0000
0001
1000
0010
0000
,
1000
0001
0001
0002
0000
0103
0010
0000
,
0100
0001
0100
0000
0001
0010
0001
0000
,
1000
0100
0010
0000
0100
0100
1000
0001
,
1000
0001
0000
1001
0000
0100
0001
1000
,
0100
0000
0000
0010
0000
0000
0100
0000
0010
0000
0000
0000
1100
0000
0000
0000
,
0001
1000
0000
1001
0000
1000
0010
0100
,
0010
0000
1001
0000
0100
0001
1000
0000
,
0002
0000
0013
0010
0020
0000
0031
0001
,
0100
0000
0100
0010
0100
0000
0001
0000
,
2000
0000
3100
0100
0200
0000
0310
0010
,
0100
1000
0001
0100
1000
0100
0001
0000
,
2002
0000
0000
0000
,
0000
0000
0000
3003
;

//---------------dance-single - ----------------
#NOTES:
     dance-single:
     :
     Hard:
     13:
     0.724,0.711,0.411,0.179,0.049:
0000
0000
0000
0000
,
0000
0000
0000
0000
,
0000
0000
0000
0000
,
0000
0000
0000
0000
,
0000
0000
0000
0000
,
0000
0000
0000
0000
,
0000
0000
0000
0000
,
0000
0000
0000
0000
,
0000
0000
0000
0000
,
0120
0000
1030
1000
0200
0000
0310
0010
,
0001
0100
0010
1000
0001
0100
0010
1000
,
0002
0000
0013
0010
0002
0000
1003
1000
,
0100
1000
0010
0100
0001
1000
0001
0000
,
1001
1000
0001
0100
0001
0100
0001
0010
,
1001
0001
1000
0100
1000
0100
1000
0010
,
1000
0001
0100
1000
0100
0001
0010
1000
,
0010
0001
0100
0010
0100
0000
0110
0000
,
0010
1000
0010
0100
0001
0100
0001
0010
,
0001
1000
0100
1000
0010
0100
0001
0000
,
1000
0100
1000
0001
0100
0001
0010
0001
,
0100
0110
0001
1001
,
0001
0010
0001
1000
0010
1000
0001
0100
,
0010
1000
1000
2000
0000
3001
0010
0100
,
0010
0001
0010
0001
1000
0001
1000
0010
,
0100
0010
1000
0100
0010
0010
0100
0100
,
1002
0000
1003
1000
0020
0000
1030
0100
,
0010
0100
1000
0100
0010
0100
1000
0100
,
0020
0000
0031
0001
2000
0000
3001
0100
,
0010
1000
0001
0010
0100
1000
0010
0000
,
2001
0000
3001
0001
0020
0000
0031
1000
,
0001
0010
0100
0010
0001
0010
0100
0010
,
0002
0000
0103
0100
0020
0000
0130
0001
,
1000
0000
1001
0000
0100
0100
0010
0100
,
1001
1000
0000
1000
0001
0100
0010
1000
,
0001
0101
0000
1000
0100
0010
0100
1000
,
0010
1010
0000
1000
0010
0100
0010
1000
,
0001
0001
0010
0010
0100
0100
1000
1000
,
0001
1001
0000
1000
0010
0100
0001
1000
,
0001
0011
0000
0001
0010
0100
1000
0100
,
0010
0011
0000
0001
1000
0010
1000
0001
,
1000
1001
0000
1000
0100
0100
0010
0010
,
0001
0100
1000
0100
0001
0100
1000
0100
,
0001
0010
1000
0010
0001
0010
1000
0010
,
0001
0000
1001
0000
1000
0001
0100
0000
,
0010
1000
0100
0010
0001
1001
0000
0000
,
1000
0100
0001
0100
1000
0100
0001
0100
,
1000
0010
0001
0010
1000
1010
0000
0001
,
0010
0001
0100
0000
0010
1000
0100
0000
,
0010
0000
0000
0001
1000
0000
0000
1000
0001
0000
0001
0000
0100
0010
0000
0000
,
2001
0000
0000
3001
,
1000
0100
0010
0100
1000
0100
0010
0100
,
1000
0010
0001
0010
1000
0010
0001
0010
,
1000
0100
0001
0100
1000
0100
0001
0100
,
1000
0001
0100
0010
0100
0001
0010
0001
,
0100
1100
0100
1100
,
0010
0011
0010
0011
,
0001
0000
1001
0000
0001
0000
1001
1000
,
0002
0000
0000
0000
0103
0100
0010
0100
,
0001
0010
0100
0010
0001
0010
0100
0010
,
0001
0100
1000
0100
0001
0100
1000
0100
,
0001
0010
1000
0010
0001
0010
1000
0010
,
0001
0100
0010
1000
0001
1000
0100
1000
,
0001
0101
0001
0101
,
1000
1100
1000
1100
,
0100
0110
0100
0110
,
0010
0000
0000
0000
0011
0000
0000
0001
0100
0000
0100
0000
0010
0000
0100
0000
,
1001
0100
0010
1000
0100
0010
0100
1000
,
0001
0100
0010
0100
0001
0010
0001
0000
,
1000
0001
0100
0010
1000
0001
0010
0001
,
0100
0000
0101
0000
1010
0010
1000
0000
,
1001
1000
0100
1000
0001
0100
0010
0100
,
0001
0010
0010
0200
0000
0310
0001
1000
,
0001
0100
1000
0100
0001
0010
1000
0010
,
0001
0100
0010
1000
0100
0100
0010
0100
,
1000
1100
0000
0011
0000
0101
0001
1000
,
1001
0000
0000
1001
0000
0000
0100
0000
0010
0000
0100
0000
0001
0000
0000
0000
,
0001
0011
0000
1100
0000
1010
1000
0001
,
1001
0000
0000
0100
0010
0000
0000
0010
1000
0000
1000
0000
0001
0000
1000
0000
,
0002
0000
1003
1000
0020
0000
1030
1000
,
0100
0001
0100
1000
0010
1000
0100
0010
,
0002
0000
0103
0100
0010
0010
1000
1000
,
0001
0000
0000
1000
0010
0000
0000
0010
0100
0000
0001
0000
1000
0001
1000
0001
,
2000
0000
0000
0000
,
0000
0000
0000
3000
;

//---------------dance-single - ----------------
#NOTES:
     dance-single:
     :
     Challenge:
     17:
     0.948,0.974,0.492,0.152,0.738: // measure 1
0000
0000
0000
0000
,  // measure 2
0000
0000
0000
0000
,  // measure 3
0000
0000
0000
0000
,  // measure 4
0000
0000
0000
0000
,  // measure 5
0000
0000
0000
0000
,  // measure 6
0000
0000
0000
0000
,  // measure 7
0000
0000
0000
0000
,  // measure 8
0000
0000
0000
0000
,  // measure 9
0000
0000
0000
0000
,  // measure 10
0110
0000
1000
0010
1000
0000
0001
0010
0001
0000
1000
0100
1000
0000
0001
0100
,  // measure 11
0001
0010
0001
0010
0100
0000
1000
0000
1000
0010
1000
0010
0100
0000
0001
0000
,  // measure 12
1000
0000
0100
1000
0100
0000
1000
0001
1000
0000
0001
0010
0001
0000
0100
0001
,  // measure 13
0100
0010
0100
0010
0100
0000
0001
0000
0010
0100
0010
0100
1000
0000
0001
0000
,  // measure 14
1000
0100
1000
0100
1000
0000
0001
0000
0001
0100
0001
0100
0001
0000
1000
0000
,  // measure 15
0100
0010
0100
0010
0100
0000
0100
0000
0010
0100
0010
0100
0010
0000
0010
0000
,  // measure 16
0001
1000
0001
1000
0010
0000
0100
0000
0001
1000
0001
1000
0100
0000
0010
0000
,  // measure 17
1100
0010
MMMM
0010
0101
0010
MMMM
0000
,  // measure 18
0001
0010
0001
0010
0100
0000
0010
0000
0001
1000
0010
0000
1000
0000
0001
1000
,  // measure 19
0100
0000
1000
0100
0010
0000
0001
0000
0100
0001
1000
0000
0001
0010
0100
0000
,  // measure 20
0010
0001
0010
0001
0100
0000
0010
1000
0001
0000
1000
0000
0001
1000
0001
1000
,  // measure 21
0010
0100
MMMM
0010
MMMM
0100
MMMM
0010
,  // measure 22
1000
0010
1000
0010
1000
0000
0001
0010
0001
0000
1000
0000
0001
0000
0100
0001
,  // measure 23
1000
0000
0001
0010
0100
0000
0200
0000
0000
0000
1300
0010
0100
0000
0010
0000
,  // measure 24
1000
0100
1000
0100
0010
0000
0001
0100
0010
0000
1000
0000
0001
0000
0010
0001
,  // measure 25
0100
0000
0001
1000
0010
0000
0100
0001
0100
0000
0100
0000
0010
0000
0100
0000
,  // measure 26
1002
0000
0013
0001
0010
0000
0010
0000
0002
0000
1003
0001
1000
0000
1000
0000
,  // measure 27
0001
0100
0001
0100
0010
0000
1000
0000
0100
0010
0100
0010
0001
0000
1000
0000
,  // measure 28
2010
0000
3010
1000
0010
0000
0010
0000
2000
0000
3001
1000
0001
0000
0001
0000
,  // measure 29
0100
0001
0100
0001
0010
0000
0100
1000
0001
0000
1000
0001
0100
0010
0000
0000
,  // measure 30
0120
0000
1030
0010
1000
0000
1000
0000
0020
0000
1030
0001
1000
0000
1000
0000
,  // measure 31
0001
0010
0100
0010
0001
0000
1000
0000
0001
0010
0100
0010
0001
0000
1000
0000
,  // measure 32
1200
0000
1300
0100
1000
0000
1000
0000
0200
0000
1300
0001
1000
0000
1000
0000
,  // measure 33
0001
0100
0010
1000
0001
0000
1000
0100
0010
0000
0100
0000
1001
0000
MMMM
0000
,  // measure 34
0010
0000
MMMM
0000
0000
0001
0000
0100
0001
0000
0010
0100
1000
0000
0100
0010
,  // measure 35
0100
0000
MMMM
0000
0000
1000
0000
0100
1000
0000
0100
0010
0100
0010
0000
0010
,  // measure 36
0001
0000
MMMM
0000
0000
0000
0001
0100
0001
0100
0000
0100
0010
0000
0010
1000
,  // measure 37
0001
1000
1100
0100
0110
0010
0011
0001
,  // measure 38
0100
0000
MMMM
0000
0000
0000
0010
0100
0010
0100
0000
0100
0010
0000
0010
1000
,  // measure 39
0001
0000
MMMM
0000
0000
0000
0001
1000
0001
1000
0000
1000
0010
0000
1000
0001
,  // measure 40
0100
0000
MMMM
0000
0000
0000
0001
0100
0010
0100
0000
0100
0001
0000
1000
0001
,  // measure 41
0100
MMMM
0000
0010
0100
0100
0010
0100
,  // measure 42
MMMM
1000
MMMM
0001
MMMM
0100
MMMM
0010
,  // measure 43
MMMM
1000
MMMM
0100
MMMM
0001
MMMM
0100
,  // measure 44
1000
0001
1010
0001
1000
0001
0101
1000
,  // measure 45
0001
0000
1000
0001
0100
0000
0001
1000
0001
0000
MMMM
0000
0010
0000
0100
0000
,  // measure 46
0001
0000
0010
0100
1000
0000
0100
0000
0010
0000
0001
1000
0100
0000
1000
0000
,  // measure 47
0001
0000
1000
0010
0100
0000
0010
0000
MMMM
0000
1001
0000
0010
0000
0100
0000
,  // measure 48
0001
0000
1000
0100
0010
0000
0000
0000
0100
0000
1000
0001
0100
0000
0010
0000
,  // measure 49
1000
0000
0001
0100
0010
0000
1000
0100
0010
0000
0100
1000
0001
1000
0000
0001
,  // measure 50
2000
0010
0010
3010
,  // measure 51
1000
0010
0101
0010
1000
0010
0101
0010
,  // measure 52
1000
0100
0011
0100
1000
0100
0011
0100
,  // measure 53
1000
0001
0110
0001
1000
0001
0110
0001
,  // measure 54
1000
0100
0011
0100
1000
0010
0101
0100
,  // measure 55
0001
0010
0011
0000
0101
0000
0011
0000
,  // measure 56
2001
0000
0010
0000
0100
0000
3001
1000
,  // measure 57
0020
0000
0100
0000
0031
1000
0001
0001
,  // measure 58
0020
0000
0130
0000
0100
0100
0010
0100
,  // measure 59
1001
0000
0010
0000
0100
0001
0100
0001
0010
0000
0100
1000
0001
0000
1000
0000
,  // measure 60
0010
0000
1000
0000
0001
0010
0001
0010
0100
0000
1000
0001
0010
0000
0001
0000
,  // measure 61
1000
0000
0100
0000
0010
0100
0010
0100
1000
0000
0010
0100
0001
0000
1000
0000
,  // measure 62
0001
0000
0010
0000
0100
1000
0100
1000
0001
0000
1000
0001
0100
0000
0010
0000
,  // measure 63
0100
0001
1010
0001
0100
0001
1010
0001
,  // measure 64
1000
0100
0011
0100
1000
0100
0011
0100
,  // measure 65
1000
0001
0110
0001
1000
0001
0011
0100
,  // measure 66
0210
0000
0310
0000
0100
0100
0010
0100
,  // measure 67
1001
0000
0010
1000
0001
0000
1000
0001
0100
0010
0100
0000
0001
0010
0001
0010
,  // measure 68
0100
0000
1000
0010
1000
0000
0001
0000
1000
0001
0100
0010
0100
0000
0010
0000
,  // measure 69
1000
0100
1000
0100
0010
0000
0100
1000
0001
0000
1000
0001
0100
0000
0010
0000
,  // measure 70
MMMM
0010
MMMM
1000
MMMM
0001
MMMM
0100
,  // measure 71
0110
0000
0010
1000
0100
0000
0010
0001
0100
0001
0100
0000
0001
0010
0001
0000
,  // measure 72
1000
0000
0010
0000
0010
0000
0200
0000
0000
0000
0310
1000
0010
1000
0001
0000
,  // measure 73
0100
0001
1000
0001
0010
0000
0100
1000
0001
1000
0010
0000
0100
0001
1000
0000
,  // measure 74
0110
0000
1010
0000
0100
0100
MMMM
0100
,  // measure 75
1010
0000
MMMM
0000
0000
0000
0011
0000
0000
0000
1001
0000
0001
1000
0001
1000
,  // measure 76
0001
0000
0000
0101
0000
0000
1000
0000
0100
0000
0100
0000
0010
0100
0010
0100
,  // measure 77
MMMM
0000
0011
0000
0000
0000
1001
0000
0000
0000
1010
0000
0010
0100
0010
0100
,  // measure 78
0001
0000
0000
1000
0100
0000
0000
0001
0100
0000
1000
0000
0001
1000
0001
1000
,  // measure 79
0010
1000
0011
1000
0001
1000
0011
1000
,  // measure 80
1100
0000
0010
0000
0001
0100
0001
0100
0010
0000
0100
0000
0001
0000
1000
0000
,  // measure 81
1001
0010
0001
0100
1001
1001
0110
1001
,  // measure 82
1001
0000
0000
1000
MMMM
0000
0000
0001
MMMM
0000
0100
0000
0010
0100
0010
0100
,  // measure 83
2002
0000
0000
0000
,  // measure 84
0000
0000
0000
3003
;
