#TITLE:ALIVE;
#SUBTITLE:;
#ARTIST:ギルガメッシュ;
#TITLETRANSLIT:;
#SUBTITLETRANSLIT:;
#ARTISTTRANSLIT:girugamesh;
#GENRE:;
#CREDIT:;
#MENUCOLOR:;
#METERTYPE:DDR;
#BANNER:ALIVE.png;
#BACKGROUND:ALIVE-bg.png;
#LYRICSPATH:;
#CDTITLE:./CDTITLES/NONE.PNG;
#MUSIC:ALIVE.ogg;
#OFFSET:0.000;
#SAMPLESTART:73.636;
#SAMPLELENGTH:15.000;
#SELECTABLE:YES;
#LISTSORT:;
#BPMS:0.000=132.000;
#STOPS:;
#BGCHANGES:0.000=ALIVE.avi=1.000=0=0=0,
99999=-nosongbg-=1.000=0=0=0 // don't automatically add -songbackground-
;
#ATTACKS:;

//---------------dance-single - ----------------
#NOTES:
     dance-single:
     :
     Beginner:
     2:
     0.127,0.157,0.008,0.000,0.000:
0000
0000
0000
0000
,
0000
0000
0000
0000
,
0000
0000
0000
0000
,
0000
0000
0000
0000
,
0000
0000
0000
0000
,
1000
0000
1000
0000
,
0001
0000
0001
0000
,
0010
0000
0010
0000
,
0100
0000
0000
0000
,
0000
0001
0000
0001
,
0000
1000
1000
1000
,
0000
0010
0000
0010
,
0000
0100
0000
0100
,
0000
0010
0000
0010
,
0000
1000
1000
1000
,
0000
0001
0000
0001
,
0000
1000
0000
1000
,
0000
0000
0010
0000
,
0000
0000
0100
0000
,
0000
0000
0001
0000
,
0000
0000
1000
0000
,
1000
0000
1000
0000
,
0001
0000
0001
0000
,
1000
0000
1000
0000
,
0001
0000
0001
0000
,
0010
0000
0000
0000
,
0100
0000
0100
0000
,
0010
0000
0010
0000
,
1000
0000
1000
0000
,
0001
0000
0000
0000
,
1000
0000
1000
0000
,
0100
0000
0100
0000
,
0010
0000
0010
0010
,
0010
0000
0000
0000
,
0001
0000
0000
0000
,
1000
0000
0000
0000
,
0010
0000
0000
0000
,
0100
0000
0100
0000
,
0010
0000
0010
0000
,
1000
0000
1000
0000
,
1001
0000
0000
0000
,
0001
0000
0001
0001
,
0001
0000
0001
0001
,
0001
0000
0000
0000
,
1000
0000
1000
0000
,
0010
0000
0010
0010
,
0010
0000
0010
0010
,
0010
0000
0000
0000
,
0100
0000
0000
0000
,
1000
0000
0000
1000
,
1000
0000
0000
0001
,
0001
0000
1000
0000
,
0010
0000
0100
0000
,
0010
0000
0000
0000
,
0100
0000
0000
0000
,
0001
0000
1000
0000
,
0001
0000
0000
0000
,
0000
1000
0000
1000
,
0000
1000
0000
1000
,
0000
0001
0000
0001
,
0000
0001
0000
0001
,
0000
0010
0000
0010
,
0000
0010
0000
0010
,
0000
0100
0000
0100
,
0000
0100
0000
0100
;

//---------------dance-single - ----------------
#NOTES:
     dance-single:
     :
     Easy:
     4:
     0.183,0.209,0.040,0.016,0.000:
0000
0000
0000
0000
,
0000
0000
0000
0000
,
0000
0000
0000
0000
,
0000
0000
0000
0000
,
0000
0000
0000
0000
,
1000
0000
1000
1000
,
0001
0000
0001
0001
,
0010
0000
0010
0010
,
0100
0000
2002
3003
,
0001
0000
0001
0000
,
0001
0000
1000
1000
,
0010
0000
0010
0000
,
0010
0000
0100
0100
,
0001
0000
1000
0000
,
0100
0000
1000
1000
,
0001
0000
0010
0000
,
1000
0000
0001
0001
,
0100
0000
0010
0000
,
1000
0000
0001
1000
,
0001
0000
0010
0000
,
0100
0000
1000
0001
,
1000
0000
0010
0000
,
0100
0000
0001
0100
,
0001
0000
1000
0000
,
0010
0000
1000
0100
,
1000
0000
0000
0000
,
0001
0000
0010
0000
,
0100
0000
1000
0000
,
0001
0000
0100
0100
,
0010
0000
0000
0000
,
1000
0000
0001
0000
,
1000
0000
0010
0000
,
0100
0100
0010
0010
,
1001
0000
0001
0000
,
1000
0000
0001
1000
,
0001
0000
1000
0000
,
0010
0000
0100
0010
,
0100
0000
0010
0000
,
1000
0000
0001
0100
,
0001
0000
1000
0000
,
0100
0000
0110
0000
,
0001
1000
1000
0000
,
1000
0001
0001
0000
,
0010
0100
0100
0000
,
0100
0000
0010
0000
,
1000
0001
1000
0000
,
0001
1000
0001
0000
,
0001
0010
0100
1000
,
0100
0000
0010
0000
,
1001
0000
1000
0000
,
0010
0000
0100
0000
,
0001
0000
1000
0000
,
0010
0010
0100
0100
,
0001
0000
1000
0000
,
0100
0100
0010
0010
,
0001
0000
1000
0000
,
1000
0100
0010
0001
,
1000
0000
0001
0000
,
0100
0000
0010
0010
,
1000
0000
0001
0000
,
1000
0000
0010
0010
,
0001
0000
1000
0000
,
0001
0000
0100
0100
,
1000
0000
0001
0000
,
1000
0000
0100
0110
;

//---------------dance-single - ----------------
#NOTES:
     dance-single:
     :
     Medium:
     7:
     0.339,0.365,0.089,0.065,0.089:
0000
0000
0000
0000
,
0000
0000
0000
0000
,
0000
0000
0000
0000
,
0000
0000
0000
0000
,
0000
0000
0000
0000
,
1001
1000
1000
1000
,
1001
0001
0001
0001
,
0110
0010
0010
0010
,
0220
0330
0020
0030
,
0100
0000
0000
0010
0100
0000
0000
0010
,
0100
0000
0000
0010
0100
0000
0100
0000
,
0001
0000
0000
1000
0001
0000
0000
1000
,
0001
0000
0000
1000
0001
0000
0001
0000
,
1000
0000
0000
0010
1000
0000
0000
0010
,
1000
0000
0000
0010
1000
0000
1000
0000
,
0100
0000
0000
0001
0100
0000
0000
0001
,
0100
0000
0000
0001
0100
0000
0100
0000
,
1000
0000
0000
0001
1000
0000
0001
0000
,
1000
0000
0000
0010
0100
0000
0010
0000
,
1000
0000
0000
0001
0100
0000
0001
0000
,
1000
0000
0000
0001
0010
0000
0100
0000
,
1000
0000
0000
0100
1000
0000
0001
0000
,
1000
0000
0000
0100
0001
0000
1000
0000
,
0001
0000
0000
0010
1000
0000
0001
0000
,
1000
0000
0000
0010
0001
0000
1000
0000
,
1001
0000
0000
0010
0100
0000
0001
0000
,
0100
0000
0000
0001
0010
0000
0100
0000
,
1000
0000
0000
1000
0100
0000
0010
0000
,
0001
0000
0100
0001
0100
0000
0001
0000
,
1001
0000
0000
0010
1000
0000
0001
0000
,
1000
0000
0000
0001
0100
0000
0001
0000
,
1000
0000
0000
0100
0010
0000
0001
0000
,
0010
0000
0100
1000
0001
0000
0110
0000
,
0001
0000
0100
0000
0001
0001
0100
0000
,
1000
0000
0100
0000
1000
1000
0100
0000
,
1000
0000
0010
0000
1000
1000
0010
0000
,
0100
0000
0000
0000
0001
0000
0000
0000
0000
1000
0000
0000
1000
0000
0000
0000
,
0001
0000
0010
0000
0001
0001
0100
0000
,
1000
0000
0010
0000
1000
1000
0001
0000
,
0100
0000
0010
0000
0100
0100
0010
0000
,
0220
0330
2002
3003
,
0001
0000
0000
0010
0000
0000
0010
0000
0001
0000
0000
0000
0100
0000
0000
0000
,
1000
0000
0000
0010
0000
0000
0010
0000
1000
0000
0000
0000
0100
0000
0000
0000
,
1000
0001
0100
0000
0001
1000
0100
0000
,
0001
0000
0010
0000
0100
1000
0100
0000
,
0010
0001
0010
0000
0100
0000
1000
0000
,
0010
1000
0010
0000
0100
0000
0001
0000
,
1000
0000
0000
0100
0000
0000
0100
0000
1000
0000
0000
0100
0000
0000
0100
0000
,
0010
0000
0000
0001
0000
0000
0001
0000
0100
0000
0000
0000
0110
0000
0000
0000
,
0010
0000
0000
0010
0000
0000
1000
0000
0010
0000
0000
0000
1000
0000
0000
0000
,
0010
0000
0000
0010
0000
0000
0001
0000
0010
0000
0000
0000
0001
0000
0000
0000
,
0100
0000
0000
0001
0000
0000
1000
0000
0100
0000
0000
1000
0000
0000
0001
0000
,
1000
0000
0000
0010
0000
0000
0100
0000
0010
0000
0000
0000
0100
0000
0000
0000
,
0001
0000
0000
0001
0000
0000
1000
0000
0100
0000
0000
0000
1000
0000
0000
0000
,
1000
0000
0000
1000
0000
0000
0001
0000
0100
0000
0000
0000
0001
0000
0000
0000
,
0100
0000
0000
0100
0000
0000
0010
0000
0100
0000
0000
0100
0000
0000
0001
0000
,
0100
0000
0000
0100
0000
0000
0001
0000
2000
0000
0000
0000
3000
0000
0000
0000
,
0001
0000
0010
0100
1000
0000
0010
0100
,
0001
0000
0100
0010
1000
0000
0010
0000
,
1000
0000
0001
1000
0100
0000
1000
0001
,
0100
0000
0010
1000
0100
0000
0010
0000
,
0001
0000
0000
0100
0000
0000
1000
0000
0100
0000
0000
0100
0000
0000
1000
0000
,
0010
0000
0000
0010
0000
0000
0001
0000
1000
0000
0000
0000
0001
0000
0000
0000
,
1000
0000
0000
0100
0000
0000
0001
0000
0100
0000
0000
0100
0000
0000
1000
0000
,
0010
0000
0000
0010
0000
0000
0100
0000
0001
0000
0000
0000
0110
0000
0000
0000
;

//---------------dance-single - ----------------
#NOTES:
     dance-single:
     :
     Hard:
     13:
     0.637,0.628,0.169,0.161,0.576: // measure 1
0000
0000
0000
0000
,  // measure 2
0000
0000
0000
0000
,  // measure 3
0000
0000
0000
0000
,  // measure 4
0000
0000
0000
0000
,  // measure 5
0000
0000
0000
0000
,  // measure 6
0110
0010
0010
0010
,  // measure 7
0110
0100
0100
0100
,  // measure 8
1001
0001
0001
0001
,  // measure 9
1000
0000
0100
0000
0010
0001
2000
0000
,  // measure 10
3001
0000
0100
0001
0000
0000
1000
0000
0100
0000
1000
0001
0000
0000
1000
0000
,  // measure 11
0010
0000
0100
0010
0000
0000
1000
0000
0100
0000
0010
0001
0000
0001
1000
0000
,  // measure 12
0001
0000
0010
0100
0000
0000
1000
0000
0010
0000
0100
0010
0000
0000
1000
0000
,  // measure 13
0001
0000
0010
0001
0000
0000
0100
0000
0001
0000
1000
0100
0000
0100
0010
0000
,  // measure 14
1001
0000
0010
0100
0000
0000
0010
0000
1000
0000
0001
0010
0000
0000
0001
0000
,  // measure 15
1000
0000
0100
1000
0000
0000
0100
0000
0010
0000
0001
0010
0000
0001
1000
0000
,  // measure 16
0001
0000
0100
0010
0000
0000
1000
0000
0100
0000
0010
0100
0000
0000
1000
0000
,  // measure 17
0001
0000
0100
0010
0000
0000
1000
0000
0010
0000
0100
0001
1000
0000
0001
0000
,  // measure 18
1001
0000
0010
0100
0000
0100
0010
0000
1000
0000
0100
0010
0000
0000
0001
0000
,  // measure 19
1000
0000
0010
0100
0000
0100
0010
0000
1000
0000
0001
0010
0000
0000
0001
0000
,  // measure 20
0100
0000
0010
1000
0000
1000
0001
0000
0010
0000
0001
1000
0000
0000
0001
0000
,  // measure 21
1000
0000
0001
0010
0000
0010
0001
0000
1000
0000
0100
0010
0000
0000
0100
0000
,  // measure 22
1000
0000
0001
0100
0000
0001
1000
0000
0010
0000
0100
0010
0000
0000
1000
0000
,  // measure 23
0100
0000
0010
0100
0000
1000
0001
0000
0100
0000
0001
0010
0000
0000
0100
0000
,  // measure 24
0010
0000
0100
1000
0000
0001
1000
0000
0010
0000
0100
0001
0000
0000
1000
0000
,  // measure 25
0010
0000
1000
0001
0000
1000
0100
0000
1000
0000
0010
0100
0001
0000
1000
0000
,  // measure 26
0001
0000
0000
1000
0000
0000
2002
0000
0000
0000
0000
0000
3003
0000
0000
0000
,  // measure 27
0010
1000
0010
0010
0100
0001
0100
0100
,  // measure 28
0001
0010
0001
0001
1000
0100
0010
0001
,  // measure 29
1000
0000
0100
1000
0000
1000
0001
0000
0100
0000
0001
1000
0000
1000
0010
0000
,  // measure 30
0100
0000
0000
0010
0000
0000
0220
0000
0000
0000
0000
0000
0330
0000
0000
0000
,  // measure 31
1000
0010
0010
1000
0001
0001
0010
0100
,  // measure 32
1000
0100
0100
0001
0100
1000
0001
1000
,  // measure 33
0002
0000
0000
0000
1003
0000
0000
0000
0001
1000
0001
1000
0001
0000
1000
0000
,  // measure 34
0010
0100
0000
0010
1000
0000
0010
0100
0000
0010
1000
0000
0001
0000
0010
0000
,  // measure 35
0100
0010
0000
0100
0001
0000
0100
0010
0000
0100
1000
0000
0100
0000
0010
0000
,  // measure 36
0001
0100
0000
0001
1000
0000
0010
1000
0000
0001
0010
0000
0001
0000
1000
0000
,  // measure 37
0002
0000
0000
0023
0000
0000
0230
0000
1300
0001
1000
0000
0001
2000
0000
0000
,  // measure 38
3100
0010
0000
0010
0001
0000
0001
0100
0000
0100
0010
0000
1000
0000
0010
0000
,  // measure 39
1000
0100
0000
0100
0010
0000
0010
0001
0000
0001
1000
0000
0001
0000
0010
0000
,  // measure 40
0001
0100
0000
0100
0010
0000
0010
1000
0000
1000
0001
0000
1000
0000
0001
0000
,  // measure 41
0100
0010
0100
0010
0000
0000
1000
0001
1000
0001
0000
0000
1010
0000
0000
0000
,  // measure 42
0002
0000
0103
0010
0000
0010
1000
0000
0002
0000
0010
0000
0100
0000
1003
0000
,  // measure 43
0200
0000
0310
1000
0000
1000
0001
0000
2000
0000
0100
0000
0010
0000
3001
0000
,  // measure 44
1000
0000
0100
1000
0000
0100
1000
0000
0001
0000
0100
0001
0000
0100
0001
0000
,  // measure 45
1000
0000
0010
1000
0000
0010
1000
0000
0001
0000
0010
0001
0000
0010
0001
0000
,  // measure 46
1000
0000
0100
0010
0001
0000
1000
0000
0100
0000
1000
0000
0001
0000
0100
0000
,  // measure 47
0001
0000
0100
0010
1000
0000
0010
0000
0100
0000
0001
0000
1000
0000
0100
0000
,  // measure 48
0010
0000
0100
1000
0000
1000
0001
0000
0100
0000
0001
0010
0000
0010
0001
0000
,  // measure 49
1000
0000
0001
0000
0100
0000
0010
0000
1000
0001
1000
0001
1000
0000
0001
0000
,  // measure 50
2000
0000
3100
0010
0000
0100
2000
0000
0010
0000
0100
0000
0001
0000
3100
0000
,  // measure 51
0002
0000
0103
0010
0000
0100
0001
0000
0200
0000
0010
0000
1000
0000
0301
0000
,  // measure 52
0010
0000
1000
0100
0000
0000
0001
0000
0100
0000
1000
0010
0000
0000
0001
0000
,  // measure 53
0010
0000
1000
0001
0000
0000
1000
0000
0100
0000
0010
0000
0001
1000
0100
0000
,  // measure 54
1001
0000
0010
0100
0000
0100
0010
0000
2000
0000
0001
0000
0100
0000
3001
0000
,  // measure 55
0100
0000
0010
1000
0000
1000
0001
0000
0020
0000
0001
0000
0100
0000
1030
0000
,  // measure 56
0100
0000
0010
0100
0000
0000
1000
0000
0001
0000
0100
0010
0000
0000
0100
0000
,  // measure 57
0001
0000
1000
0001
0000
0000
0100
0000
0010
1000
0001
1000
0001
0000
1000
0000
,  // measure 58
0011
0000
0100
1000
0000
0000
0100
0000
0011
0000
0100
1000
0000
0000
0100
0000
,  // measure 59
0011
0000
0100
1000
0000
0000
0100
0000
0010
0000
0100
1000
0000
1000
0001
0000
,  // measure 60
1010
0000
0100
0001
0000
0000
0100
0000
1010
0000
0100
0001
0000
0000
0100
0000
,  // measure 61
1010
0000
0100
0001
0000
0000
0100
0000
0001
1000
0100
0000
1000
0001
0010
0000
,  // measure 62
1001
0000
0010
0100
0000
0000
0100
0000
1001
0000
0010
0100
0000
0000
0100
0000
,  // measure 63
1001
0000
0010
0100
0000
0000
0100
0000
0001
0000
1000
0010
0000
1000
0001
0000
,  // measure 64
0011
0000
0100
1000
0000
1000
0010
0000
0011
0000
0100
1000
0000
1000
0010
0000
,  // measure 65
1010
0000
0100
0001
0000
0001
0010
0000
0100
1000
0001
0000
1000
0010
0100
0001
;
