#TITLE:under control;
#ARTIST:Kevin Vecchione;
#BANNER:under control.png;
#BACKGROUND:under control-bg.png;
#JACKET:under control-jacket.png;
#CDTITLE:./CDTITLES/GUITAR FREAKS & DRUMMANIA.PNG;
#MUSIC:under control.ogg;
#SAMPLESTART:49.143;
#SAMPLELENGTH:15;
#BPMS:0=210,204=105,212=210,273=105,275=210;
#STOPS:245=0.28571428571428571428571428571429
,252=0.28571428571428571428571428571429
,273=0.28571428571428571428571428571429
;
#BGCHANGES:4=under control.avi=1=0=0=1=====;

//---------------dance-single - t7r----------------
#NOTES:
     dance-single:
     t7r:
     Beginner:
     5:
     :
0000
0000
0000
0000
,
0000
0000
0000
0000
,
0000
0000
0000
0000
,
0010
0000
0000
0000
,
0000
0000
0000
0000
,
0000
0000
0000
0000
,
0000
0000
0000
0000
,
0000
0000
0000
0000
,
0000
0000
0000
0000
,
1000
0000
0001
0000
,
1000
0000
0010
0000
,
0100
0100
0100
0000
,
0100
0100
0100
0000
,
0100
0100
0100
0000
,
0100
0100
0100
0000
,
0001
0001
0001
0000
,
0001
0001
0001
0000
,
0001
0001
0001
0000
,
0001
0001
0001
0001
,
0001
0000
0000
0000
,
1000
0000
0000
0000
,
0001
0000
0000
0000
,
1000
0000
0000
0000
,
0100
0000
0000
0000
,
1000
0000
0000
0000
,
0010
0000
0000
0000
,
0100
0000
0000
0000
,
0000
0001
0000
0001
,
0000
0001
0000
0001
,
0000
1000
0000
1000
,
0000
1000
0000
1000
,
0000
0010
0000
0010
,
0000
0010
0000
0010
,
0000
0100
0000
0100
,
0000
0100
0000
0100
,
0100
0000
0000
0000
,
0000
0000
0000
0000
,
0010
0000
0000
0000
,
0000
0000
0000
0000
,
1000
0000
1000
0000
,
1000
0000
1000
0000
,
0001
0000
0000
0000
,
1000
0000
0000
0000
,
0000
0001
0000
0001
,
0000
0001
0000
0001
,
0000
1000
0000
1000
,
0000
1000
0000
1000
,
0000
0010
0000
0010
,
0000
0010
0000
0010
,
0010
0000
0100
0000
,
0001
0000
1000
0000
,
1000
0000
0001
0000
,
1000
0000
0100
0100
,
0000
0010
0000
0010
,
0000
0001
0000
0001
,
0000
1000
0000
1000
,
0000
0010
0000
0010
,
0010
0000
0000
0000
,
0100
0000
0000
0000
,
0001
0000
0000
0000
,
1000
0000
0000
0000
,
1001
0000
0000
0000
,
0000
0000
0000
0000
,
0000
0000
0000
0000
,
0000
0000
0100
0000
,
0010
0000
1000
0000
,
0001
0000
1000
0000
,
0100
0000
0010
0000
,
0000
0001
0000
0000
,
1000
0000
0001
0000
,
0100
0000
0010
0000
,
1000
0000
0001
0001
,
0000
1000
0000
0000
,
0001
0000
0010
0000
,
0100
0000
0010
0010
,
0000
0001
0000
1000
,
0000
0100
0000
1001
;

//---------------dance-single - t7r----------------
#NOTES:
     dance-single:
     t7r:
     Easy:
     9:
     :
0000
0000
0000
0000
,
0000
0000
0000
0000
,
0000
0000
0000
0000
,
1001
0000
0000
0000
0000
0101
0000
0000
,
1010
0000
0000
0110
0000
0110
0000
0000
,
1001
0000
0000
0000
0000
0011
0000
0000
,
0110
0000
0000
1100
0000
1100
0000
0000
,
1001
0000
0000
0000
0000
0110
0000
0000
,
1001
0000
0000
0101
0000
0101
0000
0000
,
2020
3030
2002
3003
,
2200
3300
2002
3003
,
0001
1000
1000
1000
,
0001
0100
0100
0100
,
0010
1000
1000
1000
,
0010
0110
0001
1001
,
1100
1000
1000
1000
,
1001
0001
0001
0001
,
0110
0010
0010
0010
,
0100
0010
1000
0001
,
1001
1000
0000
1000
,
0001
1000
0000
1000
,
0001
0100
0000
0100
,
0001
0010
0100
0010
,
1001
0010
0000
0010
,
0100
0010
0000
1000
,
0100
1000
0000
0001
,
0010
0100
0010
1001
,
0101
1000
0000
1000
,
0010
1000
0000
0001
,
0100
0001
0000
1000
,
0010
0100
0000
1001
,
1010
0001
0000
1000
,
0100
0001
0000
0001
,
0100
1000
0000
1000
,
0010
0100
0001
1000
,
2001
0001
0001
0001
,
0001
0001
0001
0001
,
0100
0100
0100
0100
,
0010
0010
0010
3010
,
1002
1000
1000
1000
,
1000
1000
1000
1000
,
0100
0100
0100
0100
,
0010
0010
0010
1003
,
0001
1000
0001
1000
,
0010
0100
0010
0100
,
0010
1000
0001
0100
,
0001
0010
0100
1100
,
0011
0001
1000
0010
,
0100
0001
1000
0001
,
2002
3003
0220
0330
,
2002
3003
0010
0100
,
2002
0000
0000
3003
2200
0000
0000
3300
,
0022
0000
0000
0033
0001
1000
1001
1001
,
0110
0010
1000
0010
,
0100
0001
0100
0001
,
1000
0001
0010
0100
,
2000
0000
0000
3000
,
0001
0200
0000
0300
,
0001
1000
0001
1000
,
0010
0100
0001
1000
,
0010
0100
0001
1000
,
1100
0000
0000
1100
0000
0000
1001
0000
,
0000
0011
0000
0101
0000
0000
1001
0000
,
0000
0110
0000
0000
1001
0000
0000
0110
,
0000
0101
0000
0000
1100
0000
0010
0000
,
1001
1000
0100
1000
,
1001
0001
0101
0010
,
1001
0001
0100
0001
,
1001
0000
0220
0330
0020
0000
1030
0000
,
1000
0001
0001
1000
,
1000
0001
0001
1000
,
1000
0001
0001
1001
,
1001
1001
0010
0001
,
0001
1000
1000
0010
,
0010
0100
0100
0220
,
0330
2002
3003
0220
,
0330
2002
3003
2002
,
0000
0000
0000
0000
,
0000
0000
3003
0000
;

//---------------dance-single - t7r----------------
#NOTES:
     dance-single:
     t7r:
     Medium:
     13:
     :
0000
0000
0000
0000
,
0000
0000
0000
0000
,
0000
0000
0000
0000
,
1000
0001
0100
0000
0000
0101
0000
0010
,
1010
0000
0000
1100
0000
0011
0000
0000
,
0001
1000
0100
0000
0000
1010
0000
0100
,
0110
0000
0000
0011
0000
1001
0000
0000
,
1000
0001
0100
0000
0000
0110
0000
0001
,
1001
0000
0000
0101
0000
1001
0000
0000
,
0220
0330
2020
3030
,
2002
0000
3003
0000
0010
0100
0001
0100
,
0001
1001
1001
1001
,
1000
0000
1001
0000
1000
0001
1000
0000
,
0001
1001
1001
1001
,
1000
0100
0010
0000
0001
0010
0100
0000
,
0010
1010
1010
1010
,
0101
0000
1010
0000
1000
0010
0100
0000
,
0101
1001
1001
1001
,
0001
1000
0001
0100
0001
0010
0100
1000
,
0100
0010
0001
0010
0000
0001
0010
0000
,
0001
0010
0100
1000
0000
0100
1000
0000
,
0010
1000
0001
0100
0000
0001
1000
0000
,
0001
0100
0001
0100
0010
1000
0010
1000
,
0001
0010
0100
1000
0000
0100
1000
0000
,
1000
0100
0010
0001
0000
0100
0001
0000
,
0001
0100
0001
1000
0000
1000
0100
0000
,
1000
0010
0100
0001
1000
0001
1001
0000
,
0010
0100
0001
0100
0000
0001
0100
0000
,
0010
1000
0010
0100
0000
0010
1000
0000
,
1000
0100
0010
0001
0000
0010
0100
0000
,
1000
0100
1000
0001
0000
0001
0100
0000
,
1001
0001
1000
0001
0000
0100
0001
0000
,
1000
0010
1000
0100
0000
1000
0001
0000
,
0100
0001
1000
0001
0000
0010
0001
0000
,
1000
0100
0010
0100
1000
0000
1100
0000
,
0011
0100
0100
0100
,
0110
1001
1001
1001
,
1100
1001
1001
1001
,
0001
0101
1010
0101
,
0010
0110
0110
0110
,
0110
0000
0110
0000
0010
0100
0010
0100
,
1010
1001
1100
1001
,
1000
0100
1000
0100
0010
0001
0010
0001
,
1000
0001
0100
0000
0001
0100
0010
0000
,
1000
0010
1000
0000
0001
0100
0001
0000
,
1000
0100
0010
0000
0001
0010
0100
0000
,
1000
0100
1000
0001
0100
0001
0100
0000
,
0001
1000
0100
0000
1000
0001
1000
0000
,
0001
1000
0100
1000
0010
1000
0001
0000
,
1000
0100
1000
0000
0001
0100
0001
0000
,
1010
0101
1001
0110
,
2002
0000
0000
3003
0220
0000
0000
0330
,
2200
0000
0000
0000
0000
0000
3300
0000
1001
0000
1001
0000
0001
1000
0001
1000
,
0001
0100
0001
0100
0000
0010
0100
0000
,
0010
1000
0001
1000
0000
0001
1000
0000
,
1000
0100
0010
0001
0000
0001
0010
0000
,
0001
0010
0001
0100
0001
0010
0100
1000
,
0100
1000
0001
0100
0000
0010
1000
0000
,
0010
1000
0001
0100
0000
0001
1000
0000
,
1000
0100
0010
0001
0000
1000
0100
0000
,
1000
0001
0100
0001
1000
0000
1001
0000
,
0010
0100
0010
1010
0000
0000
0101
0000
,
0000
1001
0000
1001
0000
0000
0001
1000
,
0100
0110
0000
0000
1001
0000
0000
1100
,
0000
1100
0000
0000
0011
0000
1000
0000
,
1001
0000
0001
0000
0100
0010
1000
0000
,
0110
0010
1001
1000
,
1100
0000
1000
0000
0100
0010
0001
0000
,
0011
0000
0000
0000
1200
0000
0000
0000
0310
0001
0010
0001
1000
0000
0100
0000
,
0010
0001
1000
0100
0010
0000
0001
0010
,
0100
1000
0001
0100
0010
0000
1000
0010
,
0100
0001
1000
0100
0010
0000
0001
0010
,
0001
1000
0001
0100
0001
0100
0010
1000
,
0001
0100
0001
1000
0100
0010
0001
0010
,
0100
1000
0100
0001
0100
1000
0010
0001
,
0010
0000
1000
0100
0010
0000
0001
0010
,
1100
0000
1000
0010
0101
0000
2002
0000
,
0000
0000
0000
0000
,
0000
0000
3003
0000
;

//---------------dance-single - t7r----------------
#NOTES:
     dance-single:
     t7r:
     Hard:
     16:
     :
0000
0000
0000
0000
,
0000
0000
0000
0000
,
0000
0000
0000
0000
,
0001
0100
0001
0100
0001
0000
0000
0000
0000
0000
1100
0000
0000
0000
0010
0000
,
0011
0000
0000
1001
0000
0101
0000
0000
,
0010
1000
0010
1000
0010
0000
0000
0000
0000
0000
0101
0000
0000
0000
0010
0000
,
1010
0000
0000
1001
0000
1100
0000
0000
,
0010
0001
0010
0001
0010
0000
0000
0000
0000
0000
1001
0000
0000
0000
0010
0000
,
0110
0000
0000
0101
0000
1010
0000
0000
,
2002
3003
0220
0330
,
0202
0303
2200
3300
,
0011
1100
1100
1100
,
0101
0000
1100
0000
0001
0100
0101
0000
,
1010
0101
0101
0101
,
1000
0100
0110
0000
0001
0100
0110
0000
,
1010
0101
0101
0101
,
1001
0000
0110
0000
0001
1000
1001
0000
,
0110
0101
1010
1010
,
0001
0000
0010
0001
0010
0000
0001
0000
1000
0100
1000
0100
1000
0000
0001
0000
,
1000
0000
0010
1000
0010
0000
0200
0000
0000
0000
0301
0000
1000
0000
0000
0000
,
0001
0000
0010
0001
0010
0000
0200
0000
0000
0000
1300
0000
0001
0000
0000
0000
,
1000
0000
0010
0100
0010
0000
2000
0000
0000
0000
3001
0000
0100
0000
0000
0000
,
0001
0000
0100
0000
1010
0000
0000
0000
0001
0000
1000
0001
1000
0000
0001
1000
,
0001
0000
0100
0010
0100
0000
0002
0000
0000
0000
1003
0000
0010
0000
0000
0000
,
1000
0000
0100
0010
0100
0000
2000
0000
0000
0000
3001
0000
0010
0000
0000
0000
,
0001
0000
0100
0010
0100
0000
0020
0000
0000
0000
1030
0000
0001
0000
0000
0000
,
1000
0100
0110
0010
0011
0000
1001
0000
,
0001
0000
0100
0001
0100
0000
0001
0000
0010
0000
0001
0000
1000
0000
0100
0000
,
1000
0000
0010
1000
0010
0000
1000
0000
0001
0000
0100
0000
0001
0000
0010
0000
,
0001
0000
0100
0010
0100
0000
0010
0000
1000
0000
0100
0000
0010
0000
0001
0000
,
1000
0000
0010
0100
0010
0000
1000
0000
0001
0000
0100
0000
1010
0000
0000
0000
,
1001
0000
0100
0010
0100
0000
1000
0000
0100
0000
0001
0000
0100
0000
0010
0000
,
0001
0000
0100
0010
0100
0000
0001
0000
0100
0000
1000
0000
0100
0000
0010
0000
,
1000
0000
0010
0100
0010
0000
1000
0000
0010
0000
0001
0000
0010
0000
0100
0000
,
0010
1000
0100
0001
0100
1000
0011
0000
,
1001
1001
1001
1001
,
0110
0110
0110
0110
,
0101
0101
0101
0101
,
1100
1100
1100
0011
,
1001
0000
1100
0100
0001
0100
1000
0010
,
1010
0000
0101
0100
0001
0100
1000
0100
,
0010
1000
0010
1000
0001
0100
0001
0100
,
0001
0000
0010
0001
0010
0000
0001
1000
0001
1000
0001
1000
0001
1000
0001
0000
,
1000
0000
0100
0010
0001
0000
1000
0000
0100
0000
0010
0000
0100
0000
1000
0000
,
0001
0000
0100
0010
1000
0000
0010
0000
0100
0000
0001
0000
0100
0000
0010
0000
,
1000
0000
0010
1000
0001
0000
0010
0000
0001
0000
1000
0000
0001
0000
0100
0000
,
0001
0000
0010
0001
1000
0000
0001
0000
1000
0100
1000
0100
0010
0001
1000
0000
,
0001
0000
0100
0010
1000
0000
0010
0000
0100
0000
0001
0000
1000
0000
0001
0000
,
1000
0000
0100
0010
0001
0000
1000
0000
0010
0000
0100
0000
0001
0000
1000
0000
,
0010
0000
0000
0000
0100
0001
0100
0001
0010
0000
0000
0000
0100
1000
0100
1000
,
0010
0000
1000
0010
1000
0000
0001
0010
0001
0000
1000
0001
1000
0001
1000
0001
,
2000
0000
0000
0000
0000
0000
0000
0000
0000
0000
0000
0000
0000
0000
3010
0100
0020
0000
0000
0000
0000
0000
0000
0000
0000
0000
0000
0000
0030
0000
0000
0000
,
0220
0000
0000
0000
0000
0000
0000
0000
0000
0000
0000
0000
0330
0000
0000
0000
1001
0000
0000
0000
1001
0000
0000
0000
0001
1000
0001
1000
0001
1000
0001
1000
,
0001
0010
1000
0020
0000
0130
0001
0100
,
1000
0010
0001
0020
0000
0130
0001
0100
,
1000
0100
0010
1000
0100
0010
0001
1000
,
0002
0010
1000
0103
,
0010
0200
0000
0000
,
0301
0000
0010
0100
1000
0000
0001
1000
0001
0010
0100
1000
0100
0000
1000
0001
,
1000
0010
0100
0001
0100
0000
0001
1000
0001
0000
0010
0100
1000
0000
0100
0010
,
0001
0100
0110
0010
1010
1000
1100
0000
,
0010
0001
0010
0001
0010
0000
1001
0000
0000
0000
0001
0000
0101
0000
0000
0000
,
1000
0000
1001
0000
0000
0000
1010
0000
0000
0000
0000
0000
0100
0010
0100
0010
,
0100
0101
0000
1000
1100
0000
0001
0011
,
0000
0000
1001
0000
0000
0000
0000
0000
0010
1000
0001
1000
0010
0000
0000
0000
,
1000
0000
0001
0100
0010
1000
0100
0000
,
1000
0000
0100
0000
0010
0000
0001
0000
0100
0001
1000
0001
0010
0000
0000
0000
,
0001
0100
0010
1000
0001
0010
0001
0100
,
1010
0000
0000
0000
0000
0000
0000
0000
0102
0000
0000
0000
0000
0000
0000
0000
1003
0100
1000
0100
0010
0001
0010
0001
1000
0000
0000
0000
0100
0000
0000
0000
,
1000
0000
0010
0000
0001
0000
0010
0000
1000
0100
1000
0000
0001
0000
0100
0000
,
0001
0000
0010
0000
1000
0000
0010
0000
0001
0100
0001
0000
1000
0000
0010
0000
,
1000
0000
0100
0000
0001
0000
0100
0000
1000
0010
1000
0000
0001
0100
0010
0000
,
1000
0100
0010
0000
0001
0010
0100
0000
1000
0010
0100
0010
1000
0000
0001
0100
,
0001
0000
0010
0001
0010
0000
0001
1000
0001
0000
1000
0001
1000
0000
0100
1000
,
0100
0000
1000
0001
1000
0000
0010
1000
0010
0000
1000
0001
2000
0000
0000
0000
,
3100
0010
0001
0010
0200
0000
0000
0000
1300
0001
0010
0001
2000
0000
0000
0000
,
3010
0100
0001
0100
0020
0000
0000
0000
1030
0001
1000
0001
2000
0000
0000
0000
,
0000
0000
0000
0000
,
0000
0000
3000
0000
;

//---------------dance-single - t7r----------------
#NOTES:
     dance-single:
     t7r:
     Challenge:
     18:
     :
0000
0000
0000
0000
,
0000
0000
0000
0000
,
0000
0000
0000
0000
,
0001
0010
0100
1000
0001
0000
0000
0000
0000
0000
1001
0000
0000
0000
0101
0000
,
1100
0000
1010
0011
0000
1001
0000
0000
,
1000
0100
0010
0001
1000
0000
0000
0000
0000
0000
0110
0000
0000
0000
0101
0000
,
1100
0000
1010
0011
0000
1001
0000
0000
,
0010
0100
0001
1000
0010
0000
0000
0000
0000
0000
0110
0000
0000
0000
1001
0000
,
1100
0000
0011
1001
0000
0110
0000
0000
,
1010
MMMM
0011
MMMM
,
1001
0000
0000
0000
MMMM
0000
0000
0000
0010
1000
0010
1000
0001
0100
0010
1000
,
0001
0010
0100
0010
0001
0100
1010
0000
,
1000
0010
0100
0010
1000
0110
0011
0000
,
0001
0100
0010
0100
0001
1000
0011
0000
,
1001
1001
1001
0000
0110
0110
0110
0000
,
1000
0010
0100
0010
1000
0100
0011
0000
,
0001
0100
0010
0100
0001
0110
1100
0000
,
1000
0100
0001
0100
1000
0001
1001
0000
,
0010
1000
0010
1000
0001
0100
0001
0010
0001
0100
0001
0100
0010
1000
0001
1000
,
0010
0000
1000
0100
1000
0000
0001
0010
0100
0000
0010
0000
0001
0000
1000
0000
,
0010
0000
0100
0001
0100
0000
0001
1000
0010
0000
1000
0000
0100
0000
0010
0000
,
0100
0000
1000
0100
1000
0000
0001
1000
0010
0000
0100
0000
0001
0000
1000
0000
,
0001
0000
0100
0000
1010
0000
0000
0000
0001
0010
0001
0100
0010
1000
0001
1000
,
0010
0000
1000
0100
1000
0000
0001
0100
0010
0000
1000
0000
0010
0000
0100
0000
,
0001
0000
0010
0001
0010
0000
0001
1000
0010
0000
0100
0000
0001
0000
1000
0000
,
0100
0000
1000
0010
1000
0000
0010
0100
0001
0000
1000
0000
0010
0000
1000
0000
,
1100
0100
0110
0110
0011
0100
1010
0000
,
0001
0000
0100
1000
0100
0000
0010
0000
1000
0000
0100
0000
0001
0000
0100
0000
,
1000
0000
0010
0001
0010
0000
0100
0000
0001
0000
0010
0000
1000
0000
0010
0000
,
0001
0000
0100
1000
0100
0000
0010
0000
0100
0000
0001
0000
1000
0000
0001
0000
,
0010
0000
0001
0100
0001
0000
1000
0000
0100
0000
0010
0000
0011
0000
0000
0000
,
1000
0000
0100
0001
0100
0000
0010
0000
0001
0000
0010
0000
1000
0000
0010
0000
,
0001
0000
0100
1000
0100
0000
0010
0000
1000
0000
0010
0000
0001
0000
0010
0000
,
1000
0000
0100
0010
0001
0000
0010
0000
1000
0000
0010
0000
0100
0000
1000
0000
,
0001
0000
0100
0010
1000
0000
0010
0000
0100
0000
0001
0000
1001
0000
0000
0000
,
0011
0000
0001
0100
0010
0000
1000
0100
0010
0000
0001
0100
0010
0000
1000
0100
,
0010
0000
0001
0100
0010
0000
1000
0100
0010
0000
0001
0100
0010
0000
1000
0001
,
0100
0000
0001
1000
0100
0000
1000
0001
0100
0000
0001
1000
0100
0000
1000
0001
,
0010
0000
0001
1000
0010
0000
1000
0001
0010
0000
0001
1000
0010
0000
1000
0001
,
1000
MMMM
0101
MMMM
1100
MMMM
0011
MMMM
,
1010
MMMM
0110
MMMM
1001
MMMM
0101
1010
,
1001
0100
0001
0100
1000
0010
0001
0010
,
1000
0100
1000
0100
0010
0001
0010
0001
1000
0010
0100
0001
1000
0100
0010
0001
,
1000
0000
0100
1000
0010
0000
0100
0001
0010
0001
0100
0000
0001
0010
0100
0000
,
1000
0000
0010
0100
0001
0000
0100
0010
1000
0010
0100
0000
0001
1000
0010
0000
,
0100
0000
0001
0010
0100
0000
0010
0001
1000
0001
0010
0000
0001
0100
0010
0000
,
1000
0000
0100
1000
0010
0000
0100
0001
1000
0100
1000
0100
0010
0001
0010
0001
,
1000
0000
0010
1000
0100
0000
0010
0001
0100
0001
1000
0000
0001
0100
0010
0000
,
0100
0000
0001
0010
0100
0000
0010
0001
1000
0001
0010
0000
0001
1000
0100
0000
,
1000
0000
0100
0000
0001
0100
0010
0001
1000
0000
0001
0000
1000
0010
0100
1000
,
0100
0000
0001
1000
0001
0010
0001
0010
0100
1000
0100
1000
0001
0100
0010
1000
,
0002
0000
0000
0000
0000
0000
0000
0000
0000
0000
0000
0000
0000
0000
1003
0100
0020
0000
0000
0000
0000
0000
0000
0000
0000
0000
0000
0000
0030
0000
0000
0000
,
2002
0000
0000
0000
0000
0000
0000
0000
0000
0000
0000
0000
3003
0000
0000
0000
0110
0000
0010
1000
0100
0000
0010
0001
1000
0001
1000
0001
1000
0100
0010
0001
,
1000
0000
0100
0010
0001
0000
0010
0100
1000
0000
0001
0000
0100
0000
0010
0000
,
1000
0000
0010
0100
0001
0000
0100
0010
1000
0000
0001
0000
0010
0000
0100
0000
,
0010
0000
0001
0100
0010
0000
1000
0010
0100
0000
0010
0000
1000
0000
0001
0000
,
2000
0100
3001
MMMM
,
0010
0210
0301
MMMM
,
0001
0010
0001
0010
0100
1000
0001
0100
0001
0010
0001
0010
0100
1000
0001
0100
,
0001
0010
0001
0010
1000
0010
0001
1000
0001
0100
0001
0100
1000
0100
0001
1000
,
0001
0010
0110
0100
1100
1001
0110
0000
,
0010
1000
0001
1000
0010
0000
1001
0000
0000
0000
MMMM
0000
0110
0000
0000
0000
,
MMMM
0000
1010
0000
0000
0000
0101
0000
0000
0000
MMMM
0000
0001
1000
0100
1000
,
0001
1001
0000
MMMM
0110
0000
MMMM
1100
,
0000
0000
0101
0000
0000
0000
MMMM
0000
0010
1000
0100
1000
0010
0000
1000
0000
,
0001
0000
0100
0000
1000
0000
0100
0000
0010
0000
1000
0000
1010
0000
0100
0010
,
0001
0000
1000
0000
1001
0000
0001
0000
0100
0001
0010
0001
0100
0000
0001
0000
,
1000
0000
0010
0000
0001
0000
0010
0000
0100
0000
0001
0000
0101
0000
0010
0100
,
1000
0000
0000
0000
0001
0000
0000
0000
1002
0000
0000
0000
0000
0000
0000
0000
1003
0010
1000
0010
0100
0001
1000
0010
1000
0000
0100
0000
1000
0000
0100
0000
,
1000
0000
0001
0100
0001
0010
0100
0000
0010
0001
1000
0000
0001
0100
0001
0100
,
0001
0000
1000
0010
1000
0100
0010
0000
0100
1000
0001
0000
1000
0010
1000
0010
,
1000
0000
0001
0100
0001
0010
0100
0000
0010
0001
1000
0000
0001
1000
0100
0000
,
1000
0001
0100
0000
0001
1000
0010
0000
1000
0100
0010
0001
1000
0100
0001
0100
,
1000
0000
0001
0010
1000
0010
0001
0000
1000
0010
0100
0000
0001
0010
1000
0010
,
0001
0000
1000
0100
0001
0100
1000
0000
0010
0100
0001
0000
1000
0010
1000
0010
,
1000
0100
0001
0100
1000
0001
1000
0001
1000
0010
0001
0010
1000
0100
1000
0100
,
0001
0100
1000
0100
0010
0001
0010
0001
1000
0010
0001
0010
1000
0000
0000
0000
,
MMMM
0000
MMMM
0000
,
MMMM
0000
MMMM
0000
;
