#TITLE:tomorrow;
#ARTIST:THE LOCAL ART;
#BANNER:tomorrow.png;
#BACKGROUND:tomorrow-bg.png;
#JACKET:tomorrow-jacket.png;
#CDTITLE:./CDTITLES/NONE.PNG;
#MUSIC:tomorrow.ogg;
#OFFSET:-1.321;
#SAMPLESTART:75.000;
#SAMPLELENGTH:15;
#BPMS:0=180;
#BGCHANGES:-4=tomorrow.avi=1=0=0=1=====;

//---------------dance-single - t7r----------------
#NOTES:
     dance-single:
     t7r:
     Beginner:
     3:
     :
0000
0000
0000
0000
,
0000
0000
0000
0000
,
0000
0000
0000
0000
,
0000
0000
0000
0000
,
0010
0000
0000
0000
,
0010
0000
0000
0000
,
0100
0000
0100
0000
,
0100
0000
0000
0000
,
0010
0000
1000
0000
,
0001
0000
0000
0000
,
1000
0000
0001
0000
,
0100
0000
0000
0000
,
0001
0000
0100
0000
,
0001
0000
0000
0000
,
1000
0000
0100
0000
,
1000
0000
0000
0000
,
0010
0000
0100
0000
,
0001
0000
0000
0000
,
0001
0000
0100
0000
,
1000
0000
0000
0000
,
1000
0000
0100
0000
,
0001
0000
0000
0000
,
1000
0000
0001
0000
,
1000
0000
0000
0000
,
0000
0001
0000
0001
,
0000
0001
0000
0001
,
0000
1000
0000
1000
,
0000
1000
0000
1000
,
0000
0010
0000
0010
,
0000
0010
0000
0010
,
0000
0100
0000
0100
,
0000
0100
0000
0100
,
0000
0010
0000
0000
,
0000
0000
0000
0000
,
0000
0100
0000
0000
,
0000
0000
0000
0000
,
0000
0001
0000
0000
,
0000
0000
0000
0000
,
0000
1000
0000
0000
,
1000
0000
1000
1000
,
1000
0000
0000
0000
,
0001
0000
0001
0000
,
0100
0000
0000
0000
,
0010
0000
0010
0000
,
1000
0000
0000
0000
,
1000
0000
1000
0000
,
0100
0000
0000
0000
,
0010
0000
0100
0000
,
1000
0000
0000
0000
,
0100
0000
0010
0000
,
0001
0000
0000
0000
,
0001
0000
0010
0000
,
0001
0000
0001
0000
,
1000
0000
1000
0000
,
0010
0000
0100
0000
,
0110
0000
0000
0000
,
0000
0100
0000
0100
,
0000
0100
0000
0100
,
0000
0010
0000
0010
,
0000
0010
0000
0010
,
0000
1000
0000
1000
,
0000
1000
0000
1000
,
0000
0001
0000
0001
,
0000
0001
0000
0001
,
0001
0000
0000
0000
,
0100
0000
0001
0000
,
1000
0000
0000
0000
,
1000
0000
0100
0000
,
0010
0000
0000
0000
,
0001
0000
0100
0000
,
0100
0000
0000
0000
,
0010
0000
0100
0000
,
0010
0000
0000
0000
,
1000
0000
1000
0000
,
1000
0000
0000
0000
,
0001
0000
0100
0000
,
0001
0000
0000
0000
,
0001
0000
0001
0000
,
0100
0000
0000
0000
,
0010
0000
0100
0000
,
0001
0000
0000
0000
,
1000
0000
0100
0000
,
1000
0000
0000
0000
,
0100
0000
0100
0000
,
0010
0000
0000
0000
,
0001
0000
0000
0000
,
1000
0000
0000
0000
,
1001
0000
0000
0000
;

//---------------dance-single - t7r----------------
#NOTES:
     dance-single:
     t7r:
     Easy:
     6:
     :
0000
0000
0000
0000
,
0000
0000
0000
0000
,
0000
0000
0000
0000
,
0000
0000
0000
0000
,
0100
0000
0100
0000
,
0100
0000
0100
0000
,
0100
0100
0100
0100
,
0020
0000
0000
0030
,
1000
0000
1000
1000
,
0001
0000
0000
0000
,
0001
0000
0001
0001
,
0100
0000
0000
0000
,
0100
0000
0010
1000
,
0100
0000
0000
0000
,
1000
0000
0001
1000
,
0100
0000
0010
0000
,
1001
0000
0001
0100
,
0001
0000
0100
0000
,
1001
0000
0100
0010
,
1000
0000
0010
0000
,
0110
0000
0010
0100
,
0001
0000
1000
0000
,
0001
0000
1001
0000
,
1000
0000
1001
0000
,
0001
0000
0001
0010
,
0100
0000
0000
0100
,
1000
0000
1000
0010
,
0100
0000
0000
0100
,
0001
0000
0001
1000
,
0100
0000
1000
0010
,
0100
0000
0100
0010
,
0001
0000
0110
0000
,
1010
0000
1000
0100
,
0001
0000
0000
0001
,
0100
0000
0001
0100
,
1000
0000
0000
0010
,
0100
0000
0010
1000
,
0001
0000
1000
0001
,
0100
0000
0001
0100
,
1000
0100
0001
0100
,
1000
0000
0000
0100
,
0100
0100
0010
1000
,
0100
0000
0000
0010
,
0010
0010
0001
0100
,
0001
0000
0000
0001
,
0001
0001
1000
0001
,
1000
0100
0000
0100
,
0100
1000
0010
0100
,
1001
0000
0001
1000
,
1000
0001
1000
0001
,
0100
0000
1000
0001
,
0010
0010
0100
0010
,
1001
0000
0000
0001
,
0100
0001
1000
0010
,
0100
0000
0100
0000
,
0220
0000
0000
0330
,
1001
0000
0000
1000
,
0001
0100
0001
1000
,
0001
0000
0000
0001
,
1000
0100
1000
0001
,
1000
0000
0000
1000
,
0010
0100
0010
1000
,
0001
0000
0000
1000
,
0100
0010
0001
0100
,
0001
0000
0001
0000
,
1000
1000
0001
0001
,
1001
0000
1000
0000
,
0001
0001
0100
0100
,
0101
0000
0010
0000
,
1000
0000
0010
0000
,
0100
0100
0010
0010
,
1000
0100
0010
0001
,
1000
0000
1000
0000
,
0001
0000
0001
0000
,
0100
0000
0100
0000
,
0010
0000
0010
1000
,
0001
0000
0001
0000
,
1000
0000
0100
0010
,
0001
0000
0001
0010
,
0100
0000
1000
0100
,
1000
1000
0001
0100
,
0001
0000
0001
0000
,
0001
0001
1000
0100
,
1000
0000
1000
0000
,
0010
0010
0010
0010
,
0100
0100
0010
0100
,
1001
0100
0100
0100
,
2002
0000
0000
3003
;

//---------------dance-single - t7r----------------
#NOTES:
     dance-single:
     t7r:
     Medium:
     8:
     :
0000
0000
0000
0000
,
0000
0000
0000
0000
,
0000
0000
0000
0000
,
0000
0000
0000
0000
,
0001
0010
0100
1000
,
0001
0010
0100
1000
,
0001
0010
0001
0100
,
0010
1000
0001
1001
,
2000
0000
0000
3100
0000
0000
0010
0000
,
0001
0100
0010
0100
,
0002
0000
0000
0103
0000
0000
0010
0000
,
1000
0002
0000
0000
0000
0000
1003
0000
,
0020
0000
0000
0130
0000
0000
0010
0000
,
1000
0100
0001
0100
,
2000
0000
0000
3010
0000
0000
0100
0000
,
0010
1000
0001
0100
,
0002
0000
0000
0103
0000
0000
0001
0000
,
0010
0001
0100
0010
,
2000
0000
0000
3001
0000
0000
1000
0000
,
0100
2000
0000
0000
0000
0000
3001
0000
,
0200
0000
0000
0301
0000
0000
0010
0000
,
0100
0010
0001
1000
,
1001
0010
1001
0100
,
1000
0100
0001
0100
,
1000
0010
0100
0001
,
0100
0000
0010
0000
0000
1000
0100
0000
,
1000
0010
0100
0001
,
1000
0000
0100
0000
0000
0010
0001
0000
,
0010
0001
0100
0010
,
1000
0100
0001
0100
,
1000
0010
0001
0010
,
1010
0000
0101
0000
,
1001
0001
0010
0100
,
1000
0000
0100
0000
0000
0010
0100
0000
,
1000
0001
0100
0001
,
1000
0000
0010
0000
0000
0100
0010
0000
,
1000
0010
0001
0010
,
1000
0100
0001
0100
,
1000
0001
0100
0010
,
1000
0010
0001
0100
,
2002
0000
3003
0001
,
0010
0100
1000
1100
,
0202
0000
0303
0001
,
0010
1000
0010
0011
,
2200
0000
3300
1000
,
0010
0100
0010
1000
,
0001
2002
3003
1000
,
0001
0000
0100
0000
0001
0001
0100
0000
,
1001
0001
1000
0001
,
1000
0000
0100
0000
0010
0001
0100
0000
,
0101
0001
0100
0010
,
1000
0000
0100
0000
1000
0001
1000
0000
,
1001
0010
0100
0010
,
1000
0010
0100
0001
,
2000
0000
0000
0001
0000
0000
3001
0000
,
0001
0001
0000
0000
0000
0000
0000
0000
,
1000
0000
0001
0000
0000
0100
0001
0000
,
1000
0000
0010
0000
0000
0100
0010
0000
,
1000
0000
0100
0000
0000
0010
0100
0000
,
1000
0000
0100
0000
1000
0001
0100
0000
,
0001
0000
0100
0000
0000
0010
1000
0000
,
0010
0000
0100
0000
0000
0010
0100
0000
,
0010
0000
1000
0000
0000
0100
0001
0000
,
0100
1000
0010
0110
,
1001
0001
0100
0001
,
1000
0010
0001
0100
,
0001
0010
1000
0100
,
1000
0010
0001
0100
,
1001
0010
0100
0010
,
1001
0000
0000
0110
0000
0000
1001
0000
,
0001
0000
0100
0000
0001
1000
0100
0000
,
1000
0100
0010
0100
,
1000
0000
0100
0000
0000
1000
0100
0000
,
1000
0000
0001
0000
0000
0100
0001
0000
,
1000
0000
0010
0000
0000
0100
0010
0000
,
1000
0000
0010
0000
0000
0001
0100
0000
,
0001
0000
0010
0000
0000
1000
0100
0000
,
1000
0000
0010
0000
0000
1000
0100
0000
,
1000
0010
0100
0001
,
1000
0000
0100
0000
1000
0100
0001
0000
,
0100
0000
1000
0000
0000
0010
0001
0000
,
0010
0000
1000
0000
0000
0100
0001
0000
,
0100
0000
1000
0000
0000
0001
0100
0000
,
0001
0000
1000
0000
0001
0100
0001
1000
,
0200
0010
0010
0310
,
2000
0001
0001
3001
,
1001
0100
0100
0100
,
2002
0000
0000
3003
;

//---------------dance-single - t7r----------------
#NOTES:
     dance-single:
     t7r:
     Hard:
     10:
     :
0000
0000
0000
0000
,
0000
0000
0000
0000
,
0000
0000
0000
0000
,
0000
0000
0000
0000
,
0010
1000
0100
0001
,
0100
1000
0010
0001
,
0010
1000
0100
0000
0010
0001
0100
0000
,
0001
0010
0100
1000
0001
0000
1001
0000
,
0001
0000
0100
0001
0000
0000
1000
0000
,
0010
1000
0100
1000
,
0010
0000
0100
0001
0000
0000
1000
0000
,
0001
0010
0100
1000
,
0100
0000
0010
0001
0000
0000
0100
0000
,
0001
1000
0010
0100
,
0010
0000
1000
0100
0000
0000
0010
0000
,
0001
1000
0010
0100
,
1001
0000
0001
0100
0000
0001
1000
0000
,
0001
0010
0001
0100
,
0010
0000
1000
0010
0000
0100
0001
0000
,
1000
0100
0010
0001
,
0100
0000
0010
0100
0000
0001
1000
0000
,
0001
0010
1000
0100
,
1000
0000
0010
1000
0001
0000
0100
0001
,
0010
0000
0001
0100
1000
0000
1001
0000
,
1000
0000
0001
0100
0000
0001
0010
0000
,
0100
0000
0010
0000
0001
0100
0001
0000
,
1000
0000
0010
1000
0000
0001
1000
0000
,
0001
0100
0000
0001
0010
0000
0100
0000
,
1000
0000
0100
1000
0000
0010
1000
0000
,
0010
0000
0100
0001
0000
1000
0001
0000
,
1000
0000
0001
0100
0000
0001
0010
0000
,
0100
0000
0010
0000
0001
0010
0100
1000
,
0001
0000
1000
0010
0000
0100
0010
0000
,
1001
0000
0100
0000
0010
0001
0100
0000
,
0001
0000
0100
0001
0000
1000
0010
0000
,
1010
0000
0100
0000
0010
1000
0100
0001
,
0100
0000
1000
0010
0000
0001
0010
0000
,
1000
0000
0100
0001
0000
0100
1000
0000
,
0010
0001
0010
1000
,
0100
0010
0001
1000
0001
0100
0010
1000
,
0001
1000
1001
0001
,
0100
0001
1000
0000
0001
0000
0010
0000
,
0110
0010
0001
1000
,
0010
1000
0100
0000
1000
0000
0100
0000
,
0110
0010
0001
1000
,
0010
0100
0001
0000
1000
0000
0001
0000
,
1001
0010
0100
0010
,
1000
0010
0100
0000
0001
0100
1000
0000
,
1001
0001
0010
0100
,
1000
0000
0100
0000
0010
0001
0100
0000
,
0101
0001
0010
0100
,
1000
0000
0100
1000
0010
0000
1000
0000
,
0001
0000
1000
0100
0001
0000
0001
0100
,
1000
0000
1000
0010
0001
0010
0000
1000
,
0200
0000
0000
0010
0000
0000
0310
0000
,
0110
0110
0000
0000
0000
0000
0000
0000
,
1001
0000
0001
0000
0100
0001
1000
0000
,
0001
0000
0010
0000
0100
0010
0001
0000
,
0010
0000
0100
0000
1000
0100
1000
0000
,
0001
0000
1000
0000
0010
1000
0100
0000
,
1000
0000
0010
0000
0100
0001
1000
0000
,
0001
0000
0010
0000
0001
0100
0001
0000
,
1000
0000
0010
0000
0100
0001
1000
0000
,
0001
1000
1001
1001
,
0110
0000
0010
0100
0001
0000
1000
0100
,
1000
0000
0001
0100
0001
0000
0010
0000
,
0011
0000
0001
0010
1000
0000
1000
0010
,
0001
1000
0010
0100
,
1010
0000
0010
0100
0001
0000
1000
0000
,
1001
0000
0000
1001
0000
0000
0110
0000
,
0010
0000
1000
0000
0100
0010
0001
0000
,
0020
0000
0130
2000
0000
0000
3001
0000
,
0100
0000
0001
0000
0100
0001
0100
0000
,
0010
0000
1000
0000
0001
1000
0001
0000
,
1000
0000
0100
0000
0010
0001
0010
0000
,
0100
0000
0010
0000
0001
0100
1000
0000
,
0100
0000
0001
0000
0010
0001
1000
0000
,
0001
0000
0100
0000
0010
0100
0010
2000
,
0000
0001
0001
3001
,
1001
0010
0100
1001
,
0001
0000
0100
0000
0001
0010
0100
0000
,
1000
0000
0100
0000
1000
0010
0100
0000
,
0010
0000
1000
0000
0001
1000
0100
0000
,
1000
0000
0010
0000
0001
0010
0100
0000
,
0120
1000
1000
1030
,
2100
0001
0001
3001
,
1001
0100
0100
0100
,
2002
0000
0000
3003
;

//---------------dance-single - t7r----------------
#NOTES:
     dance-single:
     t7r:
     Challenge:
     12:
     :
0000
0000
0000
0000
,
0000
0000
0000
0000
,
0000
0000
0000
0000
,
0000
0000
0000
0000
,
1001
0100
0010
0100
,
0001
0100
0010
1000
,
0001
0010
0100
1000
0001
0010
0001
0100
,
0010
1000
0001
0100
0001
0000
1001
0000
,
1000
0000
0000
0000
0001
0000
0000
1000
0100
0000
0100
0000
1000
0000
0000
0000
,
0010
0000
0100
0001
0000
1000
0001
0000
,
0010
0000
0000
0000
0001
0000
0000
0100
0001
0000
0001
0000
0100
0000
0000
0000
,
0010
0000
1000
0010
0000
0001
0100
0001
,
0010
0000
0000
0000
0100
0000
0000
1000
0010
0000
0010
0000
0100
0000
0000
0000
,
0010
0000
1000
0001
0000
0100
0001
0000
,
0010
0000
0000
0000
0100
0000
0000
0010
0001
0000
0001
0000
1000
0000
0000
0000
,
0001
0100
0010
1000
0001
0100
1000
0100
,
0001
0000
0000
0000
1000
0000
0000
0010
1000
0000
0010
0000
0100
0000
0000
0000
,
0001
0000
1000
0100
0000
0001
0100
0000
,
1000
0000
0000
0000
0100
0000
0000
1000
0010
0000
0001
0000
0010
0000
0000
0000
,
1000
0000
0010
0100
0000
0001
1000
0000
,
1001
0000
0000
0000
0010
0000
0000
0100
0010
0000
1000
0000
0001
0000
0000
0000
,
1000
0000
0001
0100
0000
1000
0010
0000
,
1000
0000
0000
0000
0100
0000
0000
0010
0001
0000
0000
0000
0001
0000
0000
0010
,
0100
0000
0000
0000
1000
0000
0000
0100
1000
0000
0001
0000
0100
0000
0010
0000
,
1000
0000
0010
0100
0001
0001
0100
0000
,
0001
0010
0100
1000
0000
1000
0100
0000
,
1000
0000
0010
1000
0010
0010
0100
0000
,
0010
1000
0100
0001
0000
0001
0100
0000
,
1000
0000
0001
0100
0001
0001
1000
0010
,
0100
0000
0010
1000
0000
0100
0010
0100
,
1000
0000
0010
0100
0001
1000
0001
0000
,
1001
0010
1001
0100
,
1001
0000
1000
0001
0100
0100
0001
0000
,
0100
0001
1000
0001
0000
1000
0100
0000
,
0010
0000
0100
0010
0001
0001
0010
0000
,
0100
1000
0100
0001
0000
0100
1000
0010
,
0100
0000
0010
0100
0010
0010
1000
0000
,
0100
0000
0010
0100
0010
0010
0001
0000
,
1000
0000
0001
0010
0100
0000
1000
0100
,
0010
0001
0100
0010
1000
0010
0100
0001
,
1000
0001
1001
0001
,
0101
0101
1001
1000
,
1100
1000
1001
1000
,
1100
1100
0110
0010
,
1001
0001
0101
0001
,
0011
0011
0101
0010
,
0110
0010
1010
1000
,
1100
0000
1100
0000
0010
0100
1000
0000
,
1001
0000
0001
0000
0100
0100
0001
0000
,
0100
0100
0010
0100
0000
0100
0010
0000
,
1000
0000
0100
0000
1000
1000
0010
0000
,
1000
1000
0001
1000
0000
1000
0001
0000
,
1001
0000
0001
0000
1000
0100
0001
0000
,
1000
0000
1100
0000
0001
0100
1000
0000
,
0001
0100
0010
1000
0001
0100
0010
1000
,
1001
2002
0000
0000
0000
0000
3003
0000
,
1001
0000
0000
0000
0101
0000
0000
0001
0010
0000
0100
0000
1000
0000
0000
0000
,
0100
0000
0000
0000
1000
0000
0000
0010
0100
0000
0001
0000
1000
0000
0000
0000
,
0001
0000
0000
0000
0010
0000
0000
0001
0010
0000
0001
0000
0100
0000
0000
0000
,
0010
0000
0000
0000
1000
0000
0000
0010
1000
0000
0010
0000
0100
0000
0001
0000
,
1000
0000
0000
0000
0001
0000
0000
1000
0100
0000
0001
0000
0100
0000
0000
0000
,
1000
0000
0000
0000
0010
0000
0000
0100
0010
0000
1000
0000
0001
0000
0000
0000
,
1000
0000
0000
0000
1001
0000
0000
0001
0100
0000
0001
0000
1000
0000
0000
0000
,
0001
0010
0100
1000
0001
0010
1000
0010
,
0001
0000
1000
0000
1010
0000
0010
0100
,
0001
0100
0001
0000
1000
0000
1001
0000
,
1001
0000
0010
0100
0001
0000
1000
0100
,
0010
0100
1000
0001
0100
0000
0010
0000
,
0110
0000
0010
1000
0100
0000
1000
0001
,
0101
0000
0000
1001
0000
0000
1100
0000
,
0010
0100
1000
0000
0100
0010
0001
0000
,
1000
0010
0100
0001
1000
0100
0001
0100
,
1000
0000
0001
0000
0100
0000
0000
0001
0100
0000
0001
0000
1000
0000
0000
0000
,
0001
0000
1000
0000
0100
0000
0000
1000
0100
0000
1000
0000
0010
0000
0100
0000
,
0001
0000
1000
0000
0010
0000
0000
1000
0010
0000
0100
0000
0001
0000
0000
0000
,
1000
0000
0100
0000
0001
0000
0000
0100
0001
0000
0100
0000
1000
0000
0010
0000
,
0100
0000
0001
0000
1000
0000
0000
0001
0100
0000
0010
0000
0100
0000
0000
0000
,
0010
0000
1000
0000
0001
0000
0000
1000
0100
0000
0010
0000
0100
0000
1000
0000
,
0001
0100
0001
0000
1000
0100
0010
0000
,
0001
0010
1000
0010
0001
0100
0010
1000
,
0010
0000
0100
0000
0001
0000
0000
1000
0001
0000
0100
0000
0010
0000
0000
0000
,
1000
0000
0100
0000
0010
0000
0000
0100
0010
0000
0100
0000
1000
0000
0001
0000
,
0100
0000
0001
0000
1000
0000
0000
0001
0010
0000
1000
0000
0010
0000
0001
0000
,
0100
1000
0100
0000
0010
1000
0001
0100
,
1001
0000
1001
0000
0010
0100
0001
1000
,
1100
0000
1100
0000
0010
0001
0100
0001
,
0102
0010
1000
0103
,
2002
0000
0000
3003
;
