#TITLE:quell~the seventh slave~;
#ARTIST:dj TAKA Vs. DJ YOSHITAKA;
#BANNER:quell ~the seventh slave~.png;
#BACKGROUND:quell ~the seventh slave~-bg.png;
#JACKET:quell ~the seventh slave~-jacket.png;
#CDTITLE:./CDTITLES/BEATMANIA IIDX.PNG;
#MUSIC:quell ~the seventh slave~.ogg;
#SAMPLESTART:90.857;
#SAMPLELENGTH:15;
#BPMS:0=140,140=70,156=140;

//---------------dance-single - t7r----------------
#NOTES:
     dance-single:
     t7r:
     Beginner:
     1:
     :
0000
0000
0000
0000
,
0000
0000
0000
0000
,
0000
0000
0000
0000
,
0000
0000
0000
0000
,
0000
0000
0000
0000
,
0001
0000
0000
0000
,
0000
0000
0000
0000
,
1000
0000
0000
0000
,
0000
0000
0000
0000
,
0010
0000
0000
0000
,
0010
0000
0000
0000
,
0100
0000
0000
0000
,
0100
0000
0000
0000
,
0001
0000
0000
0000
,
0001
0000
0000
0000
,
1000
0000
0000
0000
,
1000
0000
0000
0000
,
1001
0000
0000
0000
,
0000
0000
0000
0000
,
0000
0010
0000
0010
,
0010
0000
0000
0000
,
0000
0100
0000
0100
,
0100
0000
0000
0000
,
0000
0001
0000
0001
,
0001
0000
0000
0000
,
0000
1000
0000
1000
,
1000
0000
0000
0000
,
0010
0000
0010
0000
,
0010
0000
0000
0000
,
1000
0000
1000
0000
,
1000
0000
0000
0000
,
0001
0000
0001
0000
,
0001
0000
0000
0000
,
0100
0000
0100
0000
,
0100
0000
0000
0000
,
0010
0000
0000
0000
,
1000
0000
0000
0000
,
0001
0000
0010
0000
,
1000
0000
0100
0000
,
1001
0000
0000
0000
,
1000
0000
1000
0000
,
1001
0000
0000
0000
,
0001
0000
0001
0000
,
1001
0000
0000
0000
,
0010
0000
0000
0000
,
0100
0000
0000
0000
,
0010
0010
0010
0000
,
0010
0000
0000
0000
,
0100
0000
0000
0000
,
0001
0000
0001
0000
,
0001
0000
0000
0000
,
1000
0000
1000
0000
,
1000
0000
0000
0000
,
0010
0000
0010
0000
,
0010
0000
0000
0000
,
0100
0000
0100
0000
,
0100
0000
0000
0000
,
0001
0000
0001
0000
,
1000
0000
1000
0000
,
0010
0000
0010
0000
,
0100
0000
0100
0000
,
0001
0000
0000
0000
,
1000
0000
0000
0000
,
0001
0000
0010
0000
,
0100
0000
1000
0000
,
1001
0000
0000
0000
;

//---------------dance-single - t7r----------------
#NOTES:
     dance-single:
     t7r:
     Easy:
     5:
     :
0000
0000
0000
0000
,
0000
0000
0000
0000
,
0000
0000
0000
0000
,
0000
0000
0000
0000
,
0000
0000
0000
0000
,
0002
0000
0000
0000
,
0000
0000
0000
0003
,
2000
0000
0000
0000
,
0000
0000
0000
3000
,
0020
0000
0000
0030
,
0200
0000
0000
0300
,
0002
0000
0000
0003
,
2000
0000
0000
3000
,
0002
0000
0000
0003
,
0020
0000
0000
0030
,
0200
0000
0000
0300
,
1000
0001
1000
0001
,
0220
0000
0000
0000
,
0000
0000
0000
0330
,
0010
0010
1000
1000
,
0001
0100
0001
1000
,
0010
0010
1000
1000
,
0001
0010
0100
1000
,
0100
0100
0010
0010
,
0001
1000
0010
0100
,
0010
0010
1000
1000
,
0001
1000
0100
0010
,
0001
0001
0010
0010
,
0100
1000
0001
1000
,
0001
0001
0010
0010
,
0100
0010
0001
1000
,
0010
0010
0100
0100
,
0010
1000
0100
0001
,
0100
0100
1000
0010
,
0100
0010
1000
0010
,
0220
0000
0330
0000
,
2000
0000
3000
0000
,
0002
0003
2000
3000
,
0001
0010
0100
1000
,
2001
0010
0000
3010
,
0001
0010
0100
1000
,
0002
0010
0000
0013
,
1000
0010
0100
0001
,
2000
0100
0000
3100
,
1000
0010
0100
0001
,
1000
0100
0010
0001
,
1000
0010
0100
0010
,
2001
0000
0010
0000
,
0200
0000
0000
3300
,
0001
0010
0100
1000
,
0001
0010
0100
0010
,
0001
0010
0100
1000
,
0001
0100
0020
0030
,
1000
0010
0100
0001
,
1000
0010
0100
0010
,
1000
0100
0010
0001
,
1000
0000
0001
1000
,
0110
0010
1000
0100
,
0010
0010
0001
0100
,
0010
0010
1000
0001
,
0010
0001
0100
1000
,
0110
0001
0000
0001
,
1000
0010
0000
0010
,
1000
0100
0010
0001
,
1000
0010
0100
0010
,
2002
0000
0000
0000
,
0000
0000
0000
0000
,
3003
0000
0000
0000
;

//---------------dance-single - t7r----------------
#NOTES:
     dance-single:
     t7r:
     Medium:
     8:
     :
0000
0000
0000
0000
,
0000
0000
0000
0000
,
0000
0000
0000
0000
,
0000
0000
0000
0000
,
0000
0000
0000
0000
,
0001
0001
0000
1000
1000
0000
0100
0100
,
0000
0010
0010
0000
0100
1000
0000
1000
,
0001
1000
0000
0010
0010
0000
0100
0100
,
0000
0010
0010
0000
1000
0010
0000
1000
,
0001
0020
0000
0031
0200
0000
0301
0020
,
0000
0031
2000
0000
3010
0200
0000
0310
,
1000
0002
0000
1003
0200
0000
0310
0200
,
0000
1300
0020
0000
0130
0010
1000
0010
,
1000
2000
0000
3001
0002
0000
0013
0020
,
0000
0130
0200
0000
1300
2000
0000
3001
,
1000
1000
0100
0100
0010
0010
0001
0000
,
1000
0001
0100
0000
0001
1000
0010
0000
,
0220
0000
0000
0000
,
0000
0000
0000
0330
,
0010
1000
0100
0000
1000
0010
0000
0010
,
1000
0000
0001
0010
0000
0010
0001
1000
,
0001
0100
0010
0000
0100
0001
0000
0001
,
1000
0000
0100
1000
0000
1000
0010
0100
,
0010
1000
0100
0000
0010
0100
0000
0100
,
1000
0000
0010
0100
0000
0100
0001
1000
,
0010
1000
0001
0000
0010
0001
0000
0001
,
0010
0000
0100
1000
0000
1000
0010
0100
,
0010
1000
0100
1000
0010
1000
0000
1000
,
0001
0000
0001
0010
0000
0010
0001
0100
,
0001
0010
0100
0010
0001
1000
0000
1000
,
0010
0000
0010
0100
0010
1000
0100
0010
,
0100
1000
0010
0100
0010
1000
0000
1000
,
0100
1000
0001
0100
0000
0001
0010
0001
,
0100
0001
0010
0001
0100
0010
0000
1000
,
0001
0010
0100
1000
0001
0001
1000
0000
,
2001
0000
0000
0000
0000
0000
3010
0100
,
0002
0000
0000
0000
0000
0000
0013
0100
,
2000
0000
0000
0000
0000
3010
0100
0000
0001
0000
1000
0001
0000
0001
0010
0000
,
0001
0000
0100
0010
2000
0000
3010
0000
1000
0000
0100
0010
0002
0000
1003
0000
,
1001
0000
0010
0000
0100
0001
0100
0000
,
0001
0010
0100
1000
0001
0000
1000
0000
,
1001
0000
0010
0000
1000
0100
1000
0000
,
0010
1000
0001
0100
0010
0000
0100
0000
,
0110
0000
0001
0000
1000
0001
0100
0000
,
0001
1000
0010
0100
0010
1000
0100
0000
,
1000
0001
0100
0010
1000
0100
0010
0000
,
0001
0010
0110
1001
,
0120
0000
1000
0000
,
0200
0000
0330
0000
0001
1000
0001
1000
,
0001
0000
0010
0000
0100
0000
0000
0000
0010
0000
0000
0001
0000
0000
1000
0000
,
0001
0000
1000
0000
0100
0000
0000
0000
1000
0000
0000
0010
0000
0000
1000
0000
,
0100
0000
1000
0000
0010
0000
0000
0000
0100
0000
0000
0001
0000
0000
0010
0000
,
0001
0000
0000
0000
1000
0000
0000
0001
0000
0000
0100
0000
0010
0000
0100
0000
,
0001
0000
0010
0000
0100
0000
0000
0000
1000
0000
0000
0010
0000
0000
1000
0000
,
0100
0000
0010
0000
0001
0000
0000
0000
1000
0000
0000
0001
0000
0000
0100
0000
,
0010
0000
0000
0010
0000
0000
1000
0000
0001
0000
0000
0001
0000
0000
0010
0000
,
0100
0000
0000
0000
1000
0000
0000
0001
0000
0000
1000
0000
0010
0000
0010
0000
,
0100
0000
0001
0000
0100
0000
0010
0000
1000
0000
0000
0001
0000
0000
1000
0000
,
0100
0000
0010
0000
0100
0000
1000
0000
0010
0000
0000
0100
0000
0000
0010
0000
,
1000
0000
0001
0000
0010
0000
0100
0000
1000
0000
0000
0001
0000
0000
1000
0000
,
0010
0000
0010
0000
0100
0010
1000
0001
,
1000
0000
0100
0000
0001
0000
0000
0000
0100
0000
0000
1100
0000
0000
1000
0000
,
0001
0000
0100
0000
1000
0000
0000
0000
0100
0000
0000
0101
0000
0000
0001
0000
,
1000
0010
0100
0000
0001
0010
0100
0000
,
0010
0010
0001
0001
1000
0010
0100
0000
,
0220
0000
0000
0000
,
0000
0000
0000
0000
,
0330
0000
0000
0000
;

//---------------dance-single - t7r----------------
#NOTES:
     dance-single:
     t7r:
     Hard:
     11:
     :
0000
0000
0000
0000
,
0000
0000
0000
0000
,
0000
0000
0000
0000
,
0000
0000
0000
0000
,
0000
0000
0000
0000
,
0010
2000
0000
3001
2000
0000
3001
0020
,
0000
0031
0200
0000
0310
0200
0000
0301
,
1000
0002
0000
0103
0020
0000
1030
0200
,
0000
0310
0002
0000
1003
0200
0000
0310
,
0001
2000
0001
3001
0020
0100
0130
2000
,
0100
3100
0020
0001
0031
0200
0010
0310
,
0100
0002
1000
1003
0020
0100
0130
2000
,
0100
3100
0020
0001
0031
1000
0001
1000
,
1001
0020
0100
1030
0200
0010
0301
2000
,
0100
3010
0002
0010
0103
2000
0010
3100
,
0001
0001
0010
0010
0100
0100
1000
1000
,
0001
0010
0100
1000
0001
0010
0100
1000
,
0220
0000
0000
0000
,
0000
0000
0000
0000
0330
0000
0000
0100
,
0001
1000
0001
0010
0001
0200
0000
0310
,
1000
0001
1000
0200
0000
0310
0100
1000
,
0010
0100
0010
1000
0001
0020
0000
0031
,
1000
0100
1000
0001
0100
0010
0100
0100
,
0010
1000
0100
1000
0001
0020
0000
0031
,
1000
0100
0010
0200
0000
1300
0010
0100
,
0001
0010
0100
0010
0001
2000
0000
3010
,
0100
0001
0100
0010
1000
0001
1000
1000
,
0001
0010
0110
0010
0001
1000
1001
1000
,
0010
0100
0010
1000
0100
0010
0001
1000
,
0010
0100
0110
0010
1000
0001
1001
1000
,
0100
1000
0001
0100
0010
0100
0001
0001
,
0010
0001
0011
0100
1000
0100
1100
1000
,
0001
0100
1000
0100
0001
0010
1000
0010
,
0001
0100
0101
0100
0010
1000
1010
1000
,
0001
0001
1000
1000
0001
0010
0100
1000
,
0020
0000
0000
0000
0000
0000
0130
0001
,
2000
0000
0000
0000
0000
0000
3001
0010
,
0200
0000
0000
0000
0000
0310
0001
1000
0001
0000
1000
0100
0000
0100
0001
0100
,
1000
0000
0010
0100
0002
0000
0000
1003
0010
1000
0100
0010
0001
0000
0110
0000
,
1001
0000
0010
0100
0000
0001
0100
0010
,
1000
0100
0100
0001
0100
0000
1000
0000
,
1001
0000
0010
0100
0000
0100
0001
0010
,
0001
0010
0010
1000
0010
0000
0001
0000
,
1000
0000
0100
0000
0010
0000
0000
0100
0000
0000
0100
0000
1000
0000
0001
0000
,
0100
0000
0001
0000
0010
0000
0000
0001
0000
0000
0001
0000
1000
0000
0001
0000
,
0100
0100
0010
0010
1000
1000
0001
0001
,
1000
1100
0101
1100
,
2010
0000
0001
0000
,
0200
0000
3300
0000
0010
0001
1000
0100
,
0010
0000
0100
0000
1000
0000
0010
0000
0100
0000
0000
0001
0000
0000
0100
0000
,
0001
0000
0010
0000
0100
0000
1000
0000
0001
0000
0000
0010
0000
0000
0001
0000
,
1000
0000
0100
0000
0010
0000
0001
0000
0100
0000
0000
0010
0000
0000
1000
0000
,
0001
1000
0000
0000
0100
0000
0000
1000
0000
0000
0001
0000
0010
0000
0100
0000
,
0010
0000
0001
0000
1000
0000
0100
0000
0010
0000
0000
0100
0000
0000
1000
0000
,
0010
0000
0100
0000
0001
0000
0100
0000
0010
0000
0000
0100
0000
0000
0001
0000
,
1000
0000
0010
1000
0000
0000
1000
0000
0001
0000
0010
0001
0000
0000
1000
0000
,
0001
0100
0000
0000
0010
0000
0000
0100
0000
0000
0001
0000
1000
0000
0100
0000
,
1000
0000
0100
0000
0010
0000
0100
0000
1000
0000
0010
1000
0000
0000
0001
0000
,
0100
0000
0010
0000
0100
0000
0001
0000
0010
0000
0001
1000
0000
0000
0001
0000
,
0010
0000
0100
0000
1000
0000
0001
0000
0100
0000
0010
0100
0000
0000
0010
0000
,
1000
0100
0000
0000
1100
0000
0000
0001
0000
0000
0100
0000
0010
0000
0100
0000
,
0001
0000
0010
0000
0110
0000
0010
0000
0001
0000
1000
0100
0000
0000
1000
0000
,
0010
0000
1000
0000
1010
0000
1000
0000
0010
0000
0100
0010
0000
0000
1000
0000
,
0001
0000
0010
0100
0000
0000
0100
0000
1000
0000
0010
0100
0000
0000
0001
0000
,
1000
0001
1000
0000
0010
0100
0010
0000
1000
0000
0100
0000
0001
0000
0100
0000
,
0220
0000
0000
0000
,
0000
0000
0000
0000
,
0330
0000
0000
0000
;

//---------------dance-single - t7r----------------
#NOTES:
     dance-single:
     t7r:
     Challenge:
     14:
     :
0000
0000
0000
0000
,
0000
0000
0000
0000
,
0000
0000
0000
0000
,
0000
0000
0000
0000
,
0000
0000
0000
0000
,
0001
0100
0000
1000
0010
0000
1000
0100
,
0000
0001
0010
0000
0001
1000
0000
1000
,
0001
1000
0000
1000
0001
0000
0001
0010
,
0000
0010
1000
0000
1000
0010
0000
0010
,
0001
0200
0001
0310
2000
0001
3100
2000
,
0010
3001
0020
0001
1030
0200
0001
0310
,
1000
0002
1000
1003
0200
0010
0310
0020
,
1000
1030
2000
0001
3001
1000
0001
1000
,
1010
1000
0100
0001
0100
1000
0010
0001
,
0010
1000
0100
0010
0001
0010
0100
1000
,
0001
0001
0010
0010
0100
0100
1000
1000
,
0001
1000
0001
1000
0001
1000
0001
1000
0010
0100
0010
0100
0010
0100
0010
0100
,
0220
0000
0000
0000
,
0000
0000
0000
0000
0000
0000
0330
0001
,
1001
0010
0100
1000
0001
0002
1000
0103
,
0001
1000
0010
0020
0001
1030
0001
1000
,
0100
0010
0001
0010
0100
0200
0010
1300
,
0100
1000
0010
0020
0001
1030
0001
1000
,
1001
0001
0100
0010
0100
0200
0010
0301
,
0100
0010
1000
2000
0001
3100
1000
0100
,
0010
0001
0010
0100
1000
2000
0001
3010
,
0100
0010
1010
0001
1000
1000
0010
0100
,
0110
0000
0100
0001
0100
0000
0001
0000
0010
0000
0010
0000
0001
0000
0100
0001
,
0010
0010
0100
1000
0001
1000
0010
0010
,
1000
0000
0100
1000
0100
0000
1000
0000
0001
0000
0001
0000
1000
0000
0010
1000
,
0100
0100
0010
0001
1000
0010
0100
0100
,
1010
0000
0001
1000
0010
0000
1000
0000
0001
0000
1000
0000
0100
0000
1000
0001
,
0010
0000
0001
0000
1000
0000
1000
0000
0010
0000
0100
0001
1000
0000
0001
0000
,
0100
0000
0001
0010
0001
0000
0100
0000
0010
1000
0010
0000
0100
0000
0001
0000
,
0010
0100
0010
0100
0010
0100
0010
0100
1000
0001
1000
0001
1000
0001
1000
0001
,
1002
0000
0000
0000
0000
0000
0103
0010
,
2000
0000
0000
0000
0000
0000
3001
0010
,
0002
0000
0000
0000
0000
1003
0100
0010
0100
1000
0001
0100
0000
0001
1000
0010
,
1000
0000
0000
0000
0100
0010
0000
0001
1000
0000
0000
0000
0000
0000
0001
1000
0001
0000
0100
0000
0010
0000
1000
0000
0001
0000
0000
0000
1001
0000
0000
0000
,
0110
0000
0010
0000
1000
0100
1000
0000
0010
0000
0100
0000
0001
0010
0001
0000
,
1000
0100
0010
0001
1000
0100
0010
0001
1000
0000
0000
0000
0001
0000
0000
0000
,
1001
0000
0010
0000
0001
0100
0001
0000
1000
0000
0010
0000
1000
0100
1000
0000
,
0001
0010
0100
1000
0001
0010
0100
1000
0001
0000
0000
0000
1000
0000
0000
0000
,
1001
0000
0010
0000
0100
0010
0000
0010
1000
0000
0010
0000
0100
0001
0000
0001
,
0010
0000
0001
0000
1000
0100
0000
0100
0010
0000
0001
0000
1000
0010
0000
0010
,
0100
0000
0001
0000
1000
0010
1000
0010
1000
0000
0001
0000
0010
0100
0010
0100
,
1000
0010
1000
0010
1000
0001
1000
0001
0100
0010
0100
0010
0100
0001
1000
0001
,
1002
0000
0203
0000
,
0320
0000
0000
0000
0000
0000
0000
0000
1030
0000
0001
0000
1000
0010
0100
0001
,
0010
0000
0100
0000
0010
0000
0001
0000
0100
0000
0001
1000
0000
1000
0010
0000
,
1000
0000
0001
0000
1000
0000
0100
0000
0010
0000
0100
1000
0000
1000
0001
0000
,
0010
0000
0100
0000
0010
0000
0001
0000
1000
0000
0001
0100
0000
0100
0001
0000
,
1000
0010
0000
0010
1000
0000
0001
0100
0000
0100
0001
0000
1000
0000
0001
0000
,
1001
0000
0010
0000
0100
0000
0010
0000
0001
0000
1000
0100
0000
0100
1000
0000
,
0010
0000
1000
0000
0100
0000
1000
0000
0001
0000
0100
0010
0000
0010
0100
0000
,
0001
1000
0010
1000
0000
0100
1000
0100
1000
0010
0100
0001
0000
0001
1000
0001
,
0010
0001
0000
0000
0110
0000
0000
1001
0000
0000
0100
0000
0001
0000
1000
0000
,
0010
1000
0010
0000
1000
0000
0001
0000
0010
0000
0100
0010
0000
0001
0010
0001
,
1000
0100
1000
0000
0001
0000
0100
0000
0001
0000
1000
0010
0000
1000
0001
1000
,
0010
0100
0010
0000
0100
0000
0001
0000
1000
0000
0001
0010
0000
0100
0010
0001
,
1000
0010
0000
0010
1000
0000
0001
1000
0000
1000
0010
0100
0010
0000
0110
0000
,
1000
0001
0100
0000
1010
0000
0001
0000
0101
0000
0001
0010
0000
0100
1000
0001
,
0100
0001
0010
0000
1100
0000
0010
0000
1000
0010
0100
0001
0010
0100
1000
0100
,
0010
0001
1000
0001
0000
0001
0100
0001
0010
0100
1000
0010
0000
0010
1000
0001
,
1000
0100
1000
0100
0010
0100
0010
0100
1000
0100
0010
0001
1000
0100
0010
0001
,
2002
0000
0000
0000
,
0000
0000
0000
0000
,
3003
0000
0000
0000
;
