#TITLE:oratio;
#ARTIST:蓑舞衆;
#ARTISTTRANSLIT:MINO MAI SHUU;
#BANNER:oratio.png;
#BACKGROUND:oratio-bg.png;
#JACKET:oratio-jacket.png;
#CDTITLE:./CDTITLES/BEATMANIA IIDX.PNG;
#MUSIC:oratio.ogg;
#SAMPLESTART:33.333;
#SAMPLELENGTH:15;
#BPMS:0=162;

//---------------dance-single - t7r----------------
#NOTES:
     dance-single:
     t7r:
     Beginner:
     2:
     :
0000
0000
0000
0000
,
0000
0000
0000
0000
,
0000
0000
0000
0000
,
0000
0000
0000
0000
,
0000
0000
0000
0000
,
0000
0000
0000
0000
,
0000
0000
0000
0000
,
0000
0000
0000
0000
,
0000
0000
0000
0000
,
0001
0000
1000
0000
,
0001
0000
0000
0000
,
0100
0000
0010
0000
,
0100
0000
0000
0000
,
0000
0000
0000
0000
,
0000
0000
0000
0000
,
0100
0000
0010
0000
,
0100
0000
0010
0000
,
1000
0000
0001
0000
,
1000
0000
0001
0001
,
0001
0000
0100
0000
,
0010
0000
1000
0000
,
0001
0000
1000
0000
,
0100
0000
0000
0000
,
0000
0010
0000
0010
,
0000
0001
0000
0001
,
0000
1000
0000
1000
,
0000
0100
0000
0100
,
0000
1000
0000
1000
,
0000
0010
0000
0010
,
0000
0100
0000
0100
,
0000
0001
0000
0001
,
0001
0000
0000
0000
,
1000
0000
0000
0000
,
0010
0000
0000
0000
,
0100
0000
0000
0000
,
0001
0000
0100
0000
,
0001
0000
0010
0000
,
0100
0000
1000
0000
,
0100
0000
1000
0000
,
0010
0000
0000
0000
,
0100
0000
0000
0000
,
0010
0000
0000
0000
,
1000
0000
0000
0000
,
0001
0000
0001
0000
,
0001
0001
0001
0000
,
0000
1000
0000
0100
,
0000
0010
0000
0001
,
0000
0010
0000
0100
,
0000
1000
0000
0100
,
0100
0000
0010
0000
,
0001
0000
1000
0000
,
0010
0000
0100
0000
,
0001
0000
0010
0000
,
0100
0000
1000
0000
,
0100
0000
0100
0000
,
0010
0000
0000
0000
,
0001
0000
0000
0000
,
0100
0000
0010
0000
,
1000
0000
0000
0000
,
0001
0000
0001
0000
,
0000
0000
0000
0000
,
0000
1000
1000
0000
,
0000
0000
0010
0000
,
0100
0000
0010
0000
,
1000
0000
0001
0000
,
0001
0000
0100
0000
,
0000
0000
0010
0000
,
0100
0000
0001
0000
,
1000
0000
0100
0100
,
0100
0000
0010
0000
,
0000
0000
0001
0000
,
0000
0000
0010
0000
,
0000
0000
0100
0000
,
1000
0000
0100
0000
,
0100
0000
0010
0000
,
0000
0000
0001
0000
,
0001
0000
0010
0000
,
0000
0000
0000
0001
,
0000
0001
0000
1000
,
0000
1000
0000
0010
,
0000
0010
0000
0100
,
0000
0100
0000
0001
,
0000
0001
0000
1000
,
0000
1000
0000
0010
,
0000
1000
0000
0001
,
0000
0001
0001
0000
,
0000
0000
0100
0000
;

//---------------dance-single - t7r----------------
#NOTES:
     dance-single:
     t7r:
     Easy:
     5:
     :
0000
0000
0000
0000
,
0000
0000
0000
0000
,
0000
0000
0000
0000
,
0000
0000
0000
0000
,
0000
0000
0000
0000
,
0000
0000
0000
0000
,
0000
0000
0000
0000
,
0000
0000
0000
0000
,
0000
0000
0000
0000
,
0001
0000
0100
0010
,
2000
0000
0000
3000
,
1000
0000
0100
0010
,
0200
0000
0000
0000
,
0000
0000
0000
0300
,
0000
0000
0000
0000
,
0010
0000
0001
0000
,
0100
0000
1000
0000
,
1000
0000
0100
0000
,
0001
0000
0010
0000
,
0001
0001
0002
0003
,
1000
1000
2000
3000
,
0001
1000
0002
0003
,
1000
1000
0001
0100
,
0002
0000
0003
1000
,
0020
0000
0030
0100
,
0020
0000
0030
0100
,
2000
0000
3000
0100
,
0002
0000
0003
1000
,
0002
0000
0003
1000
,
0200
0000
0300
0010
,
0002
0000
0000
0003
,
1001
0000
0010
0100
,
0010
0000
0100
0001
,
0100
0000
0001
0100
,
0002
0000
0000
0003
,
1000
0000
0100
0010
,
0100
0000
1000
0100
,
0020
0030
0002
0003
,
2000
3000
0002
0003
,
1001
0000
0010
0100
,
0002
0000
0003
0100
,
0020
0030
1000
0010
,
0200
0000
0000
0300
,
0010
0000
1000
0000
,
1001
0000
0110
0000
,
1001
1000
0001
0001
,
1000
1000
0001
1000
,
0001
0001
1000
1000
,
0001
1000
0001
1000
,
0002
0003
0100
0010
,
1000
0010
0200
0000
,
0000
0000
0000
0300
,
0020
0030
0100
0001
,
0100
0001
2000
0000
,
0000
0000
0000
3000
,
0002
0003
0010
0100
,
1000
0100
0020
0030
,
0001
0010
0002
0003
,
2000
0000
0000
3000
,
0002
0003
2000
0000
,
0000
0000
3000
0000
,
0000
0100
1001
0001
,
1000
0001
1000
1000
,
0100
0100
0010
0010
,
0001
0001
0010
0100
,
1000
0100
2000
0000
,
0000
3000
0001
0001
,
0100
0001
1000
0001
,
0010
0100
1000
0100
,
0010
0001
2000
0000
,
0000
3000
0100
0000
,
0010
0000
0001
0000
,
1000
0000
0001
0000
,
0100
0000
0010
1000
,
0020
0030
0100
0001
,
0200
0300
0002
0003
,
2000
3000
2002
0000
,
3003
0000
0001
1000
,
1000
0001
0010
0100
,
0100
1000
0200
0300
,
0020
0030
0002
0003
,
2000
3000
0001
0010
,
0010
0001
0001
1000
,
1000
0100
2000
3000
,
0002
0003
0200
0300
,
0020
0030
1000
0000
,
0001
0000
1000
0000
,
0001
0000
0000
0000
0000
0200
0000
0000
,
0000
0000
0000
0000
,
0300
0000
0000
0000
;

//---------------dance-single - t7r----------------
#NOTES:
     dance-single:
     t7r:
     Medium:
     9:
     :
0000
0000
0000
0000
,
0000
0000
0000
0000
,
0000
0000
0000
0000
,
0000
0000
0000
0000
,
0000
0000
0000
0000
,
0000
0000
0000
0000
,
0000
0000
0000
0000
,
0000
0000
0000
0000
,
0000
0000
0000
0000
,
0001
0000
1000
0001
,
2002
0000
0000
3003
,
0100
0000
0010
0100
,
0220
0000
0000
0330
,
0000
0000
0000
0000
,
0000
0000
0000
0000
,
1000
0000
0000
0100
0100
0000
0000
0010
,
0010
0000
0000
0001
0001
0000
0000
1000
,
0001
0000
0000
0001
0100
0000
0000
0100
,
0010
0000
0000
0010
1000
0000
0000
1000
,
0010
0100
0010
1000
,
0001
0000
0100
0000
0001
0000
1000
0001
,
0100
0001
1000
0100
,
0010
0001
0100
0000
0001
0000
1000
0000
,
0002
0010
1000
0103
,
2000
0010
0001
3100
,
0002
0100
0010
1003
,
0020
0100
1000
0130
,
2000
0100
0010
3001
,
0002
0010
0100
1003
,
0200
0010
0001
1300
,
0020
1000
0001
0130
,
1001
0000
0001
0100
,
0020
0030
1000
0010
,
2000
3000
0001
1000
,
0200
0300
0020
0030
,
0002
0003
0010
0100
,
2000
3000
0100
0010
,
0002
0013
0002
1003
,
2000
3010
2000
3100
,
0010
0001
0200
0300
,
0010
1000
0002
0003
,
1000
0001
0200
0300
,
0010
1000
0020
0030
,
2000
3000
0002
0003
,
2000
3000
2002
3003
,
0001
0000
0100
0000
0001
1000
0100
0000
,
1000
0000
0100
0000
1000
0001
0100
0000
,
0010
0000
0100
0000
0010
1000
0010
0000
,
0100
0000
0010
0000
1000
0010
1000
0010
,
0100
0000
0001
0000
1000
0001
0100
0000
,
0001
0000
1000
0000
0001
1000
0100
0000
,
1000
0000
0010
0000
0100
0001
0100
0000
,
0001
0000
0010
0000
0100
1000
0100
0000
,
1000
0000
0010
0000
1000
0001
0100
0000
,
0001
0000
0010
0000
0001
0010
0100
1000
,
0200
0300
0020
0032
,
2003
3002
0203
0000
,
0320
2030
3020
2030
,
3002
0000
0000
0000
,
2003
0000
0200
0000
,
0000
0000
3300
0001
,
0100
0000
0010
0000
1000
0010
1000
0000
,
0001
0100
0001
0000
1000
0100
0010
0000
,
0001
0011
0110
1100
,
0110
0000
0011
0000
1000
0001
0100
0000
,
0001
1000
0100
0000
0010
0001
0010
0000
,
0001
0100
0010
0000
1000
0010
1000
0000
,
1100
0110
0011
0110
,
1100
1001
0110
1001
,
0110
0000
1000
0010
1000
0000
0001
0100
,
0001
0000
1000
0001
0100
0000
0001
1000
,
0001
2000
3001
0002
,
0103
0020
1030
2000
,
3001
0000
1000
0100
0010
0000
0001
0010
,
0100
0000
1000
0010
1000
0010
0100
0001
,
0100
0002
0103
0020
,
1030
0000
0001
1000
0100
0010
0001
0000
,
0101
0000
1001
0000
0001
1000
0100
0000
,
0010
0001
0100
0000
0010
1000
0001
0000
,
0010
0100
1000
0000
1000
0100
0020
0000
,
0031
0010
0200
0000
1300
0100
2000
0000
,
3001
0100
0002
0000
1003
0010
1000
0000
,
0001
0100
0001
0000
1000
0010
0100
0000
,
0001
0100
0010
0000
1000
0100
0020
0000
,
0031
0010
0002
0000
1003
0100
2000
0000
,
3001
0100
0002
0000
2003
0000
3001
0000
,
0010
0000
0100
0010
0001
0000
1000
0010
,
1000
0000
0001
0100
0000
0002
0000
0000
,
0000
0000
0000
0000
,
0003
0000
0000
0000
;

//---------------dance-single - t7r----------------
#NOTES:
     dance-single:
     t7r:
     Hard:
     13:
     :
0000
0000
0000
0000
,
0000
0000
0000
0000
,
0000
0000
0000
0000
,
0000
0000
0000
0000
,
0000
0000
0000
0000
,
0000
0000
0000
0000
,
0000
0000
0000
0000
,
0000
0000
0000
0000
,
0000
0000
0000
0000
,
1001
0000
0010
0100
,
2002
0000
0000
3003
,
0110
0000
0100
0010
,
0220
0000
0000
0000
,
0000
0000
0000
0330
,
0000
0000
0000
0000
,
1000
0000
0000
0000
0000
0000
0001
0100
0001
0000
0000
0000
0000
0000
0010
0001
,
0010
0000
0000
0000
0000
0000
0100
1000
0100
0000
0000
0000
0000
0000
1000
0000
,
0001
0000
0000
0000
0000
0000
1000
0100
1000
0000
0000
0000
0000
0000
0001
0100
,
0001
0000
0000
0000
0000
0000
0010
0001
0010
0000
0001
0000
0010
0000
0100
0000
,
1000
0000
0000
1000
0100
0000
0000
0100
1000
0000
0000
1000
0001
0000
0000
0001
,
0100
0000
0000
0100
0001
0000
0000
0001
0010
0000
0000
0010
0001
0000
0100
0000
,
0010
0000
0000
0010
1000
0000
0000
1000
0001
0000
0000
0001
0100
0000
0000
0100
,
0001
0100
0001
1000
0001
0000
0000
0000
1000
0000
0100
0000
0010
0000
0001
0000
,
1000
0100
0001
0100
1000
0100
1000
0100
,
1000
0100
0001
0100
1000
0010
1000
0010
,
1000
0010
0001
0010
1000
0010
1000
0010
,
1000
0010
0001
0010
1000
0100
0001
0100
,
1000
0100
0010
0001
0010
0001
0100
0001
,
0010
0100
1000
0100
0010
0001
1000
0001
,
0100
0001
1000
0010
0100
0001
1000
0010
,
0100
0010
1000
0010
0100
0001
1000
0100
,
0010
0001
0100
0001
2000
0000
3000
0000
,
1000
0100
0010
0001
0200
0000
0300
0000
,
0010
0100
0001
0100
0020
0000
0030
0000
,
1000
0010
1000
0001
2000
0000
3000
0000
,
0001
0010
0100
1000
0200
0000
0300
0000
,
1000
0100
1000
0001
0020
0000
0030
0000
,
0001
0010
0200
0000
1300
0010
2000
0000
,
3001
0000
0100
0000
0001
0000
1000
0000
0100
0000
0000
0100
0010
0000
0001
0000
,
1000
0100
1000
0010
0100
0000
0110
0000
,
0010
1000
0001
0100
0001
0000
1001
0000
,
0001
0010
0100
0010
0001
0000
0011
0000
,
0100
1000
0010
0100
0010
0000
0110
0000
,
2010
3100
0012
1003
,
1002
0103
0120
1030
,
1000
0000
0010
0000
0100
0000
0000
0100
0001
0000
1000
0000
0001
0000
0000
0000
,
0001
0000
0010
0000
0100
0000
0000
0100
1000
0000
0001
0000
1000
0000
0000
0000
,
1000
0000
0010
0000
1000
0000
0000
0001
0100
0000
0001
0000
1000
0000
0000
0000
,
0100
0000
0010
0000
0001
0000
0000
0010
0100
0000
1000
0000
0100
0000
0010
0000
,
0001
0000
0000
0001
0010
0000
0000
0010
0100
0000
0000
0100
1000
0000
0000
1000
,
0100
0000
0000
0100
0001
0000
0000
0001
0100
0000
0000
0100
1000
0000
0000
1000
,
0100
0000
0000
0100
0010
0000
0000
0010
0001
0000
0000
0001
0010
0000
0000
0010
,
1000
0000
0000
1000
0010
0000
0000
0010
0100
0000
0000
0100
1000
0000
0000
1000
,
0001
0000
0000
0001
0100
0000
0000
0100
1000
0000
0000
1000
0100
0000
0000
0100
,
0001
0000
0000
0001
0010
0000
0000
0010
0001
0000
0000
0001
1000
0000
0010
0000
,
0100
0001
0100
0000
0020
0000
2030
0000
,
3002
0203
0302
0000
,
1003
0100
0020
0000
0031
0010
0200
0000
,
1300
0100
1000
0001
0100
0001
1000
0010
,
0200
0000
0002
0000
,
0000
0000
0303
0010
,
1000
0000
0000
0000
0001
0000
0000
0000
1001
0000
0000
0001
0010
0000
0100
0000
,
1000
0000
0000
1000
0100
0000
1000
0000
0001
0000
0000
0001
0100
0000
0001
0000
,
1000
0000
0000
1000
0010
0000
0000
0010
0100
0000
0000
0100
0001
0000
0000
0001
,
0100
0000
0000
0100
0001
0000
0000
0001
1000
0000
0000
1000
0001
0000
0000
0001
,
1000
0000
0000
1000
0100
0000
0010
0000
0001
0000
0000
0001
0100
0000
0010
0000
,
1000
0000
0000
1000
0001
0000
1000
0000
0010
0000
0000
0010
0100
0000
0001
0000
,
0100
0000
0000
0100
0001
0000
0000
0001
1000
0000
0000
1000
0010
0000
0000
0010
,
1000
0000
0000
1000
0100
0000
0000
0100
0010
0000
0000
0010
0001
0000
0000
0001
,
0010
0000
0100
0000
1000
0000
0100
0000
1000
0000
0000
0100
0010
0000
0100
0000
,
1000
0000
0000
0001
0100
0000
0001
0000
1000
0000
0000
0001
0010
0000
0100
0000
,
1000
0000
0000
0100
0010
0000
0001
0000
1000
0000
0000
0001
0100
0000
0010
0000
,
0100
0000
0000
0010
1000
0000
0001
0000
1000
0000
0000
0001
0100
0000
0001
0000
,
1000
0000
0000
0100
0010
0000
0100
0000
0010
0000
0000
0001
0100
0000
0001
0000
,
1000
0000
0000
0010
1000
0000
0100
0000
0001
0000
0000
0100
1000
0000
0010
0000
,
0001
0000
0000
0010
1000
0000
0001
0000
0100
0000
0000
0001
0100
0000
0001
0000
,
0010
0000
0000
0100
0010
0000
0001
0000
0010
0000
0100
0000
1000
0000
0100
0000
,
1000
0001
2001
0000
3001
0000
0010
0100
,
2000
0000
3100
0010
0002
0000
0103
0001
,
0200
0000
0000
0000
0310
0000
1000
0000
0001
0000
1000
0001
1000
0000
0001
0000
,
0100
0000
0000
0100
0010
0000
1000
0000
0100
0000
0000
0100
0010
0000
0001
0000
,
0010
0000
0000
0010
0001
0000
1000
0000
0001
0000
0000
0000
0100
0000
0001
0000
,
0200
0000
0310
1000
0020
0000
1030
0100
,
2000
0000
0000
0000
3100
0000
0010
0000
0001
0000
0010
0100
0010
0000
0001
0000
,
1000
0000
0000
1000
0001
0000
0100
0000
0001
0100
0001
0100
0000
0000
0001
1000
,
0001
1000
0000
0000
0100
0010
0100
0010
0002
0000
0000
0000
2003
0000
0000
0000
,
3200
0000
1300
0001
0200
0000
0310
1000
,
0002
0000
0000
0000
1003
0000
0100
0000
0000
1000
0002
0000
0000
0000
0000
0000
,
0000
0000
0000
0000
,
0003
0000
0000
0000
;

//---------------dance-single - t7r----------------
#NOTES:
     dance-single:
     t7r:
     Challenge:
     17:
     :
0000
0000
0000
0000
,
0000
0000
0000
0000
,
0000
0000
0000
0000
,
0000
0000
0000
0000
,
0000
0000
0000
0000
,
0000
0000
0000
0000
,
0000
0000
0000
0000
,
0000
0000
0000
0000
,
0000
0000
0000
0000
,
1010
0000
0010
0100
,
0202
0000
0000
0303
,
0011
0000
0100
1100
,
2200
0000
0000
0000
,
0000
0000
0000
3300
,
0000
0000
0000
0000
,
0001
0000
0010
0000
0100
0000
0010
0001
0010
0000
0001
0000
0100
0000
0010
1000
,
0010
0000
1000
0000
0100
0000
0010
0100
0010
0000
0100
0000
1000
0000
0000
0000
,
0010
0000
1000
0000
0001
0000
0010
0001
0010
0000
0001
0000
1000
0000
0010
1000
,
0010
0000
1000
0000
0001
0000
0100
0001
0100
0000
0010
0100
0010
0000
0100
0000
,
0110
0000
0000
0010
1000
0000
0001
0010
0001
0000
1000
0100
1000
0000
0001
0000
,
0101
0000
0000
0001
0100
0000
0001
0010
0001
0000
1000
0100
1000
0000
0001
0000
,
1001
0000
0000
0001
1000
0000
0010
1000
0010
0000
0100
0010
0100
0000
0010
1000
,
0001
1000
0001
1000
0020
0000
0000
0000
1030
0100
1000
0000
0001
0100
0001
1000
,
0001
0000
0010
0001
0010
0000
0001
1000
0001
0000
0010
0001
0010
0000
0001
0000
,
1000
0000
0100
1000
0100
0000
1000
0010
1000
0000
0001
1000
0001
0000
1000
0000
,
0010
0000
0100
0010
0100
0000
0010
1000
0010
0000
0100
0001
0100
0000
0001
0000
,
0010
0000
0001
0010
0001
0000
1000
0100
1000
0001
1000
0001
0100
0010
0100
0010
,
1000
0000
0010
1000
0001
0000
0010
0001
1000
0000
0010
1000
0001
0000
0010
0000
,
0001
0000
0100
0010
1000
0000
0010
0100
0001
0000
0100
0010
1000
0000
0001
0000
,
1000
0000
0100
0010
0001
0000
0010
0100
1000
0000
0100
0010
0001
0000
1000
0000
,
0010
0000
0100
0001
0100
0000
0001
1000
0001
0010
0001
0010
0100
1000
0100
1000
,
0010
0100
0001
0100
0020
0000
1030
0000
,
0100
0010
0001
0010
0200
0000
1300
0000
,
0001
1000
0010
1000
0002
0000
0013
0000
,
1000
0000
0001
0000
1000
0000
0100
0000
2000
0000
0000
0000
3010
0000
0100
0010
,
0100
0010
2000
0000
3100
0010
0002
0000
,
0103
0001
0020
0000
0130
1000
0020
0000
,
1030
0010
0100
0010
1000
0010
0100
0010
,
1000
0000
0100
0000
0001
0000
0100
0000
1000
0000
0001
1000
0001
0000
1000
0001
,
0010
0000
0001
0010
0001
0000
0100
0000
0001
0000
0010
0000
0001
0000
0100
0000
,
0010
0000
1000
0010
1000
0000
0100
0000
1000
0000
0010
0000
1000
0000
0100
0000
,
0010
0000
0001
0100
0001
0000
0100
0000
0010
0000
1000
0000
0001
0000
0010
0000
,
0001
0000
1000
0100
1000
0000
0001
0000
0010
0000
0100
0000
1000
0000
0001
1000
,
0010
0100
0002
0000
0013
0100
2000
0000
,
3001
0000
0010
0000
0002
0000
0000
0000
1003
0000
0010
0000
1000
0000
0001
1000
,
0001
0010
0100
1000
0001
0000
1000
0000
0001
0010
0100
1000
0001
0000
1000
0000
,
0001
0010
0001
1000
0001
0000
1000
0000
0001
0010
0001
1000
0001
0000
1000
0000
,
0001
0100
0010
1000
0001
0000
0010
0000
0001
0100
0010
1000
0001
0000
0010
0000
,
0001
0100
0010
1000
0100
0000
1000
0000
0001
0100
0010
0000
1000
0100
0010
0001
,
1000
0000
0010
1000
0010
0000
0100
0000
0010
0000
1000
0010
1000
0000
0010
0000
,
1000
0000
0100
0010
0100
0000
0010
0000
0001
0000
0100
0001
0100
0000
0001
0000
,
1000
0001
0010
0001
1000
0000
0001
0000
1000
0000
0100
1000
0100
0000
1000
0001
,
1000
0000
0001
0100
0001
0000
0010
0000
0001
0000
0100
0010
0100
0000
0001
0000
,
0010
0000
0001
1000
0001
0000
1000
0000
0100
0010
0100
1000
0001
0000
1000
0000
,
0010
0100
0010
1000
0001
0000
1000
0000
0001
0010
0001
0010
0100
1000
0100
1000
,
0001
0100
0010
0100
0002
0000
0013
0000
,
1000
0100
0010
0100
2000
0000
3010
0000
,
1000
0010
0100
0001
0010
0100
1000
0100
,
0010
0000
0000
0001
0010
0000
0000
0001
1000
0000
0000
0010
0100
0000
0100
0000
,
0010
0000
1000
0010
1000
0000
0001
0010
0001
0000
1000
0000
0001
0100
0010
0100
,
0001
0000
1000
0000
0001
0010
0100
1000
0002
0000
0000
0000
2003
0000
0000
0000
,
3020
0000
0000
0000
0130
0001
1000
0001
1000
0000
0100
0010
0001
0000
0010
0000
,
0100
0000
1000
0000
0010
0000
0100
0000
0001
0000
0100
0010
1000
0000
0010
0000
,
0100
0000
0001
0000
1000
0000
0001
1000
0100
0000
1000
0001
0100
0000
0001
1000
,
0010
0000
1000
0001
0010
0000
0001
0010
0100
0000
1000
0100
0010
0000
0100
1000
,
0001
0000
0100
0001
1000
0000
0010
0100
0001
0000
0100
0010
1000
0000
0010
0000
,
1000
0000
0100
0000
0010
0000
0001
0010
0100
0000
0010
0001
1000
0000
0010
0000
,
1000
0000
0100
0000
0010
0000
0100
1000
0001
0000
1000
0001
0010
0000
0001
1000
,
0010
0000
1000
0001
0100
0000
0001
1000
0100
0000
0010
0001
1000
0000
0001
0100
,
0010
0100
0010
0100
0001
1000
0001
1000
0001
0000
0010
0001
0010
0000
0001
0000
,
0100
0001
0100
0001
0100
0000
0001
0000
1000
0000
0010
1000
0010
0000
1000
0000
,
0100
1000
0100
1000
0100
0000
1000
0000
0001
0000
0100
0010
0100
0000
0010
0000
,
1000
0001
1000
0001
1000
0000
0001
0000
0010
0000
0001
0010
0001
0000
1000
0000
,
0001
0100
0001
0100
0001
0000
1000
0000
0100
0000
0010
0100
1000
0000
0100
0000
,
0010
0001
1000
0001
1000
0000
0001
0000
0100
0000
0010
0100
0001
0000
0100
0000
,
0010
1000
0001
1000
0001
0000
1000
0000
0001
0000
0010
0001
0100
0001
0010
0000
,
0001
0000
1000
0010
0100
0010
1000
0000
0010
0000
0100
0010
0000
0010
1000
0000
,
0001
0010
0100
1000
0001
0000
0100
0000
0210
0000
0000
0310
1000
0000
0001
0010
,
0002
0000
0000
1003
0010
0000
1000
0100
2000
0000
0000
3100
0010
0000
0100
1000
,
0002
0000
0000
0103
0010
0000
0100
0001
0100
0000
0001
0010
0100
0000
0010
0000
,
0012
0000
0000
1003
0001
0000
0100
0010
0100
0000
0001
1000
0100
0000
1000
0001
,
0010
0000
0001
1000
0010
0000
1000
0100
2000
0000
0000
3001
0100
0000
0001
0000
,
0201
0000
0000
0301
0100
0000
0001
0000
0012
0000
0000
0013
0001
0000
1000
0000
,
2001
0000
0000
3001
1000
0000
0010
1000
0010
0000
0100
0001
0010
0000
0001
0100
,
0001
0000
0000
0001
1000
0000
0001
0000
1000
0100
0001
0100
1000
0000
0001
0010
,
1000
0010
0001
0000
1000
0001
1000
0001
2000
0000
0000
0000
3020
0000
0000
0000
,
0032
0000
1003
0100
0002
0000
0103
1000
,
0020
0000
0000
0000
0130
0000
0001
0000
0000
1000
0002
0000
0000
0000
0000
0000
,
0000
0000
0000
0000
,
0003
0000
0000
0000
;
