#TITLE:four pieces of heaven;
#ARTIST:Lion;
#BANNER:four pieces of heaven.png;
#BACKGROUND:four pieces of heaven-bg.png;
#JACKET:four pieces of heaven-jacket.png;
#CDTITLE:./CDTITLES/BEATMANIA IIDX.PNG;
#MUSIC:four pieces of heaven.ogg;
#SAMPLESTART:32.615;
#SAMPLELENGTH:15;
#DISPLAYBPM:125:195;
#BPMS:0=195,188=175,204=168,212=160,216=135,220=125,228=130,236=135,244=140,252=145,260=150,268=160,272=170,276=180,280=195;

//---------------dance-single - t7r----------------
#NOTES:
     dance-single:
     t7r:
     Beginner:
     3:
     :
0000
0000
0000
0000
,
0000
0000
0000
0000
,
0000
0000
0000
0000
,
0000
0000
0000
0000
,
0000
0000
0000
0000
,
0000
0000
0000
0000
,
0000
0000
0000
0001
,
0001
0001
0000
0000
,
0000
0000
0000
1000
,
1000
0000
0000
0000
,
0000
0000
0000
0010
,
0010
0000
0000
0000
,
0000
0000
0000
0100
,
0100
0000
0000
0000
,
0000
0000
0000
0001
,
0001
0001
0000
1000
,
0000
0001
0000
0100
,
0000
0010
0000
1000
,
0000
0001
0000
1000
,
0000
0100
0000
0010
,
0000
0001
0000
0010
,
0000
0100
0000
1000
,
0000
0100
0000
1000
,
1000
0000
0000
0000
,
0001
0000
0000
0000
,
0100
0000
0000
0000
,
0010
0000
0100
0000
,
0010
0010
0000
1000
,
0000
0001
0000
0100
,
0000
0001
0000
1000
,
0000
0100
0000
0010
,
0000
0001
0000
0010
,
0000
0100
0000
1000
,
0000
0100
0000
0001
,
0000
0100
0000
1000
,
1000
0000
0010
0000
,
0100
0000
0001
0000
,
0100
0000
0001
0000
,
1000
0000
0001
0000
,
0010
0000
0100
0000
,
1000
0000
0100
0000
,
0010
0000
0001
0000
,
0100
0000
0010
0000
,
1000
0000
0000
0000
,
0000
0000
0001
0001
,
0001
0000
0000
0000
,
0000
0000
0000
0000
,
0010
0000
0000
0000
,
0100
0000
0000
0000
,
0010
0000
0000
0000
,
0100
0000
0000
0000
,
0010
0000
0000
0000
,
0000
0000
0000
0000
,
1000
0000
0000
0000
,
0000
0000
0000
0000
,
0001
0000
0000
0000
,
0001
0000
0000
0000
,
0100
0000
0000
0000
,
0010
0000
1000
0000
,
0001
0000
0000
1000
,
1000
0000
0000
0001
,
0001
0000
0000
0000
,
0100
0000
0010
0000
,
1001
0000
0000
0000
,
0000
0000
0000
0000
,
0000
0000
0000
0000
,
0000
0000
0000
0100
,
0100
0000
0000
0000
,
0000
0000
0000
0000
,
0010
0000
1000
0000
,
0001
0000
0100
0000
,
0000
0001
0000
1000
,
0000
0001
0000
0100
,
0000
0001
0000
0010
,
0000
0100
0000
1000
,
0000
0100
0000
0010
,
0000
0001
0000
0010
,
0000
0001
0000
0100
,
0000
0010
0000
1000
,
1000
0000
0001
0000
,
0100
0000
0001
0000
,
1000
0000
0010
0000
,
1000
0000
0100
0000
,
0010
0000
0000
0001
,
0001
0000
0000
1000
,
1000
0000
0001
0000
,
0100
0000
0000
0000
;

//---------------dance-single - t7r----------------
#NOTES:
     dance-single:
     t7r:
     Easy:
     8:
     :
0000
0000
0000
0000
,
0000
0000
0000
0000
,
0000
0000
0000
0000
,
0000
0000
0000
0000
,
0000
0000
0000
0000
,
0000
0000
0000
0000
,
0000
0000
0000
1000
,
0001
1000
0001
0010
,
0100
1000
0100
0110
,
0010
0001
0100
0010
,
1000
0010
0100
0110
,
1000
0001
0100
0001
,
1000
0100
0010
0011
,
0001
0010
0100
1000
,
0100
0010
0001
0011
,
0100
0010
1000
0001
,
0100
0010
1000
1001
,
0100
0010
1000
0100
,
0010
0001
0100
0101
,
0001
1000
0010
1000
,
0100
1000
0010
0110
,
0010
0100
0001
1000
,
0001
0100
0001
1000
,
0100
0110
0000
0000
,
0010
0000
0001
0000
,
0100
0110
0000
0000
,
0010
1000
1000
0000
0001
0100
0100
0000
,
0001
0010
0100
1000
,
0100
0010
0001
0101
,
1000
0010
0100
0001
,
1000
0100
0010
1100
,
0001
0100
0001
1000
,
0010
0100
0001
0110
,
0001
0010
0100
1000
,
0100
0010
1000
0110
,
0010
0001
0100
0010
,
1000
0010
0110
1001
,
0100
0010
1000
0100
,
0010
0001
0101
0011
,
0001
1000
0010
0100
,
0010
1000
1010
1100
,
1000
0100
0010
0001
,
0100
0010
1010
0101
,
2002
0000
0000
0000
,
0000
0000
3003
0100
,
0110
0202
0000
0000
,
0000
0000
0000
0303
,
2000
0000
0000
3000
,
0200
0000
0000
0300
,
0020
0000
0032
0000
,
0023
0000
0230
0000
,
1300
0000
0100
0000
,
1000
0000
0010
0000
,
0100
0000
0001
0000
,
1000
0001
1000
0001
,
0100
0000
0010
1000
,
0001
0000
1000
0100
,
0010
0000
0001
0010
,
1001
0000
1000
0010
,
0100
0000
0010
0100
,
0001
0000
1000
0001
,
0100
0000
0001
1000
,
1100
0000
0010
0001
,
0101
0000
0010
1000
,
1001
0000
1000
0001
,
0101
0000
0010
0100
,
0110
0000
0010
1000
,
1001
0000
1000
1100
,
0110
0000
0010
0101
,
0110
0000
0010
1000
,
0001
0100
0001
1001
,
0001
0100
0001
1000
,
0001
0100
0001
0010
,
0100
0010
0001
0010
,
0100
0000
1000
0000
0100
1000
0100
0000
,
0010
0001
0100
0010
,
1000
0010
0100
0001
,
1000
0001
0100
0001
,
1000
0000
0010
0000
0100
0010
0100
0000
,
0010
1000
0001
0101
,
0010
1000
0001
1100
,
1000
0100
0010
0110
,
0010
0000
0100
0000
0001
1000
0100
0000
,
1000
0100
0100
0000
1000
0001
0001
0000
,
0001
0100
0100
0000
0001
1000
1000
0000
,
0010
0100
0100
0000
0010
1000
0001
0000
,
0220
0000
0000
0000
,
0000
0000
0000
0000
,
0000
0000
0000
0000
,
0330
0000
0000
0000
;

//---------------dance-single - t7r----------------
#NOTES:
     dance-single:
     t7r:
     Medium:
     12:
     :
0000
0000
0000
0000
,
0000
0000
0000
0000
,
0000
0000
0000
0000
,
0000
0000
0000
0000
,
0000
0000
0000
0000
,
0000
0000
0000
0000
,
0000
0000
0000
1001
,
0010
0100
0001
0000
0001
0100
0010
0000
,
1000
0010
0100
0000
1001
0000
0110
0000
,
1000
0001
0100
0000
0001
1000
0100
0000
,
1000
0010
1000
0000
0101
0000
1010
0000
,
0010
0100
0001
0000
1000
0001
0100
0000
,
0001
0010
0100
0000
1100
0000
0011
0000
,
0010
0001
0100
0000
0001
1000
0010
0000
,
1000
0010
0100
0001
0100
0000
1001
0000
,
0110
0000
1000
0000
0001
1000
0100
0000
,
1000
0010
1000
0001
0100
0000
0101
0000
,
0001
0000
0011
0000
0001
0010
0100
0000
,
0001
1000
0001
0100
0001
0000
1010
0000
,
0100
0000
1001
0000
1000
0001
1000
0000
,
0001
1000
0001
0010
0100
0000
1100
0000
,
1000
0000
1010
0000
0010
1000
0001
0000
,
0100
0001
1000
0001
0100
0001
0100
0001
,
0010
0000
0100
0020
0000
0000
0000
0000
,
0031
0000
1000
0000
0001
0000
1000
0001
,
0100
2002
0000
3003
,
0001
0000
0010
0100
0000
1000
0001
0000
0010
0100
0000
1000
,
0001
0100
0001
0000
1000
0010
1000
0000
,
0001
1000
0100
0000
1001
0000
0110
0000
,
0010
1000
0100
0000
1000
0001
0100
0000
,
0001
0100
0010
0000
0110
0000
1001
0000
,
0001
0010
0001
0000
1000
0100
1000
0000
,
0010
1000
0001
0000
1001
0000
0101
0000
,
0001
0100
1000
0000
1000
0100
0001
0000
,
0001
0100
1000
0100
0001
0000
1001
0000
,
0001
0000
0011
0000
1000
0010
0100
0000
,
0001
1000
0100
0000
1000
0000
1001
0000
,
0010
0000
1100
0000
1000
0001
0100
0000
,
0001
0100
0010
0100
0001
0000
0110
0000
,
1000
0000
1001
0000
0001
1000
0100
0000
,
1000
0100
0001
0100
1000
0000
1100
0000
,
0010
0000
0011
0000
0001
0010
0001
0000
,
1000
0010
0001
0010
1000
0000
0001
0000
,
2002
0000
0000
0000
,
0000
3003
0010
0110
,
2002
0000
0000
0000
,
0000
0000
0000
3003
,
2000
0000
0000
3000
,
0002
0000
0000
0003
,
2000
0000
3020
0000
,
0230
0000
0302
0000
,
1003
0001
1000
0001
,
0100
0010
0100
0010
,
1000
0010
0100
0001
,
1000
0100
0010
0001
,
1001
1000
0001
0100
0001
0000
0000
0000
,
0100
0010
0001
0010
0100
0000
1001
0000
,
1010
0010
0100
0001
0100
0000
0000
0000
,
0001
0200
0000
0301
1000
0010
1000
0001
,
0200
0000
0000
0300
,
0020
0000
0000
0030
,
2000
0000
0000
3000
,
0002
0000
0000
0000
0000
0000
0000
0000
0003
0000
0000
0000
1001
0000
0000
0100
,
0001
1000
0001
1000
0001
0100
0001
0010
,
0100
1000
0100
0001
0100
1000
0100
0001
,
0100
0010
0001
0010
0100
1000
0100
1000
,
0010
0001
0010
1000
0010
0001
0010
1000
,
0010
1000
0100
0000
0010
0001
0100
0000
,
0001
1000
0010
0000
1000
0001
0100
0000
,
0001
0100
0010
0000
0110
0000
1001
0000
,
1000
0100
0010
0001
1000
0000
1001
0000
,
0001
0100
0001
0000
1000
0001
0100
0000
,
0001
0010
1000
0000
1000
0010
0001
0000
,
0001
1000
0100
0000
1000
0001
0100
0000
,
1000
0100
0001
0000
0001
0100
1000
0000
,
0001
0100
0010
0000
1000
0010
1000
0000
,
1000
0100
0010
0000
0001
0010
0001
0000
,
0001
0100
1000
0000
0001
0010
1000
0000
,
1000
0010
0001
0100
1000
0100
0001
0100
,
1000
0100
1000
0001
0100
0001
1000
0001
,
0010
0001
0100
0001
1000
0010
0100
0001
,
0100
0010
1000
0010
1000
0100
0010
0001
,
0010
0001
0100
0010
0001
0010
0100
1000
,
0100
1000
0100
0010
1000
0001
0100
0001
,
1000
0100
0010
0001
1000
0100
1000
0001
,
0100
0001
1000
0010
0100
0001
1000
0100
,
0220
0000
0000
0000
,
0000
0000
0000
0000
,
0000
0000
0000
0000
,
0330
0000
0000
0000
;

//---------------dance-single - t7r----------------
#NOTES:
     dance-single:
     t7r:
     Hard:
     13:
     :
0000
0000
0000
0000
,
0000
0000
0000
0000
,
0000
0000
0000
0000
,
0000
0000
0000
0000
,
0000
0000
0000
0000
,
0000
0000
0000
0000
,
0110
0000
0000
1001
,
0010
0100
0001
0100
0010
1000
0100
0010
,
0100
1000
0010
1000
1010
0000
0101
0000
,
1000
0100
0010
0001
0100
0010
1000
0001
,
0100
0001
1000
0010
0110
0000
1001
0000
,
0001
0100
0001
1000
0010
1000
0100
0010
,
0100
1000
0001
0100
0101
0000
0011
0000
,
1000
0010
1000
0001
0100
0001
1000
0010
,
0100
0001
1000
0100
0110
0000
0101
0000
,
1000
0100
0001
0100
1000
0100
0001
0100
,
1000
0010
0001
0010
0011
0000
1100
0000
,
0010
0100
0001
0100
0010
0100
1000
0100
,
0010
0100
0001
0100
0101
0000
1010
0000
,
1000
0100
0010
0001
1000
0100
0001
0100
,
1000
0100
0010
0100
1100
0000
1001
0000
,
0010
1000
0001
0100
0010
1000
0100
1000
,
0010
1000
0001
0100
0110
0000
1001
0000
,
1100
0000
1000
0002
0000
0000
0000
0000
,
0103
0010
1000
0001
0100
0010
1000
0001
,
0010
2200
0000
3300
,
0001
0010
0001
0100
0001
0100
0001
1000
0001
1000
0010
0100
,
0010
0000
1000
0000
0001
0000
0000
0100
0001
0000
1000
0000
0010
0000
0100
0000
,
0001
1000
0100
0010
0110
0000
1100
0000
,
1000
0000
0001
0000
0100
0000
0000
0001
0010
0000
0001
0000
0100
0000
0010
0000
,
1000
0010
0100
0001
0011
0000
1001
0000
,
1000
0000
0010
0000
1000
0000
0000
0010
0100
0000
0001
0000
1000
0000
0100
0000
,
0010
0100
1000
0001
1001
0000
0110
0000
,
0010
0000
0100
0000
0001
0000
0000
0100
0001
0000
1000
0000
0010
0000
0100
0000
,
0010
1000
0100
0010
0110
0000
1001
0000
,
0001
0000
0010
0000
0001
0000
0000
0001
0100
0000
0001
0000
1000
0000
0000
1000
,
0010
0100
0001
1000
1100
0000
1001
0000
,
0100
0000
0010
0000
1000
0000
0000
1000
0010
0000
0100
0000
0001
0000
0000
0001
,
0100
0001
1000
0100
0110
0000
0011
0000
,
0001
0000
0010
0000
0001
0000
0000
0001
0100
0000
0001
0000
1000
0000
0000
1000
,
0010
1000
0001
0100
1100
0000
0101
0000
,
1000
0000
0100
0000
0010
0000
0000
0010
0100
0000
1000
0000
0001
0000
0000
0001
,
0100
1000
0100
0001
0101
0000
1010
0000
,
0010
0100
0001
2000
0000
0000
0000
0000
,
0000
0000
0000
0000
3001
0100
0010
0000
,
0110
0010
0100
0002
0000
0000
0000
0000
,
0000
0000
0000
0003
,
0200
0000
0000
0300
,
0020
0000
0000
0030
,
2000
0000
3200
0000
,
0320
0000
0032
0000
,
1003
0000
1000
0100
0000
0100
0010
0000
0010
0001
0000
0001
,
1000
0000
1000
0010
0000
0010
0100
0000
0100
0001
0000
0001
,
0100
0000
0100
0010
0000
0010
1000
0000
1000
0001
0000
0001
,
0010
0000
1000
0100
0000
0001
0100
0000
1000
0001
0000
0001
,
0100
0010
1000
0001
0100
0000
0101
0000
,
0011
0001
0010
0100
1000
0000
1100
0000
,
1010
0010
1000
0010
0001
0000
1010
0000
,
1100
0200
0001
0310
1000
0010
0100
0001
,
0201
0001
0010
1000
0301
0000
0110
0000
,
2001
0001
0010
0001
3100
0000
1010
0000
,
0012
0010
1000
0100
0013
0000
0101
0000
,
2010
0000
0010
0000
0001
0000
0010
0000
3100
0000
1000
0000
0010
0100
0000
0100
,
0010
1000
0010
0100
0001
1000
0100
0010
,
0001
0010
0100
1000
0100
1000
0010
0100
,
0001
0100
1000
0100
0001
0010
1000
0010
,
0001
0000
0100
0000
1000
0000
0100
0000
0001
0000
0010
0000
1000
0010
0000
0010
,
0001
0100
0010
1000
0010
1000
0100
0010
,
0100
1000
0100
1000
0001
0100
0001
0100
,
0010
1000
0001
0100
0010
0100
0001
1000
,
0100
0010
0001
0010
0100
0000
0110
0000
,
1000
0010
0100
0001
0100
0010
1000
0010
,
0100
0001
1000
0100
0010
0001
0010
0100
,
1000
0100
0001
0100
1000
0010
0001
0010
,
1000
0100
0010
0001
1000
0100
0010
0001
,
1000
0010
0100
0001
0100
0001
1000
0010
,
1000
0010
1000
0001
0100
0001
0010
0001
,
0100
0010
1000
0100
0010
0001
0100
0010
,
1000
0010
0100
0001
1000
0001
0100
0001
,
1000
0000
0100
0000
0010
0000
0000
0100
0010
0000
0001
0000
0100
0000
0000
0010
,
1000
0000
0010
0000
1000
0000
0000
0001
1000
0000
0001
0000
0100
0000
0000
0001
,
0010
0000
0100
0000
1000
0000
0000
0100
0010
0000
0001
0000
0100
0000
0000
0010
,
1000
0001
0100
0001
1000
0010
0100
0001
,
1000
0000
0100
0000
0001
0000
0000
0100
0001
0000
0100
0000
1000
0000
0000
0000
,
1000
0000
0010
0000
0001
0000
0000
0010
1000
0000
0010
0000
0001
0000
0000
0000
,
1000
0100
0110
0000
0001
0100
1010
0000
,
2002
0000
0000
0000
,
0000
0000
0000
0000
,
0000
0000
0000
0000
,
3003
0000
0000
0000
;

//---------------dance-single - t7r----------------
#NOTES:
     dance-single:
     t7r:
     Challenge:
     16:
     :
0000
0000
0000
0000
,
0000
0000
0000
0000
,
0000
0000
0000
0000
,
0000
0000
0000
0000
,
0000
0000
0000
0000
,
0000
0000
0000
0000
,
0110
0000
0000
1001
,
0010
0000
1000
0000
0100
0000
1000
0010
0100
0000
0001
0000
0010
0000
0001
1000
,
0010
0000
1000
0000
0100
0000
1000
0010
1000
0000
0100
0000
0001
0000
0100
0000
,
1000
0000
0010
0000
0100
0000
0001
0010
0100
0000
0010
0000
0001
0000
0100
0001
,
0010
0000
0001
0000
1000
0000
0001
1000
0001
0000
0010
0000
1000
0000
0010
0000
,
0001
0000
0100
0000
0010
0000
0100
0001
1000
0000
0010
0000
1000
0000
0100
0010
,
0001
0000
1000
0000
0010
0000
1000
0001
1000
0000
0100
0000
0001
0000
0100
0000
,
1000
0000
0010
0000
0100
0000
0001
0010
0100
0000
0010
0000
0001
0000
1000
0010
,
0100
0000
0010
0000
1000
0000
0001
0010
0001
0000
0010
0000
1000
0000
0010
0000
,
0001
0000
0100
0000
0010
0000
0100
0001
1000
0000
0001
0000
0010
0000
0001
1000
,
0100
0000
1000
0000
0010
0000
0100
0010
1000
0000
0010
0000
0110
0000
0010
0000
,
1000
0000
0100
0000
0010
0000
0001
0100
0010
0000
0100
0000
0001
0000
1000
0001
,
0010
0000
0001
0000
1000
0000
0001
0010
0100
0000
0010
0000
0011
0000
0001
0000
,
1000
0000
0001
0000
0100
0000
0010
1000
0001
0000
0010
0000
0001
0000
0100
0001
,
1000
0000
0001
0000
0010
0000
0100
0010
0001
0000
0100
0000
0110
0000
0010
0000
,
0100
0000
0001
0000
0010
0000
0001
1000
0100
0000
1000
0000
0001
0000
0010
0001
,
1000
0000
0001
0000
1000
0000
0100
1000
0010
0000
0100
0000
0110
0000
0010
0000
,
1000
0010
0100
0001
0000
0000
0000
0010
,
0010
0000
1001
0000
0100
0010
1000
0001
,
0100
0220
0000
0330
,
0001
0010
0001
1000
0010
1000
0001
0100
0001
1000
0100
1000
,
0001
0000
0010
0000
0100
0000
1000
0010
0100
0010
1000
0000
0001
0000
1000
0001
,
0100
0000
0001
0000
1000
0000
0001
0010
0100
0000
0010
0000
0011
0000
0001
0000
,
1001
0000
0001
0000
0100
0000
0010
1000
0001
1000
0010
0000
1000
0000
0100
0010
,
0001
0000
0100
0000
0010
0000
1000
0010
0100
0000
0010
0000
1010
0000
1000
0000
,
1001
0000
1000
0000
0100
0000
0010
0001
1000
0001
0010
0000
0001
0000
0100
0010
,
1000
0000
0010
0000
0100
0000
0001
0010
0100
0000
0010
0000
0011
0000
0001
0000
,
1001
0000
0001
0000
0100
0000
0001
0010
0100
0010
0001
0000
1000
0000
0001
1000
,
0100
0000
1000
0000
0010
0000
0100
0010
1000
0000
0010
0000
1010
0000
1000
0000
,
1001
0000
0100
0000
0010
0000
0100
1000
0001
1000
0100
0000
1000
0000
0010
0100
,
0001
0000
0010
0000
0001
0000
1000
0001
0100
0000
0001
0000
0101
0000
0001
0000
,
1001
0000
0001
0000
0010
0000
0100
0010
0001
0010
0100
0000
1000
0000
0010
1000
,
0001
0000
0100
0000
0010
0000
1000
0010
0100
0000
0010
0000
0110
0000
0010
0000
,
1001
0000
1000
0000
0100
0000
1000
0010
0100
0001
1000
0000
0001
0000
0010
0100
,
1000
0000
0100
0000
0010
0000
0001
0100
0010
0000
0100
0000
0110
0000
0100
0000
,
1001
0000
0010
0000
0100
0000
1000
0001
0100
0000
0001
0000
1000
0000
0001
1000
,
0010
0000
0100
0000
0010
0000
1000
0100
0010
0001
0010
0001
1000
0001
0100
0010
,
1000
0000
0000
0000
,
0000
0000
0000
0000
0001
0010
1000
0010
,
0001
0000
0000
0000
,
0000
0000
0000
0000
,
2000
0000
0000
0000
,
3002
0000
0000
0000
,
0203
0000
0320
0000
,
2030
0000
3002
0000
,
1003
0100
0010
0001
0000
0001
0010
0100
1000
0001
0000
0001
,
1000
0010
0100
0001
0000
0001
0100
0010
1000
0001
0000
0001
,
1000
0100
0001
0100
0000
0100
1000
0001
1000
0010
0000
0010
,
1000
0010
0001
0010
0000
0010
1000
0100
0010
0001
0010
0100
,
1000
0100
0001
0100
1000
0010
0120
0000
,
1030
0010
0001
0010
1000
0001
1002
0000
,
0013
0001
0100
0001
0010
0100
2100
0000
,
3010
0200
0001
0310
1000
0100
0010
0001
,
1000
0010
0110
0010
1010
1000
0002
0000
,
0013
0001
0101
0001
1000
0010
0200
0000
,
0310
1000
1100
0100
0010
0100
2000
0000
,
3001
0000
0010
0000
0110
0000
0010
0000
0001
0000
0100
0000
0001
0010
0100
1000
,
0001
0000
0010
0001
0010
0000
0001
0100
0002
0000
1000
0000
0023
0000
1000
0000
,
0031
0000
1000
0100
1000
0000
0001
1000
0020
0000
1000
0000
0230
0000
0001
0000
,
0310
0000
0100
0001
1000
0000
0001
0010
0200
0000
1000
0000
0320
0000
0001
0000
,
1030
0000
0100
1000
0100
0000
0010
0100
2000
0000
0010
0000
3001
0010
0100
1000
,
0001
0010
0001
0010
0001
0000
1000
0000
0010
0100
0010
0100
0010
0000
1000
0000
,
0100
0010
0100
0010
0100
0000
1000
0000
0010
1000
0001
1000
0010
0000
1000
0000
,
0001
0010
0001
0010
0100
1000
0100
1000
0001
0100
0001
0100
0010
1000
0010
1000
,
0001
0000
0010
0100
1000
0000
0100
0000
0010
0000
0001
0000
0101
0000
0000
0000
,
0010
1000
0010
0000
1000
0000
0001
0010
0001
0000
1000
0000
0100
0000
0010
0000
,
0001
0100
0001
0000
1000
0000
0010
1000
0010
0000
0100
0000
0010
0000
1000
0000
,
0100
0010
0100
0000
1000
0000
0100
0010
0100
0000
0010
0000
0001
0000
0100
0000
,
0010
0100
0010
0000
0100
0000
0001
1000
0001
0000
0010
0000
0001
0000
1000
0000
,
0001
0010
0100
0000
0010
0000
0001
1000
0010
0000
1000
0000
0010
0000
0100
0000
,
0010
1000
0001
0000
1000
0000
0100
1000
0001
0000
1000
0000
0100
0000
0010
0000
,
0100
1000
0010
0000
0100
0000
0001
0010
0100
0000
0010
0000
0001
0000
0100
0000
,
0010
1000
0010
1000
0001
0100
0001
0100
0002
0000
0000
0000
1003
0000
0000
0000
,
1001
0000
0010
0100
0001
0000
0100
0010
1000
0010
0000
1000
0001
0000
1000
0100
,
0010
0000
0001
0010
0100
0000
0010
0001
1000
0010
0000
0100
0010
0000
1000
0100
,
0010
0000
0100
1000
0010
0000
0100
0001
0010
0001
0000
0100
0001
0000
1000
0001
,
0100
0000
0001
0010
0100
0000
0010
0001
0100
0010
0000
1000
0010
0000
1000
0000
,
1001
0000
0010
0100
1000
0000
0100
0000
0010
0001
0000
0100
0001
0000
0000
0000
,
1001
0000
0010
0100
0001
0000
0100
0000
0010
1000
0000
0001
1000
0000
0000
0000
,
1001
0000
1000
0001
0100
0000
0001
0000
1000
0100
1000
0100
0001
0100
1000
0000
,
0220
0000
0000
0000
,
0000
0000
0000
0000
,
0000
0000
0000
0000
,
0330
0000
0000
0000
;
