#TITLE:WAR GAME;
#ARTIST:ASLETICS;
#BANNER:WAR GAME.png;
#BACKGROUND:WAR GAME-bg.png;
#JACKET:WAR GAME-jacket.png;
#CDTITLE:./CDTITLES/BEATMANIA IIDX.PNG;
#MUSIC:WAR GAME.ogg;
#SAMPLESTART:64.516;
#SAMPLELENGTH:15;
#BPMS:0=93;

//---------------dance-single - t7r----------------
#NOTES:
     dance-single:
     t7r:
     Beginner:
     1:
     :
0000
0000
0000
0000
,
0000
0000
0000
0000
,
0000
0000
0000
0000
,
0000
0000
0000
0000
,
0000
0000
0000
0000
,
1000
0000
0001
0000
,
0100
0000
0010
0000
,
1000
0000
0001
0000
,
0100
0000
0001
0000
,
1000
0000
0100
0000
,
0010
0000
0001
0000
,
1000
0000
0100
0000
,
1000
0000
0001
0000
,
0100
0000
0010
0000
,
1000
0000
0001
0000
,
1001
0000
0010
0000
,
0100
0000
0010
0010
,
0010
0000
0000
0000
,
0100
0000
0000
0000
,
0001
0000
0000
0000
,
1000
0000
0000
0000
,
0001
0000
1000
0000
,
0001
0000
0100
0000
,
0010
0000
1000
0000
,
0010
0000
0100
0000
,
0001
0000
1000
0000
,
0100
0000
1000
0000
,
0010
0000
1000
0000
,
0001
0000
0100
0000
,
1001
0000
0010
0000
,
0100
0000
0001
0000
,
1001
0000
0010
0000
,
0100
0000
1000
0000
,
0100
0000
0010
0010
,
0010
0000
0100
0100
,
0100
0000
1000
1000
,
1000
0000
0001
0001
,
0001
0000
0001
0000
,
0001
0000
0001
0000
,
0001
0000
0001
0000
,
1001
0000
0000
0000
,
1000
1000
1000
0000
,
0001
0001
0001
0000
,
0100
0100
0100
0000
,
0010
0010
0010
0000
,
1000
0000
0001
0000
,
0100
0000
0010
0000
,
1000
0000
0001
0001
;

//---------------dance-single - t7r----------------
#NOTES:
     dance-single:
     t7r:
     Easy:
     5:
     :
0000
0000
0000
0000
,
0000
0000
0000
0000
,
0000
0000
0000
0000
,
0000
0000
0000
0000
,
0000
0000
0000
0000
,
0010
1000
0001
0100
,
0001
0100
0010
1000
,
0010
1000
0100
0010
,
0000
0100
0010
0100
,
1001
1000
0001
0100
,
0001
0010
1000
0001
,
1000
0010
0001
1000
,
0001
0100
0010
1000
,
1001
0000
0110
0000
,
0010
1000
0001
0100
,
0110
0000
1001
0000
,
1000
0100
0010
0001
,
2000
0000
0000
3000
,
0200
0000
0000
0300
,
0002
0000
0000
0003
,
0020
0000
0000
0030
,
1001
0001
0100
0001
,
1000
0010
1000
0100
,
1000
0001
0100
0010
,
1000
0010
0100
0001
,
1001
0001
0100
0001
,
1000
0100
0001
0100
,
1001
1000
0010
1000
,
0001
0010
1000
0010
,
0110
0010
0100
0001
,
0010
0001
0010
1000
,
0110
0100
0010
1000
,
0100
1000
0100
0001
,
1100
0100
1000
1000
,
0001
0100
0001
0001
,
1000
0010
1000
1000
,
0001
0010
0001
0001
,
2000
0010
0100
3001
,
0002
0010
0100
1003
,
0200
0010
1000
0301
,
2002
0000
0000
3003
,
0110
0000
1001
0000
,
0010
1000
0001
0100
,
0101
0000
1001
0000
,
1000
0010
0100
0001
,
1001
0100
1001
0010
,
1001
0010
0100
1000
,
0200
0000
0300
0000
0010
0010
0010
0010
;

//---------------dance-single - t7r----------------
#NOTES:
     dance-single:
     t7r:
     Medium:
     7:
     :
0000
0000
0000
0000
,
0000
0000
0000
0000
,
0000
0000
0000
0000
,
0000
0000
0000
0000
,
0000
0000
0000
0000
,
0001
0000
1000
0000
0001
1000
0010
0000
,
1000
0000
0001
0000
1000
0001
0100
0000
,
0001
0000
0100
0000
0010
0100
0001
0000
,
0000
1000
1000
0000
0100
0010
0001
0000
,
1001
0000
0100
0000
1000
0100
1000
0000
,
0001
0000
0100
0000
0001
0100
0001
0000
,
1000
0000
0010
0000
1000
0010
0001
0000
,
0001
0000
0010
0000
0001
0010
1000
0000
,
1001
0000
0010
0100
1001
0000
0100
0010
,
1001
0001
0100
0001
,
1001
0000
0100
0010
1001
0000
0010
0100
,
1001
1000
0001
1000
,
2002
0000
0000
3003
,
0020
0000
0000
0030
,
0200
0000
0000
0300
,
0020
0000
0000
0030
,
1001
0001
0100
0000
0001
1000
0001
0000
,
1000
1000
0100
0000
1000
0001
1000
0000
,
0010
1000
0010
0000
0100
0100
0001
0000
,
0010
0001
0010
0000
0100
0100
1000
0000
,
1010
0100
0001
0000
1010
0100
0001
0000
,
0010
1000
0100
0000
0010
0001
0100
0000
,
0011
0100
1000
0000
0011
0100
1000
0000
,
0010
1001
0000
0110
0000
1001
0000
0010
,
1001
0100
0001
0000
1100
0001
0100
0000
,
0001
0010
0100
0000
1000
0010
0100
0000
,
1010
0001
0010
0000
0101
1000
0100
0000
,
1000
0101
0000
1100
0000
1001
0000
0010
,
1001
0001
1000
0001
0100
0001
0100
0000
,
0010
0010
1000
0100
0010
0100
1000
0000
,
0100
0100
1000
0010
0100
0001
1000
0000
,
1000
1000
0010
1000
0001
0100
0001
1000
,
0002
0010
0100
1003
,
2000
0100
0010
3001
,
0020
0100
0001
1030
,
2002
0000
0000
0000
0000
0000
3003
0010
,
0100
0100
0010
0000
1000
1000
0001
0000
,
1000
0100
0010
0000
0001
0010
0100
0000
,
0001
0001
0010
0000
0100
0100
1000
0000
,
0010
1000
0001
0100
0001
1000
0001
0000
,
1001
0001
0100
0000
0010
0010
1000
0000
,
0100
0010
0100
1000
0010
0001
0010
1000
,
0200
0000
0000
0000
0300
0000
0000
0000
0010
0000
0010
0000
0100
0000
1000
0001
;

//---------------dance-single - t7r----------------
#NOTES:
     dance-single:
     t7r:
     Hard:
     9:
     :
0000
0000
0000
0000
,
0000
0000
0000
0000
,
0000
0000
0000
0000
,
0000
0000
0000
0000
,
0000
0000
0000
0000
,
0010
1000
0001
0001
0100
0001
1000
1000
,
0001
0010
0100
0100
0010
0001
0100
0100
,
1000
0100
0001
0001
0100
0010
1000
1000
,
0000
0001
0001
1000
0001
1000
0010
0100
,
1001
1000
0100
0100
1000
0010
0100
0001
,
0100
0100
0010
0010
1000
0010
1000
0100
,
1000
1000
0001
0001
1000
0010
0001
0010
,
1000
1000
0100
0100
0001
0100
1000
0100
,
1001
0010
0100
0001
0100
0010
1000
0001
,
1000
0100
0010
0001
1000
0100
0001
0100
,
1001
0010
0100
0010
1000
0010
0100
0001
,
1000
0010
0001
0010
1000
0100
0010
0001
,
2002
0000
0000
3003
,
0010
1000
0001
0000
1000
0001
0100
0100
,
0001
1000
0010
1000
0100
0010
0001
0001
,
0010
0100
1000
0100
1000
0010
0101
0000
,
0001
0001
1000
0010
0010
1000
0100
0100
,
1000
1000
0100
1000
1000
0010
0100
0100
,
0001
0001
1000
0001
0001
0010
1000
1000
,
0010
0010
0001
0100
0100
1000
0100
0001
,
1001
0010
1000
0010
0001
0100
1000
0100
,
0001
0100
0010
1000
0001
0010
0100
1100
,
1001
0100
0010
1000
0010
0100
0001
1000
,
0001
0010
0100
1000
0001
0010
0100
0011
,
1001
0010
1000
0010
0100
0001
1000
0001
,
1000
0100
0010
0100
1000
0100
0001
0101
,
0110
0010
1000
0001
0100
0001
1000
0001
,
0010
0100
1000
0100
0010
0001
1000
0010
,
0110
0010
1000
0001
0001
1000
0100
0100
,
1000
1000
0100
1000
1000
0010
1000
1000
,
0001
0001
0100
0001
0001
0010
0001
0001
,
1000
0001
0100
0010
1000
0001
0100
0010
,
2001
0010
0001
3100
,
0002
0100
0010
1003
,
0200
0010
0001
1300
,
2002
0000
0000
0000
0000
0000
3003
0010
,
1001
0001
1000
0010
0010
0100
0001
0001
,
1000
1000
0100
0010
0010
0100
1000
0001
,
1000
1000
0010
0100
0100
0001
0100
0010
,
0001
0001
0010
1000
1000
0100
0001
0100
,
1001
0000
0010
0100
0001
0000
1000
0000
1001
0000
0001
0010
0100
0000
1000
0000
,
1100
0000
0100
1000
0010
0000
0100
0000
0101
0000
0001
1000
0100
0000
1000
0000
,
0002
0000
1000
0000
1000
0000
1003
0000
0110
0000
1001
0000
0110
0000
1000
0001
;

//---------------dance-single - t7r----------------
#NOTES:
     dance-single:
     t7r:
     Challenge:
     14:
     :
0000
0000
0000
0000
,
0000
0000
0000
0000
,
0000
0000
0000
0000
,
0000
0000
0000
0000
,
0000
0000
0000
0000
,
0010
1000
0100
0000
1100
0000
0100
0010
0001
0000
1001
0000
0001
0100
0001
1000
,
0100
0010
0001
0000
1010
0000
0010
1000
0100
0000
1100
0000
1000
0100
0010
0001
,
0010
0100
1000
0000
1001
0000
0100
0010
1000
0000
0101
0000
1000
0100
0001
0000
,
0000
0000
1000
0000
1001
0000
0001
1000
0001
0000
1001
0000
1000
0010
0100
0000
,
1000
0001
1000
0000
1001
0000
0001
0100
0001
0000
1010
0000
1000
0100
0010
0100
,
1000
0100
0001
0000
1100
0000
0001
0100
1000
0000
0101
0000
1000
0001
0100
0001
,
1000
0001
1000
0000
1001
0000
1000
0010
0001
0000
1010
0000
0001
0010
1000
0000
,
0010
0000
0001
0001
0100
0000
1000
1000
0100
0000
1100
0000
0010
0100
1000
0100
,
0010
0000
0001
0100
0001
0010
0100
1000
0100
0010
0001
1000
0010
0100
0010
1000
,
0100
0010
0100
1000
0100
0010
0001
0100
0010
0000
0100
0001
1000
0010
1000
0001
,
1000
0100
0010
0001
0100
0000
0001
0010
0100
1000
0001
0010
0001
1000
0010
0100
,
0001
0000
1000
1000
0001
0000
1000
1000
0100
0000
0010
0010
0001
0010
0100
1000
,
0010
1000
0010
1000
0001
0100
0001
0100
0010
1000
0001
0100
0002
0000
1003
0000
,
0001
0010
0100
1000
0001
0010
0100
1000
0010
1000
0001
0100
0010
0100
0010
0100
,
0010
1000
0010
1000
0001
1000
0001
1000
0001
0010
0100
1000
0200
0000
0310
0000
,
0000
0000
1001
0000
1001
0000
0101
0000
1000
0000
0001
1000
0100
0000
1001
0000
,
0001
1000
0001
0000
1100
0000
1000
0001
1000
0000
0101
0000
0001
0100
0010
0000
,
1000
0010
0100
0000
0011
0000
0001
0010
0100
0000
1010
0000
1000
0100
0010
0000
,
0001
1000
0100
0000
1001
0000
1000
0001
0100
0000
1001
0000
0001
1000
0001
0000
,
0010
1000
0001
0000
1100
0000
0010
0001
1000
0000
0101
0000
0001
0100
1000
0100
,
0010
1000
0010
1000
0001
0100
0001
0010
0100
0010
0001
1000
0100
0010
0100
1000
,
0010
0100
0001
1000
0010
1000
0001
0010
0100
0000
0010
0001
1000
0100
0001
0100
,
1000
0010
0001
0010
1000
0000
1000
0100
0001
0100
1000
0010
0100
0001
0010
0100
,
0010
0001
1001
1000
0010
1000
1001
0001
0010
0001
1000
0100
0010
0100
1000
0010
,
0110
0000
0010
1000
0010
0100
0001
0010
0100
1000
0100
0010
0001
0010
1000
0010
,
0001
0100
1000
0100
0001
0010
0100
1000
0100
0000
0010
0001
1000
0010
0001
0010
,
1000
0100
0001
0100
1000
0000
1000
0010
0001
0010
1000
0100
0010
0001
0100
0010
,
1001
0000
0001
0001
1001
0000
1000
1000
1001
0000
0010
0010
1010
0001
0100
0001
,
0101
0001
1000
0000
1100
0000
1000
0001
1000
0000
1001
0000
0010
0100
0001
0000
,
1100
0100
1000
0000
0011
0000
0001
1000
0100
0000
1001
0000
1000
0010
0100
0010
,
0110
1000
0001
0000
1001
0000
0001
0010
0001
0000
1100
0000
1000
0100
0001
0000
,
0101
1000
0001
0000
1001
0000
0010
1000
0001
0100
0010
1000
0001
0010
0100
1000
,
1002
1000
0010
0010
1000
0000
1000
1000
0100
0100
1000
1000
0103
0000
0001
0001
,
2000
0010
0010
0010
0100
0000
0001
0001
0100
0100
0001
0001
3010
0000
0001
0001
,
0020
1000
1000
1000
0100
0000
1000
1000
1000
1000
0001
0001
0031
0000
1000
1000
,
2002
0000
0000
0000
0000
0000
3003
0110
,
1001
0001
0100
0001
0010
1000
0010
0001
0100
0010
1000
0100
0010
0100
1000
0010
,
0100
0001
0010
1000
0010
0001
0100
1000
0100
0000
0010
1000
0100
1000
0010
1000
,
0001
0010
1000
0010
0001
0000
0001
0100
1000
0100
0001
0000
0001
0010
0100
1000
,
1100
0001
0010
0010
0101
1000
0001
0001
1100
0001
1000
1000
0001
0001
1000
0100
,
0011
0001
0100
1000
0100
0001
0010
0100
1000
0100
0010
0001
1000
0010
0001
0010
,
1000
0100
0001
0100
1000
0010
0100
0001
1000
0000
0010
0001
0100
1000
0010
0001
,
0120
0000
0100
0000
0100
0000
0130
0000
0101
0101
1010
1010
1100
0110
0011
1001
;
