#TITLE:VANESSA;
#ARTIST:朱雀;
#ARTISTTRANSLIT:SUZAKU;
#BANNER:VANESSA.png;
#BACKGROUND:VANESSA-bg.png;
#JACKET:VANESSA-jacket.png;
#CDTITLE:./CDTITLES/BEATMANIA IIDX.PNG;
#MUSIC:VANESSA.ogg;
#SAMPLESTART:24.541;
#SAMPLELENGTH:15;
#SELECTABLE:YES;#DISPLAYBPM:185:370;
#BPMS:0=185,32=370,40=185,108=370,116=185,204=370,220=185,224=370;

//---------------dance-single - t7r----------------
#NOTES:
     dance-single:
     t7r:
     Beginner:
     5:
     :
0000
0000
0000
0000
,
0000
0000
0000
0000
,
0000
0000
0000
0000
,
0000
0000
0000
0000
,
0000
0000
0000
0000
,
0001
0000
0100
0000
,
0010
0000
0100
0000
,
1000
0000
0100
0000
,
1000
0000
0100
0000
,
0010
0000
0001
0000
,
1000
0000
0000
0000
,
0001
0000
0100
0000
,
0010
0000
0100
0000
,
1000
0000
0100
0000
,
0010
0000
0100
0000
,
0001
0000
1000
0000
,
0010
0000
1000
0000
,
0100
0000
0010
0000
,
0001
0000
0010
0000
,
0100
0000
0010
0000
,
0100
0000
1000
0000
,
0100
0000
1000
0000
,
0001
0000
0010
0000
,
0001
0000
0100
0000
,
0001
0000
0100
0000
,
0010
0000
1000
0000
,
0100
0000
0010
0000
,
0100
0000
0100
0000
,
0100
0000
0100
0000
,
0001
0000
1000
0000
,
0001
0000
0100
0000
,
1000
0000
0100
0000
,
1000
0000
0010
0000
,
0001
0000
0100
0000
,
0001
0000
0010
0000
,
1000
0000
0100
0000
,
1000
0000
0010
0000
,
1000
0000
0001
0000
,
1000
0000
0100
0000
,
0001
0000
1000
0000
,
0001
0000
0100
0000
,
0001
0000
0010
0000
,
0100
0000
1000
0000
,
0100
0000
0010
0000
,
0001
0000
1000
0000
,
0100
0000
0100
0000
,
0010
0000
0010
0000
,
0001
0000
0001
0000
,
1000
0000
1000
0000
,
0100
0000
0100
0000
,
0100
0000
0100
0000
,
0010
0000
0010
0000
,
0010
0000
0010
0000
,
0010
0000
0010
0000
,
1000
0000
0001
0000
,
0100
0000
0000
0000
,
1000
0000
1000
0000
,
1000
0000
1000
0000
,
1000
0000
1000
0000
,
0100
0000
0010
0000
,
0001
0000
0001
0000
,
0001
0000
0001
0000
,
0001
0000
0001
0000
,
0010
0000
0100
0000
,
0010
0000
0010
0000
,
0010
0000
0010
0000
,
0010
0000
0010
0000
,
0100
0000
1000
0000
,
0100
0000
0100
0000
,
0100
0000
0100
0000
,
0001
0000
0010
0000
,
0100
0000
1000
0000
,
0001
0000
1000
0000
,
0001
0000
1000
0000
,
0001
0000
1000
0000
,
0010
0000
0100
0000
,
0010
0000
0100
0000
,
0010
0000
0100
0000
,
0010
0000
0100
0000
,
1000
0000
0001
0000
,
1000
0000
0001
0000
,
1000
0000
0001
0000
,
1000
0000
0001
0000
,
1000
0000
0100
0000
,
0001
0000
0010
0000
,
0100
0000
1000
0000
,
0100
0000
0010
0000
,
0001
0000
1000
0000
,
2002
0000
0000
3003
,
0000
0000
0000
0000
,
0200
0000
0000
0000
,
0000
0000
0000
0000
,
0000
0000
0000
0000
,
0000
0000
0000
0000
,
0300
0000
0000
0000
;

//---------------dance-single - t7r----------------
#NOTES:
     dance-single:
     t7r:
     Easy:
     9:
     :
0000
0000
0000
0000
,
0000
0000
0000
0000
,
0000
0000
0000
0000
,
0000
0000
0000
0000
,
0000
0000
0000
0000
,
1000
0000
0100
0000
,
1000
0000
0010
0000
,
0100
0000
0001
0000
,
1000
0000
1001
0000
,
0001
0000
1001
0000
,
0020
0200
0000
0330
,
0010
0100
0010
1000
,
0001
1001
0101
1001
,
0101
1001
0001
0010
,
0100
1001
1100
1001
,
1100
1001
1000
0100
,
0110
0011
0110
1100
,
0110
0011
0110
1100
,
1001
1001
0110
1001
,
0220
0000
0000
0330
,
0010
1010
1100
1010
,
1100
1010
1100
0110
,
0011
0101
0011
0101
,
0011
0101
0001
0100
,
0110
1001
1001
0110
,
1001
1001
0110
1001
,
1000
0100
0110
1001
,
1000
0000
1001
0000
,
0001
0000
1001
0000
,
0010
0000
0100
0000
,
0010
0000
1000
0000
,
0001
0000
1000
0000
,
0100
0000
0010
0000
,
1001
0000
0001
0000
,
1000
0000
0100
0000
,
1001
0000
0100
0000
,
0010
0000
0001
0000
,
0011
0000
0101
0000
,
0011
0000
0101
0000
,
1010
0000
1100
0000
,
1010
0000
1001
0000
,
0101
0000
0011
0000
,
0101
0000
0011
0000
,
1100
0000
1010
0000
,
1001
0000
0110
0000
,
0010
0100
0000
0100
,
0010
1000
0000
1000
,
0100
0010
0011
0101
,
0001
0100
0000
0100
,
0010
1000
1010
1100
,
0011
0101
0011
1001
,
0001
0000
1001
0000
,
1000
0000
1001
0000
,
1000
0000
1100
0000
,
0110
0000
0011
0000
,
0001
0100
0010
1001
,
1001
0000
1100
0000
,
1001
0000
1100
0000
,
1001
0000
1010
0000
,
0010
0000
0100
0000
,
0110
0000
0101
0000
,
0110
0000
0101
0000
,
0110
0000
0011
0000
,
1001
0000
1001
0000
,
1100
0000
1010
0000
,
1100
0000
1010
0000
,
1100
0000
0110
0000
,
0011
0000
1001
0000
,
1001
0000
1001
0000
,
0101
0000
1001
0000
,
0020
0000
0000
0000
,
0000
0000
0000
0030
,
0100
0000
0110
0000
,
1010
0000
1001
0000
,
1010
0000
1001
0000
,
1001
0000
0110
0000
,
0101
0000
0110
0000
,
0011
0000
1001
0000
,
0011
0000
1001
0000
,
1001
0000
1100
0000
,
1001
0000
1000
0000
,
1100
0000
0001
0000
,
0101
0000
0001
0000
,
0011
0000
0010
0000
,
0110
0000
0110
0000
,
1100
0000
1100
0000
,
0110
0000
0011
0000
,
0110
0000
1100
0000
,
2002
0000
0000
0000
,
0000
0000
0000
3003
,
0220
0000
0000
0000
,
0000
0000
0000
0000
,
0000
0000
0000
0000
,
0000
0000
0000
0000
,
0330
0000
0000
0000
;

//---------------dance-single - t7r----------------
#NOTES:
     dance-single:
     t7r:
     Medium:
     12:
     :
0000
0000
0000
0000
,
0000
0000
0000
0000
,
0000
0000
0000
0000
,
0000
0000
0000
0000
,
0000
0000
0000
0000
,
1000
1001
0001
1001
,
0001
0101
0010
1010
,
0101
1100
0101
1001
,
1000
0000
0000
0000
1000
0000
0001
0000
0000
0000
0001
0000
,
1000
0000
0000
0000
1000
0000
0001
0000
0000
0000
0001
0000
,
2000
0002
0000
3003
,
1000
0000
1000
0100
0000
0000
0110
0000
0000
1001
0000
0000
,
0001
0101
0101
0101
,
1001
0000
0000
0101
0000
0000
1001
0000
1000
0100
0000
0100
,
0010
0110
0110
0110
,
1010
0000
0000
0110
0000
0000
0011
0000
0001
0100
0000
0100
,
0010
0000
0000
1010
0000
1000
0100
0000
0000
0011
0000
0001
,
0100
0000
0000
1001
0000
0001
1000
0000
0000
1001
0000
1000
,
0001
0000
0000
0101
0000
0001
0010
0000
0000
0110
0000
0010
,
0100
2002
0000
3003
,
1100
1001
1100
1001
,
1100
0000
0000
1001
0000
0000
1100
0000
1000
0100
0000
0100
,
1000
1001
0101
1001
,
0101
0000
0000
1001
0000
0000
0101
0000
0001
1000
0000
1000
,
0001
0000
0000
1001
0000
0001
1000
0000
0000
1010
0000
0010
,
0100
0000
0000
0101
0000
0001
1000
0000
0000
1100
0000
1000
,
0100
1100
1001
0101
,
1001
0000
0000
0000
0001
0000
1000
0000
0000
0000
1000
0000
,
0001
0000
0000
0000
0001
0000
1000
0000
0000
0000
1000
0000
,
0010
0000
0110
0000
,
0110
0000
0000
0000
0000
0000
1001
0000
0000
0000
0001
0000
,
1000
0000
1001
0000
,
1001
0000
0000
0000
0000
0000
0101
0000
0000
0000
1000
0000
,
0001
0000
1001
0000
,
1001
0000
0000
0000
0000
0000
1010
0000
0000
0000
0010
0000
,
0100
0000
0110
0000
,
0110
0000
1001
0000
,
1100
1000
1100
1000
,
1100
1000
1100
0101
,
1100
1000
1100
1000
,
1100
1000
1100
0011
,
0101
0001
0101
0001
,
0101
0001
0101
1010
,
0101
1000
1100
0001
,
1000
0001
1000
0001
0000
0001
1000
0000
0000
1001
0000
0000
,
0102
0000
0000
0010
0000
0000
0000
0000
0100
0003
0000
0000
,
1100
0000
1000
0001
0000
1001
0000
0000
0000
0101
0000
0000
,
1001
0110
1001
0110
,
1001
0000
1000
0001
0000
1001
0000
0000
0001
0100
0000
0000
,
0110
0000
0010
1000
0000
0000
1010
0000
1000
0100
0000
0000
,
0011
0000
0001
0100
0000
0000
1001
0000
0001
1000
0000
0000
,
1001
0000
0000
0000
1000
0000
0100
0000
0000
0000
0100
0000
,
1000
0000
0000
0000
1000
0000
0001
0000
0000
0000
0001
0000
,
1000
0000
0001
0000
1000
0000
0001
0000
0000
0000
0001
0000
,
1000
0000
0000
0000
1000
0000
0001
0000
0000
0000
0001
0000
,
0010
0000
0100
0010
0000
0100
0010
0000
0100
1000
0000
0001
,
1000
0000
0101
0000
,
1001
0000
0101
0000
,
1001
0000
1100
0000
,
1010
0000
0000
0000
0010
0000
0100
0000
0000
0000
0100
0000
,
0010
0000
0011
0000
,
0101
0000
0011
0000
,
0101
0000
0011
0000
,
1001
0000
0000
0000
0001
0000
1000
0000
0000
0000
1000
0000
,
0001
0000
0000
0000
0000
0000
1001
0000
0000
0000
1000
0000
,
0100
0000
0000
0000
0000
0000
1001
0000
0000
0000
0001
0000
,
0100
0000
0000
0000
0000
0000
1010
0000
0000
0000
0100
0000
,
0010
0000
0000
0000
0000
0000
0011
0000
0000
0000
0001
0000
,
1000
0000
0000
0000
1000
0000
0010
0000
0000
0000
0010
0000
,
0100
0000
0000
0000
0100
0000
0001
0000
0000
0000
0001
0000
,
1000
0000
0001
0000
1000
0000
0100
0000
0000
0000
0100
0000
,
0010
0000
0000
0000
0010
0000
0001
0000
0000
0000
0001
0000
,
0010
0000
0011
0000
,
1100
0000
0011
0000
,
1100
0000
1001
0000
,
1010
0000
0000
0000
0010
0000
0100
0000
0000
0000
0100
0000
,
0001
0000
1001
0000
,
1010
0000
1001
0000
,
0101
0000
1001
0000
,
1100
0000
0000
0000
0100
0000
0010
0000
0000
0000
0010
0000
,
0001
0000
0000
0000
0100
0000
0010
0000
0000
0000
0010
0000
,
0001
0000
0000
0000
0010
0000
0100
0000
0000
0000
0100
0000
,
0010
0000
0000
0000
0010
0000
1000
0000
0000
0000
1000
0000
,
0001
0000
0000
0000
0001
0000
0100
0000
0000
0000
0100
0000
,
0001
0000
0000
0000
1000
0000
0100
0000
0000
0000
0001
0000
,
0100
0000
0000
0000
1000
0000
0010
0000
0000
0000
1000
0000
,
0001
0000
1000
0000
0001
0000
0100
0000
0010
0000
0100
0000
,
0010
0000
1000
0000
0010
0000
1000
0000
0100
0000
0010
0000
,
0002
0000
0020
0000
,
0000
0000
0000
0033
,
2002
0000
0000
0000
,
0000
0000
0000
0000
,
0000
0000
0000
0000
,
0000
0000
0000
0000
,
3003
0000
0000
0000
;

//---------------dance-single - t7r----------------
#NOTES:
     dance-single:
     t7r:
     Hard:
     15:
     :
0000
0000
0000
0000
,
0000
0000
0000
0000
,
0000
0000
0000
0000
,
0000
0000
0000
0000
,
0000
0000
0000
0000
,
0001
0101
1000
1100
,
0001
0011
1000
1010
,
0001
0000
0100
0001
0000
1000
0100
0000
0001
1000
0000
0000
,
0001
0000
0010
0000
0001
0000
0100
0000
0000
0000
0100
0000
,
0010
0000
0000
0000
0010
0000
1000
0000
0000
0000
1000
0000
,
0002
2000
0000
3003
,
0001
0000
0010
0100
0000
1000
0100
0000
0010
0001
0000
0001
,
1000
1100
0101
1100
,
0011
0000
0000
1010
0000
0000
0110
0000
0010
1000
0000
1000
,
0001
0101
1100
0101
,
1010
0000
0000
1001
0000
0000
1100
0000
0100
0010
0000
0010
,
0001
0000
0000
1100
0000
0100
1000
0000
0000
0101
0000
0100
,
0001
0000
0000
0011
0000
0001
1000
0000
1000
0010
0000
0010
,
1000
0000
1000
0001
0000
0000
1001
0000
0000
0110
0000
0000
,
1000
0001
1000
0100
0000
0000
0010
0000
0010
0001
0000
0000
,
1000
1001
1100
0101
,
1001
0000
0000
0011
0000
0000
0101
0000
0001
1000
0000
0000
,
1010
0101
1100
0101
,
1100
0000
0000
0011
0000
0000
1001
0000
0001
1000
0000
1000
,
0001
0000
0000
0101
0000
0010
0100
0000
0000
1100
0000
0010
,
0100
0000
0000
1001
0000
0001
1000
0000
0000
1001
0000
0000
,
1100
0110
0011
0110
,
1000
0000
0100
0000
0010
0000
0001
0000
0000
0000
0001
0000
,
0010
0000
0000
0000
0010
0000
0001
0000
0000
0000
0001
0000
,
1000
0000
0000
1001
0000
0000
0101
0000
0000
1001
0000
1000
,
0100
0000
0000
1001
0000
0000
0011
0000
0000
1001
0000
0010
,
0100
0000
0000
1010
0000
0000
0101
0000
0000
1100
0000
0100
,
1000
0000
0000
0101
0000
0000
0011
0000
0000
1001
0000
0001
,
1000
0000
0000
1001
0000
0000
0101
0000
0000
0110
0000
0010
,
1000
0000
0000
1100
0000
0000
0011
0000
0000
0101
0000
0001
,
0010
0000
0000
1100
0000
0000
0011
0000
0000
1100
0000
1000
,
0100
1000
0001
0100
0000
0001
1000
0000
0000
1001
0000
0001
,
0100
0000
0000
1001
0000
1000
0010
0000
0000
1100
0000
1000
,
0100
0000
0000
0011
0000
0001
0100
0000
0000
1001
0000
0001
,
1000
0000
0000
1001
0000
1000
0001
0000
0000
1100
0000
1000
,
0100
1000
0100
0010
0000
0010
0001
0000
0001
0010
0000
0010
,
0001
0000
0000
0101
0000
0001
1000
0000
0000
1100
0000
1000
,
0010
0000
0000
0110
0000
0010
1000
0000
0000
0011
0000
0100
,
0010
0000
0000
1001
0000
0100
0001
0000
0000
0110
0000
0100
,
1000
0010
0100
0001
0000
0001
0010
0000
0000
1001
0000
0000
,
1100
0000
0100
1000
0000
1001
0000
0000
0000
1001
0000
0001
,
0100
0000
0100
0001
0000
1001
0000
0000
0000
0110
0000
0010
,
1000
0000
1000
0001
0000
0001
0100
0000
0100
0001
0000
0001
,
1000
0000
1000
0100
0000
0110
0000
0000
0010
0001
0000
0001
,
0010
0000
0001
0100
0000
0000
1010
0000
1000
0100
0000
0000
,
0011
0000
1000
0001
0000
0000
1100
0000
0001
1000
0000
0000
,
0001
0000
0100
0000
0001
0000
1000
0000
0100
0000
1000
0000
,
0010
0000
0100
0000
0010
0000
1000
0000
0010
0000
0100
0000
,
0001
0000
0100
0000
0010
0000
1000
0000
0001
0000
1000
0000
,
0100
0000
0010
0000
0001
0000
1000
0000
0100
0000
0010
0000
,
0001
0000
0001
0010
0000
0010
0100
0000
0100
1000
0000
1000
,
0100
0000
1100
0000
,
0101
0000
1100
0000
,
0011
0000
1010
0000
,
0110
0000
0000
0000
0010
0000
1000
0000
0000
0000
1000
0000
,
0001
0000
0101
0000
,
1100
0000
0101
0000
,
0011
0000
1001
0000
,
1100
0000
0000
0000
0100
0000
1000
0000
0000
0000
1000
0000
,
0010
0000
0000
0000
0010
0000
0100
0000
0001
0000
0100
0000
,
0010
0000
0000
0000
0010
0000
1000
0000
0001
0000
1000
0000
,
0100
0000
0000
0000
0100
0000
0010
0000
0001
0000
0010
0000
,
0001
0000
0000
0000
0001
0000
0100
0000
0010
0000
1000
0000
,
0010
0000
0000
0000
1000
0000
0100
0000
0000
0000
0001
0000
,
0100
0000
0000
0000
1000
0000
0001
0000
0000
0000
0001
0000
,
1000
0000
0010
0000
0100
0000
0010
0000
0000
0000
0010
0000
,
1000
0000
0000
0000
1000
0000
0001
0000
0000
0000
0001
0000
,
1000
0000
1100
0000
,
0101
0000
1100
0000
,
0011
0000
1010
0000
,
0010
0000
0100
0000
0001
0000
0100
0000
0000
0000
0001
0000
,
1000
0000
1010
0000
,
1100
0000
1010
0000
,
0110
0000
0000
0000
0000
0000
0101
0000
0000
0000
0001
0000
,
1000
0000
0010
0000
1000
0000
0001
0000
0100
0000
0001
0000
,
1000
0000
0000
0000
1000
0000
0100
0000
0010
0000
0001
0000
,
0010
0000
0000
0000
0001
0000
0010
0000
0100
0000
1000
0000
,
0100
0000
0000
0000
1000
0000
0100
0000
1000
0000
0001
0000
,
1000
0000
0000
0000
0001
0000
0100
0000
0000
0000
1000
0000
,
0001
0000
1000
0000
0001
0000
1000
0000
0100
0000
1000
0000
,
0001
0000
0010
0000
0001
0000
0100
0000
0001
0000
0100
0000
,
0001
0000
0010
0000
0100
0000
1000
0000
0001
0000
0010
0000
,
0100
0000
1000
0000
0100
0000
0010
0000
0001
0000
1000
0000
,
0002
0000
2000
0000
,
0000
0000
0000
3003
,
0220
0000
0000
0000
,
0000
0000
0000
0000
,
0000
0000
0000
0000
,
0000
0000
0000
0000
,
0330
0000
0000
0000
;

//---------------dance-single - t7r----------------
#NOTES:
     dance-single:
     t7r:
     Challenge:
     17:
     :
0000
0000
0000
0000
,
0000
0000
0000
0000
,
0000
0000
0000
0000
,
0000
0000
0000
0000
,
0000
0000
0000
0000
,
1000
0010
1000
0001
0100
0001
1000
0100
1000
0001
0010
0001
,
1000
0100
0010
0001
0010
0100
1000
0100
1000
0001
0100
0001
,
1000
1001
0110
1001
,
0001
0000
0100
0000
0001
0000
1000
0000
0100
0000
1000
0000
,
0010
0000
0100
0000
0001
0000
1000
0000
0001
0000
0100
0000
,
2001
0002
0000
3003
,
1000
0010
0100
0001
0000
0001
0100
0010
1000
0001
0000
0001
,
1000
0100
1000
0001
0100
0001
1000
0010
1000
0001
0100
0001
,
1000
0100
1000
0001
0100
0001
1000
0010
0100
0001
0100
0010
,
1000
0010
1000
0001
0100
0001
1000
0010
1000
0001
0100
0001
,
1000
0100
1000
0001
0100
0001
1000
0100
0010
0001
0010
0100
,
1000
0000
1000
0100
1000
0001
0100
0000
0100
0001
1000
0001
,
0010
0000
0010
0100
1000
0100
0010
0000
0010
0001
0100
0001
,
1000
0100
1000
0010
0100
0010
0001
0100
0001
0010
0100
0010
,
1000
0001
1000
0001
0000
0000
1000
0000
1000
0001
0000
0001
,
1000
0100
1000
0100
0010
0100
0010
0001
0010
0001
0010
0001
,
0100
0001
0100
0010
1000
0010
1000
0010
0100
0001
0100
0001
,
1000
0100
1000
0001
0100
0001
1000
0100
1000
0001
0010
0001
,
1000
0010
1000
0001
0100
0001
0010
0100
1000
0100
0010
0001
,
0010
0000
0001
0100
0001
1000
0100
0000
0100
1000
0001
1000
,
0010
0000
0010
0100
0001
0100
0010
0000
0010
1000
0100
1000
,
0001
0100
0001
1000
0100
1000
0010
0100
0010
1000
0010
1000
,
0001
0000
0001
0000
0001
0000
0100
0000
0100
0000
0100
0000
,
0010
0000
0010
0000
0010
0000
1000
0000
1000
0000
1000
0000
,
0001
0000
0000
1001
0000
0000
1100
0000
0000
0101
0000
0001
,
0100
0000
0000
1100
0000
1000
0100
0000
1000
0010
0000
1000
,
0100
0000
0000
0101
0000
0001
0100
0000
0000
1010
0000
1000
,
0100
0000
0000
0011
0000
0001
0100
0000
0001
0010
0000
0001
,
1000
0000
0000
1001
0000
1000
0010
0000
0000
0101
0000
0001
,
0100
0000
0000
0011
0000
1000
0100
0000
0001
0010
0000
1000
,
0100
0000
0000
0101
0000
0001
0100
0000
0000
1010
0000
1000
,
0100
1000
0001
0100
0000
0100
0001
0000
0001
1000
0001
1000
,
0010
0000
0010
0100
0010
1000
0010
0000
0010
1000
0010
0100
,
0010
0000
0010
0100
0010
0001
0010
0100
0010
1000
0010
1000
,
0100
0000
0100
0010
0100
0001
0100
0000
0100
0010
0100
1000
,
0100
0000
0100
0010
0100
0001
0100
1000
0100
0010
0001
0010
,
0001
0000
0001
0100
0010
1000
0010
0000
0010
1000
0100
1000
,
0100
0000
0100
1000
0001
0100
0001
1000
0010
1000
0100
0010
,
0001
0000
0001
0010
0100
1000
0100
0000
0100
1000
0010
0100
,
0010
0010
0010
0100
0000
1000
0100
0000
0001
0100
0000
0001
,
0110
0000
0000
0110
0000
0000
1001
0000
0001
1000
0000
1000
,
0001
0100
0001
1000
0000
1100
0000
0000
0000
1100
0000
0100
,
1000
0000
1000
0010
0000
0010
0100
0010
0100
0001
0000
0001
,
0100
0000
0001
1000
0000
1001
0000
0000
1000
0100
0000
0001
,
0010
0000
0001
0100
0000
0000
1010
0000
1000
0100
0000
0000
,
0011
0000
0001
0100
0000
0000
1010
0000
1000
0001
0000
0000
,
1000
0000
0100
0000
0010
0000
0001
0000
0010
0000
0100
0000
,
1000
0000
0010
0000
1000
0000
0001
0000
0100
0000
0001
0000
,
1000
0000
1000
0000
1000
0000
0100
0000
0100
0000
0100
0000
,
0010
0000
0010
0000
0010
0000
0001
0000
0001
0000
0001
0000
,
1000
0100
1000
0001
0100
0001
1000
0010
1000
0001
0100
0001
,
0100
0000
0001
0000
1000
0000
0001
0000
0100
0000
0001
0000
,
1000
0000
0100
0000
0010
0000
0001
0000
0010
0000
0100
0000
,
1000
0000
0100
0000
1000
0000
0001
0000
0100
0000
0001
0000
,
1000
0000
0010
0000
0100
0000
0001
0000
0100
0000
0010
0000
,
1000
0000
0100
0000
0010
0000
0001
0000
0010
0000
0001
0000
,
0100
0000
0001
0000
1000
0000
0001
0000
0100
0000
0001
0000
,
1000
0000
0010
0000
1000
0000
0001
0000
0100
0000
0001
0000
,
1000
0000
0100
0000
0010
0000
0001
0000
0010
0000
0100
0000
,
1000
0000
0000
0000
0100
0000
1000
0000
0001
0000
1000
0000
,
0001
0000
0000
0000
1000
0000
0001
0000
0100
0000
0001
0000
,
1000
0000
0000
0000
0001
0000
0010
0000
0100
0000
0010
0000
,
0001
0000
0100
0000
0010
0000
1000
0000
0000
0000
0001
0000
,
0010
0000
0001
0000
0010
0000
0001
0000
0100
0000
0001
0000
,
1000
0000
0100
0000
0010
0000
0001
0000
0100
0000
0001
0000
,
1000
0000
1000
0000
1000
0000
0010
0000
0010
0000
0010
0000
,
0100
0000
0100
0000
0100
0000
0001
0000
0001
0000
0001
0000
,
1000
0000
0001
0000
1000
0000
0001
0000
1000
0000
0001
0000
,
0010
0000
0001
0000
0010
0000
0100
0000
1000
0000
0100
0000
,
0010
0000
0001
0000
0100
0000
0001
0000
0100
0000
0010
0000
,
1000
0000
0001
0000
1000
0000
0001
0000
0100
0000
0001
0000
,
1000
0000
0100
0000
1000
0000
0100
0000
0010
0000
0100
0000
,
0010
0000
0001
0000
0010
0000
0001
0000
0100
0000
0001
0000
,
0100
0000
0001
0000
1000
0000
0001
0000
0100
0000
0001
0000
,
1000
0000
0100
0000
1000
0000
0010
0000
0100
0000
0010
0000
,
1010
0000
0000
0000
1000
0000
0010
0000
1000
0000
0001
0000
,
0101
0000
0000
0000
0001
0000
0100
0000
0001
0000
1000
0000
,
1001
0000
0000
0000
1000
0000
0100
0000
0010
0000
0001
0000
,
0011
0000
0000
0000
0001
0000
0101
0000
0000
0000
1000
0000
,
1100
0000
0000
0000
1000
0000
0001
0000
1000
0000
0001
0000
,
0100
0000
0001
0000
0100
0000
0001
0000
1000
0000
0010
0000
,
1000
0000
1000
0000
1000
0000
0001
0000
0001
0000
0001
0000
,
0010
0000
0010
0000
0010
0000
0100
0000
0100
0000
0100
0000
,
2000
0000
3200
0000
,
0000
0000
0000
0300
,
0220
0000
0000
0000
,
0000
0000
0000
0000
,
0000
0000
0000
0000
,
0000
0000
0000
0000
,
0330
0000
0000
0000
;
