#TITLE:ツミナガラ... と彼女は謂ふ;
#ARTIST:あさき;
#TITLETRANSLIT:Tsuminagara... to kanojo wa ifu;
#ARTISTTRANSLIT:Asaki;
#BANNER:Tsuminagara... to kanojo wa ifu.png;
#BACKGROUND:Tsuminagara... to kanojo wa ifu-bg.png;
#JACKET:Tsuminagara... to kanojo wa ifu-jacket.png;
#CDTITLE:./CDTITLES/GUITAR FREAKS & DRUMMANIA.PNG;
#MUSIC:Tsuminagara... to kanojo wa ifu.ogg;
#SAMPLESTART:47.843;
#SAMPLELENGTH:15;
#BPMS:0=153;

//---------------dance-single - t7r----------------
#NOTES:
     dance-single:
     t7r:
     Beginner:
     3:
     :
0000
0000
0000
0000
,
0000
0000
0000
0000
,
0000
0000
0000
0000
,
0000
0000
0000
0000
,
0000
0000
0000
0000
,
0010
0000
0100
0000
,
0010
0000
1000
0000
,
0001
0000
0100
0000
,
0001
0000
1000
0000
,
0001
0000
0010
0000
,
0100
0000
1000
0000
,
0100
0000
0010
0000
,
0001
0000
0001
0000
,
1000
0000
0001
0000
,
1000
0000
0001
0000
,
1000
0000
0010
0000
,
0100
0000
0001
0000
,
0100
0000
0001
0000
,
1000
0000
0001
0000
,
1000
0000
0100
0000
,
0010
0000
0001
0000
,
0010
0000
0000
0000
,
0000
0000
0000
0000
,
0000
0100
0000
0010
,
0000
0100
0000
0010
,
0000
0001
0001
0001
,
0000
1000
1000
1000
,
0000
0010
0000
1000
,
0000
0001
0000
0100
,
0100
0000
0010
0000
,
1000
1000
1000
0000
,
0001
0000
1000
0000
,
0001
0000
0100
0000
,
0001
0000
0010
0000
,
0100
0000
1000
0000
,
0100
0000
0010
0000
,
0001
0000
0001
0000
,
0001
0000
1000
0000
,
0010
0000
1000
0000
,
0000
0100
0000
0100
,
0000
0010
0000
0010
,
0000
0001
0000
0001
,
0001
0000
1000
0000
,
0010
0000
1000
0000
,
0001
0000
0100
0000
,
0001
0000
0100
0000
,
0010
0000
1000
0000
,
0000
0000
0000
0000
,
0000
0000
0000
0000
,
0000
0000
0000
0000
,
0000
0000
0000
0000
,
1000
0000
0000
0000
,
0010
0000
0000
0000
,
0001
0000
0000
0000
,
0100
0000
0110
0000
;

//---------------dance-single - t7r----------------
#NOTES:
     dance-single:
     t7r:
     Easy:
     6:
     :
0000
0000
0000
0000
,
0000
0000
0000
0000
,
0000
0000
0000
0000
,
0000
0000
0000
0000
,
0000
0000
0000
0000
,
1000
0100
1000
0100
,
1000
1000
0100
0100
,
1000
0001
1000
0001
,
1000
1000
0001
0100
,
1001
0001
2000
3002
,
0013
0010
0200
0320
,
0031
0001
2000
3002
,
1003
1000
0020
0230
,
0301
0000
1000
0000
,
0001
0000
0100
0010
,
1001
0000
1000
0000
,
0100
0000
0010
0001
,
0110
0000
1001
0000
,
0101
0000
1100
0010
,
1001
0000
0101
0000
,
1001
0000
1000
0100
,
1100
0000
0011
0000
,
0000
0000
0000
0000
,
0000
1000
0001
1000
,
0001
0100
0010
1000
,
0002
0000
0000
1003
,
0200
0000
0000
0310
,
0001
0100
0010
1000
,
0001
0001
1000
0010
,
2000
3000
0002
0003
,
1000
0100
0220
0330
,
0010
0010
0001
0100
,
0010
0010
1000
0100
,
1000
0100
0010
0001
,
0011
0000
1100
0000
,
1001
0100
0010
0100
,
1000
0100
0010
0001
,
0100
0000
0010
0000
,
1000
0000
1001
0000
,
1000
0001
1000
0001
,
1000
0001
1000
0001
,
1000
0001
1000
0001
,
1000
0001
1000
0001
,
0100
0000
0100
0100
,
0010
0000
0010
0010
,
0100
0010
1000
1001
,
0001
1001
1000
1001
,
0000
0000
0000
0000
,
0000
0000
0000
0000
,
0000
0000
0000
0000
,
0000
0000
0000
0000
,
1000
0000
0000
0000
,
0100
0000
0010
0001
,
0100
0000
0010
1000
,
0001
0000
1001
1001
;

//---------------dance-single - t7r----------------
#NOTES:
     dance-single:
     t7r:
     Medium:
     10:
     :
0000
0000
0000
0000
,
0000
0000
0000
0000
,
0000
0000
0000
0000
,
0000
0000
0000
0000
,
0000
0000
0000
0000
,
1000
1000
0000
0000
0001
0001
0000
0000
,
1000
1000
0000
0000
0001
0001
0000
0000
,
1001
1000
0000
0000
0001
0001
0000
0000
,
0100
0100
0000
0000
0010
0100
0000
0000
,
1000
0100
0000
0000
0001
0100
0002
0000
,
1003
0010
0000
0000
1000
0100
0020
0000
,
0130
0010
0000
0000
0001
0100
0020
0000
,
1030
0010
0000
0000
1000
0001
0200
0000
,
0301
0000
0000
0100
0000
0000
0001
0000
0000
0000
1000
0000
0001
0000
0100
0000
,
0001
0000
0000
1000
0000
0000
0001
0000
0000
0000
1000
0000
0010
0000
0100
0000
,
1001
0000
0000
0010
0000
0000
0100
0000
0010
0000
0000
1000
0000
0000
0010
0000
,
0100
0000
0000
0001
0000
0000
0100
0000
0001
0000
0000
0000
1001
0000
0000
0000
,
0001
0000
0000
0100
0000
0000
0010
0000
0000
0000
1000
0000
0010
0000
1000
0000
,
0100
0000
0000
0010
0000
0000
0001
0000
0000
0000
0010
0000
0100
0000
1000
0000
,
0100
1000
0001
0000
0001
0100
0001
0000
,
1000
0010
1000
0000
0001
0100
0010
0100
,
1001
0000
0000
1100
0000
0000
1001
0000
,
0001
0000
0000
0000
0000
0000
0000
0000
0000
1000
0000
0000
0000
0000
0000
0000
0000
0000
0001
0000
0000
0000
0000
0000
1000
0000
0000
0000
0100
0000
0000
0000
1000
0000
0000
0000
0100
0000
0000
0000
1000
0000
0000
0000
0100
0000
0000
0000
,
0000
0011
0000
0001
0100
0001
0000
1000
,
0010
1000
0000
0001
1000
0100
0000
1000
,
0001
0010
0000
0100
0100
0100
0100
0100
,
0000
0010
0000
0001
0001
0001
0001
0001
,
0000
1000
0000
0001
0000
1000
0000
0001
,
0000
1000
0000
0100
0000
0010
0000
0001
,
0100
0100
0100
0000
0010
0010
0010
0000
,
1000
0010
0100
0000
2002
0000
3003
0000
,
0001
0000
0000
0010
0000
0000
0100
0000
1000
0000
0100
0000
0010
0000
0000
0000
,
0001
0000
0000
0010
0000
0000
0001
0000
0100
0000
0001
0000
1000
0000
0000
0000
,
0001
0000
0000
0100
0000
0000
0100
0000
0010
0000
1000
0000
0000
1000
0000
0000
,
0100
0000
0000
0010
0000
0000
0001
0000
0010
0000
0100
0000
1000
0000
0000
0000
,
1001
1000
0100
0000
0001
0100
0001
0000
,
1001
0001
0100
0000
1000
0100
1000
0000
,
0001
1000
0001
1000
0001
1000
0001
0001
,
1000
1000
0001
1000
0001
1001
1001
1001
,
0010
0100
0010
1000
,
0010
0100
0010
0001
,
0010
1000
0100
0001
,
0100
1000
0010
0001
,
0010
0000
1000
0000
0100
0000
0000
1000
0000
1000
0000
0000
1001
0000
0000
0000
,
0010
0000
0001
0000
0100
0000
0000
0001
0000
0001
0000
0000
1001
0000
0000
0000
,
0001
0010
0100
1000
0100
0010
0001
0100
,
0010
0010
1000
1000
0001
0001
1001
1001
,
0000
0000
0000
0000
,
0000
0000
0000
0000
,
0000
0000
0000
0000
,
0000
0000
0000
0000
,
1000
0000
0000
0100
0000
0000
0100
0000
0000
0000
0001
0000
0100
0000
0000
0100
,
0000
0010
0001
0100
1000
0100
0000
0001
,
0100
1000
0100
0000
0000
0001
1000
0010
,
0001
0000
0000
0011
0000
0000
0110
0000
1000
0000
0100
0000
1000
0000
0001
0000
;

//---------------dance-single - t7r----------------
#NOTES:
     dance-single:
     t7r:
     Hard:
     14:
     :
0000
0000
0000
0000
,
0000
0000
0000
0000
,
0000
0000
0000
0000
,
0000
0000
0000
0000
,
0000
0000
0000
0000
,
1000
1000
0010
0010
0100
0100
0001
0001
,
0010
0010
0001
0001
0100
0100
1000
1000
,
0110
0100
0001
0001
0010
0010
1000
1000
,
0010
0000
0010
0000
0001
0000
0001
0000
0100
0000
0100
0000
0010
0100
0001
0000
,
1001
0100
0010
0001
0010
0100
0010
0010
,
0101
0001
0100
0010
1000
0010
0100
0100
,
1001
1000
0100
1000
0001
0100
0010
0010
,
1010
0000
0001
0000
1000
0000
0100
0000
1000
0001
1000
0001
1000
0000
0001
1000
,
0010
0000
0100
0001
0000
0001
0100
0000
0001
0000
1000
0000
0100
0000
1000
0000
,
0100
0000
0010
0001
0000
0001
0010
0000
0001
0000
0010
0000
0100
0000
1000
0000
,
1001
0000
1000
0000
0010
0000
1000
0001
0000
0001
1000
0000
0001
0000
0100
0000
,
0001
0000
1000
0000
0100
0000
1000
0001
0100
0000
1001
0000
0010
0000
1001
0000
,
0110
0000
0001
0010
0000
0100
1000
0000
0100
0000
1000
0000
0010
0000
0100
0000
,
0001
0000
0100
0001
0000
1000
0001
0000
1000
0000
0100
0000
1000
0000
0010
0000
,
1000
0000
0001
0000
0100
0000
0001
1000
0000
1000
0001
0000
1000
0000
0001
0000
,
0100
0000
0001
0000
0010
0000
0100
0000
1100
0000
0100
0010
0001
0000
1000
0000
,
0001
1000
0100
0000
0100
0000
0001
1000
0100
0000
0100
0000
1001
0000
0000
0000
,
1100
0000
0000
0000
0000
0000
0000
0000
0000
0101
0000
0000
0000
0000
0000
0000
0000
0000
1100
0000
0000
0000
0000
0000
0001
0000
0000
0000
0010
0000
0000
0000
0001
0000
0000
0000
0100
0000
0000
0000
0010
0000
0000
0000
0100
0000
0000
0000
,
0000
0000
1001
0000
0000
0000
0001
0000
0010
0000
0100
1000
0000
1000
0100
0000
,
1000
0000
0100
0010
0000
0010
0001
0000
0100
0000
0010
1000
0000
1000
0010
1000
,
0000
1000
0001
0000
0010
0000
0010
0000
0010
0000
0010
0000
0010
0000
0010
0100
,
0000
0100
0010
0000
0100
0000
0100
0000
0100
0000
0100
0000
0100
0000
0100
0010
,
0000
0010
0001
0000
0100
0000
0001
1000
0000
1000
0001
0000
0100
0000
0001
0010
,
0000
0010
0100
0000
1000
0000
0100
0010
0000
0010
0001
0000
1000
0000
0110
0000
,
0001
1001
1001
1001
1000
1001
1001
1001
,
0001
0010
0100
1000
0022
0000
0033
0000
,
1000
0000
0100
1000
0000
0001
1000
0000
0001
0000
0100
0000
0001
0000
0010
0000
,
0100
0000
0010
0001
0000
0100
0001
0000
1000
0000
0001
0000
0100
0000
0001
0000
,
0010
0000
0100
1000
0000
1000
0100
0000
0010
0000
0001
0100
0000
0100
0010
0000
,
1001
0000
0001
0100
0000
0100
0001
0000
0100
0000
1001
0000
0010
0000
0100
0000
,
1001
0000
1000
0000
0100
0000
1000
0001
0000
0001
1000
0000
0001
0000
0100
0000
,
0001
0000
1000
0000
0001
0000
1000
0100
0000
0100
0010
0000
0001
0000
0010
0000
,
0100
0000
1000
0100
1000
0000
0001
0100
0001
0000
1000
0010
1000
0000
0001
0010
,
0001
0000
1000
0100
1000
0000
0001
0100
0010
0000
1010
0000
1010
0000
1010
0000
,
1001
0000
0000
0001
1000
0000
0000
1000
0100
0000
0000
0100
0010
0000
0000
0010
,
0001
0000
0000
0001
0100
0000
0000
0100
1000
0000
0000
1000
0100
0000
0000
0100
,
0001
0010
0100
0010
0001
0010
0100
2000
,
0000
3100
1000
0020
0000
0130
0010
0100
,
0001
0000
1000
0000
0001
0000
1000
0001
0000
0001
0000
1000
0001
0000
1000
0010
,
0100
0000
0010
0000
0010
0000
0100
0010
0000
0010
0000
0100
1000
0000
0100
0000
,
0001
0010
1100
0010
0101
0010
0101
1001
,
1100
1001
1001
1001
0101
1001
1001
1001
,
0110
0000
0000
0000
,
0000
0000
0000
0000
,
0000
0000
0000
0000
,
0000
0000
0000
0000
,
1010
0000
0000
0100
0000
0000
0100
0000
0000
0000
0011
0000
0100
0000
0000
0100
,
0000
0000
0010
0000
0001
0000
0100
0000
0010
0000
1000
0100
0000
0100
1000
0000
,
0001
1000
0001
1000
0010
0000
0100
0000
0100
0000
0010
0100
0001
0000
0100
0000
,
0001
1000
0000
1001
0000
1000
0100
0000
0010
0001
0010
0001
1000
0100
1000
0100
;

//---------------dance-single - t7r----------------
#NOTES:
     dance-single:
     t7r:
     Challenge:
     17:
     :
0000
0000
0000
0000
,
0000
0000
0000
0000
,
0000
0000
0000
0000
,
0000
0000
0000
0000
,
0000
0000
0000
0000
,
0001
0100
0001
0100
0010
1000
0010
1000
0001
0010
0001
0010
0100
1000
0100
1000
,
0001
1000
0001
1000
0010
0100
0010
0100
0001
1000
0001
1000
0100
0010
0100
0010
,
0001
0100
0001
0100
0001
0010
0001
0010
0100
1000
0100
1000
0010
1000
0010
1000
,
0010
0100
0010
0100
0001
1000
0001
1000
0001
0010
0100
1000
0001
0100
0010
0000
,
1001
0000
0010
1000
0010
1000
0001
0000
0100
0001
0100
0001
1000
0000
0001
0010
,
0100
0000
1000
0100
1000
0100
0010
0000
0100
1000
0100
1000
0001
0000
1000
0001
,
0100
0000
0001
1000
0001
1000
0010
0000
0100
0001
0100
0001
1000
0000
0001
0010
,
0100
0000
1000
0100
0010
0001
1000
0000
0001
0100
0010
1000
0001
0000
1000
0001
,
0100
0000
0001
1000
0000
1000
0010
0000
1000
0000
0100
0000
1100
0000
0001
0000
,
1001
0000
0010
1000
0000
1000
0001
0000
0110
0000
0010
0000
1001
0000
0001
0000
,
1001
0000
0010
0000
1100
0000
0010
0001
0000
1000
0100
0000
1000
0000
0010
0000
,
0100
0000
0001
0000
1000
0000
0100
0010
0001
0000
1001
0000
0100
0000
1001
0000
,
0110
0000
0100
0001
0000
0001
1000
0000
1001
0000
0010
0000
0110
0000
0001
0000
,
1001
0000
0100
0010
0000
0010
1000
0000
0110
0000
0001
0000
1001
0000
0100
0000
,
0001
0000
0010
0000
0100
0000
1000
0001
0000
0001
1000
0000
0010
0000
0100
0000
,
0001
0000
0010
0100
1000
0000
0001
0000
1000
0001
1000
0001
0100
0000
0110
0000
,
0010
1000
0100
0000
0100
0000
0010
0001
0100
0000
0100
0000
1001
0000
0000
0000
,
0110
0000
0000
0000
0000
0000
0010
0000
0000
1000
0000
0000
0000
0000
0000
0001
0000
0000
0100
0000
0000
0000
0000
0000
1001
0000
0000
0000
0010
0000
0000
0000
0100
0000
0000
0000
0010
0000
0000
0000
1000
0000
0000
0000
0001
0000
0000
0000
,
0000
0000
1001
0000
0010
0000
0100
0000
0010
0000
1000
0001
0000
0001
0100
0000
,
0001
0000
0010
0100
0000
0100
1000
0000
0100
0000
0010
0001
0000
0001
0100
0001
,
0000
0001
1000
0001
1000
0001
1000
0001
1000
0010
1000
0010
1000
0010
0100
0001
,
0000
0001
1000
0100
1000
0100
1000
0010
1000
0010
0100
0001
0100
0001
0010
0100
,
0000
0100
0010
0000
0001
0000
1000
0100
0000
0100
1000
0000
0001
0000
0100
0001
,
0000
0001
1000
0000
0001
0000
0010
0100
0000
0100
0010
0001
1000
0010
0100
0000
,
0110
0110
1001
1001
1100
0011
0101
1010
,
0010
1000
0100
1000
0001
0100
0010
1000
0002
0000
0000
0000
1003
0000
0000
0000
,
1001
0000
0010
1000
0000
1000
0001
0000
1100
0000
0001
0000
0101
0000
0001
0000
,
0110
0000
0010
0100
0000
0100
0001
0000
0011
0000
0001
0000
1001
0000
1000
0000
,
1010
0000
0010
1000
0000
1000
0001
0000
0010
0000
0001
0010
0000
0010
0100
0000
,
1001
0000
0001
0100
0000
0100
0010
0000
1001
0000
0010
1000
0100
1000
0010
0000
,
1001
0000
0001
0000
0100
0000
0001
1000
0000
0001
0010
0000
0100
0010
0001
0000
,
1000
0000
0100
0000
1000
0000
0010
1000
0000
0010
0100
0000
0010
0100
0001
0000
,
1000
0001
1000
0001
1000
0010
1000
0010
0100
0001
0100
0001
0010
0100
0010
0001
,
1000
0001
1000
0000
1001
0000
1000
0001
0101
0000
1100
0000
1001
0000
1010
0000
,
0110
0000
0010
0100
0010
0100
0010
1000
0010
0100
0010
0001
0010
0100
0010
1000
,
0001
0010
0100
1000
0001
0010
0100
1000
0001
0010
0001
1000
0010
1000
0010
0100
,
0010
1000
0010
1000
0001
0100
0001
0100
0001
0010
0001
0010
0100
1000
0100
1000
,
0010
0100
0001
1000
0010
0100
0010
1000
0100
0010
0001
1000
0100
0001
0100
1000
,
0001
1000
0001
1000
0001
1000
0010
1000
0010
1000
0010
1000
0010
0100
0001
0100
,
0001
1000
0001
1000
0001
1000
0010
1000
0010
0100
0010
0100
0001
1000
0001
0010
,
0100
0010
0001
1000
0100
0010
0100
1000
1001
0000
0101
0000
1100
0000
0011
0000
,
1001
0000
0110
0000
1001
0000
0101
0001
1001
0000
1100
0000
0011
0000
1001
0000
,
2010
0000
3001
0000
,
0000
0000
0102
0000
0000
0000
0000
0000
0000
0000
0000
1003
0000
0000
0000
0000
,
0000
0120
1000
0031
,
0110
0000
0000
0000
0000
0000
1001
0000
0000
0001
1000
0001
,
1000
0000
0100
0010
0001
0000
1001
0000
0001
0100
0010
0000
0110
0000
0010
1000
,
0100
0000
1001
0000
0001
1000
0100
0000
1001
0000
1000
0001
0000
0001
0010
0000
,
0100
0010
0001
1000
0010
0000
0100
0001
1000
0000
0001
1000
0100
0000
1000
0001
,
0100
0010
0000
0110
0000
0010
1000
0001
0100
0001
0010
1000
0001
0100
1000
0001
;

//---------------dance-double - t7r----------------
#NOTES:
     dance-double:
     t7r:
     Easy:
     6:
     :
00000000
00000000
00000000
00000000
,
00000000
00000000
00000000
00000000
,
00000000
00000000
00000000
00000000
,
00000000
00000000
00000000
00000000
,
00000000
00000000
00000000
00000000
,
00100000
00100000
01000000
01000000
,
00010000
00010000
10000000
10000000
,
01000000
01000000
00010000
00001000
,
00000010
00000001
00000100
00000010
,
00001001
00000001
00000100
00001000
,
00100000
00010000
01000000
10000000
,
01000000
00010000
00100000
00010000
,
01000000
00001000
00010000
00011000
,
00000020
00000000
00000000
00000030
,
00000200
00000000
00000000
00000300
,
00022000
00000000
00000000
00033000
,
00020000
00000000
00030000
02000000
,
03200000
00000000
00000000
00300000
,
20000000
00000000
00000000
30000000
,
00020000
00030000
20000000
30000000
,
00220000
00330000
00022000
00033000
,
00002200
00000000
00000000
00003300
,
00000100
00000100
00000220
00000330
,
00000000
00000010
00000010
00000001
,
00000001
00001000
00001000
00000001
,
00000200
00000000
00000000
00000310
,
00020000
00000000
00000000
00031000
,
00010000
00010000
00001000
00001000
,
00010000
00001000
00010000
00011000
,
00001000
00001000
00100000
00100000
,
00010000
00010000
01000000
10010000
,
10000000
01000000
00100000
00010000
,
10000000
01000000
00100000
00010000
,
00000010
00000001
00000100
00001000
,
00000100
00000001
00000010
00001000
,
00022000
00000000
00033000
00010000
,
00022000
00000000
00033000
00000010
,
00000100
00000100
00000010
00000010
,
00000100
00000100
00000010
00001001
,
00001000
00001000
00001000
00001000
,
00010000
00010000
00010000
00010000
,
00000010
00000010
00000010
00000010
,
00000100
00000100
00000100
00000100
,
00000010
00001000
00000001
00000100
,
00000010
00001000
00000001
00001001
,
00001100
00001100
00001010
00001010
,
00011000
00011000
00101000
00101000
,
01100000
00000000
00000000
00000000
,
00000000
00000000
00000000
00000000
,
00000000
00000000
00000000
00000000
,
00000000
00000000
00000000
00000000
,
00100000
00100000
01000000
00100000
,
10000000
00010000
01000000
00010000
,
10000000
00110000
00000000
00011000
,
00001000
00001000
00000100
00000010
,
00001001
00000000
00000000
00000000
;

//---------------dance-double - t7r----------------
#NOTES:
     dance-double:
     t7r:
     Medium:
     9:
     :
00000000
00000000
00000000
00000000
,
00000000
00000000
00000000
00000000
,
00000000
00000000
00000000
00000000
,
00000000
00000000
00000000
00000000
,
00000000
00000000
00000000
00000000
,
10000000
10000000
00000000
00000000
01000000
01000000
00000000
00000000
,
00100000
00100000
00000000
00000000
00010000
00010000
00000000
00000000
,
00011000
00001000
00000000
00000000
00000100
00000100
00000000
00000000
,
00000010
00000010
00000000
00000000
00000001
00000001
00000000
00000000
,
00000010
00000000
00000100
00000000
00000010
00000100
00000010
00000000
,
00001000
00000000
00000001
00000000
00001000
00000001
00001000
00000000
,
00001001
00000000
00011000
00000000
00001000
00010000
00001000
00000000
,
00010000
00001000
00000100
00000000
00001000
00010000
00100000
00000000
,
01000000
00000000
00000000
00100000
00000000
00000000
00010000
00000000
00000000
00000000
00100000
00000000
01000000
00000000
00000000
00000000
,
10000000
00000000
00000000
01000000
00000000
00000000
00100000
00000000
00000000
00000000
00010000
00000000
10000000
00000000
00000000
00000000
,
00011000
00000000
00000000
00000000
00000000
00000000
00000000
00000000
00010000
00000000
00000000
00010000
00000000
00000000
00001000
00000000
,
00000100
00000010
00000001
00000010
,
00010100
00000000
00000000
00000000
00000000
00000000
00000000
00000000
00000100
00000000
00000000
00000100
00000000
00000000
00000010
00000000
,
00001001
00000000
00000000
00000000
00000000
00000001
00000001
00001000
,
00000001
00000100
00000010
00001000
,
00100000
00010000
00100000
10000000
,
01100000
00000000
00000000
00101000
00000000
00000000
00011000
00000000
,
00001000
00000000
00001000
00000000
00001000
00000000
00020200
00000000
00000000
00030300
00000000
00000000
,
00000000
00000010
00000000
00000001
00000000
00000100
00000000
00001000
,
00000000
00000100
00000000
00000001
00000000
00000010
00000000
00000001
,
00001000
00001000
00001000
00001000
,
00011000
00000000
00010000
00000000
00010000
00000000
00010000
00001000
,
00010000
00000000
00001000
00000000
00000100
00000000
00000010
00001000
,
00000100
00000000
00000010
00000000
00000001
00000000
00000010
00000100
,
00001000
00001000
00001000
00001000
00010000
00010000
00010000
00010000
,
00100000
00010000
01000000
00100000
10000000
00000000
10010000
00000000
,
00010000
00000000
00000000
00010000
00000000
00000000
00010000
00000000
00000000
00000000
00000010
00000000
00010000
00000000
00000000
00000000
,
00000010
00000000
00000000
00000001
00000000
00000000
00000010
00000000
00000000
00000000
00000100
00000000
00001000
00000000
00000000
00000000
,
00000001
00000000
00000000
00000001
00000000
00000000
00000001
00000000
00000100
00000000
00000000
00000100
00000000
00000000
00000100
00000000
,
00000010
00000000
00000000
00001010
00000000
00000000
00011000
00000000
00000000
00000000
00001000
00000000
00100000
00000000
00001000
00000000
,
01000000
00100000
01000000
00000000
00100000
10000000
00001000
00000000
,
10000000
00010000
01000000
00000000
00001000
01000000
00010000
00001000
,
00010000
01000000
10000000
01000000
,
00011000
00000010
00000001
00000010
,
00011000
00011000
00101000
00011000
,
00010100
00010100
00000110
00000011
,
00000001
00000010
00000100
00001000
00000001
00000010
00000100
00002000
,
00000000
00003100
00001000
00000020
00000000
00000000
00000030
00000000
,
00000100
00000100
00011000
00011000
,
00100000
00100000
00011000
00011000
,
10000000
00010000
01000000
00000000
00010000
00001000
00010000
00000000
,
00100000
00010000
00001000
00000000
00001000
00010000
00100000
01000000
,
00101000
00000000
00000000
00000000
,
00000000
00000000
00000000
00000000
,
00000000
00000000
00000000
00000000
,
00000000
00000000
00000000
00000000
,
00000010
00000000
00000000
00000100
00000000
00000000
00000001
00000000
00000000
00000000
00001000
00000000
00000001
00000000
00000000
00000100
,
00000000
00000001
00000000
00000010
00000100
00001000
00000100
00000000
,
00011000
00000000
00000000
00011000
00000000
00000000
00011000
00000000
00000000
00000000
00010000
00000000
00001000
00000000
00000000
00000000
,
01000000
00000000
00000000
00100000
00000000
00000000
01000000
00000000
00100000
00000000
10000000
00000000
00010000
00000000
10000000
00000000
;

//---------------dance-double - t7r----------------
#NOTES:
     dance-double:
     t7r:
     Hard:
     13:
     :
00000000
00000000
00000000
00000000
,
00000000
00000000
00000000
00000000
,
00000000
00000000
00000000
00000000
,
00000000
00000000
00000000
00000000
,
00000000
00000000
00000000
00000000
,
00001000
00001000
00000100
00000100
00000010
00000010
00000001
00000001
,
00000010
00000010
00000100
00000100
00001000
00001000
00000100
00000100
,
00001100
00000100
00001000
00001000
00010000
00010000
00001000
00001000
,
00000010
00000010
00000100
00000100
00000001
00000001
00001000
00000001
,
00001001
00000010
00000100
00001000
00010000
00100000
20000000
00000000
,
30100000
00010000
01000000
00010000
00100000
01000000
00100000
00000000
,
10010000
01000000
00100000
00010000
00001000
00000100
00000002
00000000
,
00000103
00000000
00000010
00000000
00000001
00000000
00001000
00000000
00000001
00001000
00000001
00001000
00000001
00000000
00000001
00001000
,
00000010
00000000
00000100
00000010
00000000
00000010
00001000
00000000
00000010
00000000
00001000
00000000
00000100
00000000
00001000
00000000
,
00000001
00000000
00001000
00000001
00000000
00000001
00001000
00000000
00000001
00000000
00000100
00000000
00000010
00000000
00001000
00000000
,
00011000
00000000
00001000
00000000
00010000
00000000
00100000
00010000
00000000
00010000
01000000
00000000
00100000
00000000
10000000
00000000
,
00100000
00000000
01000000
00000000
00010000
00000000
10000000
01000000
00100000
00000000
00110000
00000000
00000000
00000000
00101000
00000000
,
00011000
00000000
00001000
00000100
00000000
00000100
00000001
00000000
00000010
00000000
00000001
00000000
00000100
00000000
00000001
00000000
,
00000100
00000000
00000010
00001000
00000000
00001000
00000001
00000000
00000100
00000000
00000001
00000000
00001000
00000000
00000010
00000000
,
00000100
00000000
00000010
00000000
00001000
00000000
00000100
00001000
00000000
00001000
00000100
00000000
00010000
00000000
00000100
00000000
,
00001000
00000010
00000100
00001000
00010000
00000000
00011000
00000000
,
00101000
00101000
00000000
00010100
00010100
00000000
00011000
00000000
,
00001100
00000000
00011000
00000000
00001100
00000000
00001000
00000100
00000010
00000001
00000010
00000100
,
00000000
00000000
00000011
00000000
00000000
00000000
00000001
00000000
00001000
00000000
00000001
00000100
00000000
00000100
00000001
00000000
,
00001000
00000000
00000100
00001000
00000000
00001000
00010000
00000000
00100000
00000000
00010000
01000000
00000000
01000000
00100000
10000000
,
00000000
10000000
00010000
00000000
10000000
00000000
10010000
00000000
10010000
00000000
10010000
00000000
10010000
00000000
00010000
10000000
,
00000000
10000000
00100000
00000000
01100000
00000000
01100000
00000000
01100000
00000000
01100000
00000000
01100000
00000000
00100000
01000000
,
00000000
01000000
00100000
00000000
01000000
00000000
00010000
00100000
00000000
00001000
01000000
00000000
00000100
00000000
00100000
00001000
,
00000000
00010000
00000100
00000000
00000010
00000000
00000001
00001000
00000000
00000001
00000100
00000000
00000010
00000000
00001000
00000000
,
00011000
00011000
00011000
00011000
00011000
00011000
00011000
00011000
,
00010000
00001000
00000100
00000000
00001000
00010000
00100000
00000000
00010010
00000000
00000000
00000000
00001010
00000000
00000000
00000000
,
00001001
00000000
00000001
00000100
00000000
00000100
00000001
00000000
00001000
00000000
00000100
00000000
00000010
00000000
00000001
00000000
,
00000010
00000000
00000100
00001000
00000000
00001000
00000100
00000000
00001000
00000000
00000010
00000000
00000100
00000000
00001000
00000000
,
00010000
00000000
00100000
01000000
00000000
01000000
00100000
00000000
10000000
00000000
01000000
10000000
00000000
10000000
01000000
00000000
,
10010000
00000000
00000000
01010000
00000000
00000000
10010000
00000000
00000000
00000000
10000000
01000000
00100000
00000000
00110000
00000000
,
00101000
00000000
00010000
00000000
00001000
00000000
00010000
00001000
00000000
00001000
00010000
00000000
00001000
00000000
01000000
00000000
,
00001000
00000000
00100000
00000000
00001000
00000000
00100000
00001000
00000000
00001000
01000000
00000000
00100000
00000000
10000000
00000000
,
00010000
00000000
10000000
00010000
10000000
00000000
00010000
01000000
00010000
00000000
10000000
00100000
10000000
00000000
00100000
01000000
,
00100000
00000000
10000000
01000000
00100000
00000000
00010000
00100000
01000000
00000000
10010000
00000000
10010000
00000000
01010000
00000000
,
00110000
00000000
00000000
00010000
00001000
00000000
00000000
00001000
00000100
00000000
00000000
00000100
00000010
00000000
00000000
00000010
,
00000001
00000000
00000000
00000001
00000010
00000000
00000000
00000010
00000100
00000000
00000000
00000100
00010000
00000000
00000000
00010000
,
00000100
00000010
00010000
00000010
00000100
00000001
00010000
00000001
,
00000000
00000001
00001000
00000100
00010000
00000010
00000100
00001000
,
00000100
00000000
00000100
00000000
00000100
00000000
00000010
00000100
00000000
00000001
00000000
00001000
00000001
00000000
00001000
00000000
,
00000010
00000000
00000010
00000000
00000010
00000000
00001000
00000100
00000000
00010000
00000000
00001000
00010000
00000000
00011000
00000000
,
00110000
00110000
01001000
01001000
10010000
10010000
10010000
10010000
,
01010000
01010000
01010000
01010000
00011000
00011000
00011000
00011000
,
00000010
00000000
00000000
00000000
,
00000000
00000000
00000000
00000000
,
00000000
00000000
00000000
00000000
,
00000000
00000000
00000000
00000000
,
00000101
00000000
00000000
00000011
00000000
00000000
00001001
00000000
00000000
00000000
00000001
00000000
00000100
00000000
00000000
00010010
,
00000000
00010010
00000000
00000100
00000010
00010000
00001000
00010000
,
00001000
00000000
01000000
00010000
00100000
00000000
00010000
00000000
00001000
00000000
00010000
00000000
00000100
00000000
00010000
00000000
,
01000000
00100000
00000000
01100000
00000000
10000000
00010000
00000000
00001000
00010000
00001000
00010000
00001000
00010000
00001000
00010000
;

//---------------dance-double - t7r----------------
#NOTES:
     dance-double:
     t7r:
     Challenge:
     16:
     :
00000000
00000000
00000000
00000000
,
00000000
00000000
00000000
00000000
,
00000000
00000000
00000000
00000000
,
00000000
00000000
00000000
00000000
,
00000000
00000000
00000000
00000000
,
00100000
01000000
00100000
01000000
00010000
01000000
00010000
01000000
00001000
01000000
00001000
01000000
00001000
00010000
00001000
00010000
,
00000100
00010000
00000100
00010000
00000100
00000010
00000100
00000010
00000001
00000100
00000001
00000100
00000010
00001000
00000010
00001000
,
00011000
00000000
00001000
00000100
00001000
00000100
00001000
00010000
00001000
00010000
00001000
00000100
00001000
00010000
00001000
00000100
,
00000010
00000000
00000100
00000010
00001000
00000000
00011000
00000000
00101000
00000000
00001000
00100000
00010000
00000000
01100000
00000000
,
10010000
00000000
10000000
01000000
00100000
00010000
01000000
00000000
00100000
10000000
00010000
10000000
00020000
00000000
01030000
00000000
,
00101000
00000000
00010000
00000100
00001000
00000010
00000100
00000000
00000001
00000100
00000010
00010000
00002000
00000000
01003000
00000000
,
00101000
00000000
00010000
00001000
00010000
01000000
00100000
00000000
10000000
00100000
01000000
00010000
20000000
00000000
30100000
00000000
,
01100000
00000000
00001000
01000000
00100000
00000000
10000000
00010000
01000000
00001000
10000000
00010000
10000000
00001000
01000000
00000000
,
01010000
00000000
00010000
01000000
00000000
01000000
00100000
00000000
01000000
00000000
00010000
00000000
00110000
00000000
00001000
00000000
,
01001000
00000000
00001000
00100000
00000000
00100000
00001000
00000000
01000000
00000000
00001000
00000000
00010000
00000000
00000100
00000000
,
00011000
00000000
00000010
00000000
00000100
00000000
00000010
00001000
00000000
00001000
00000001
00000000
00001000
00000000
00000010
00010000
,
00000100
00000000
00000010
00000100
00001000
00000000
00000100
00010000
00001000
00000000
00011000
00000000
00000000
00000000
00101000
00000000
,
00010100
00000000
00000100
00010000
00000000
00010000
00001000
00000000
00000100
00000000
00000001
00000000
00000100
00000000
00001000
00000000
,
00000010
00000000
00000100
00000010
00000000
00000010
00010000
00000000
00000001
00000000
00000010
00000000
00000100
00000000
00001000
00000000
,
00010100
00000000
00001000
00000000
00100000
00000000
00001000
00100000
00010000
00000000
10000000
00000000
00100000
00000000
01000000
00000000
,
00010000
00000000
10000000
00000000
00010000
00000000
00001000
01000000
00100000
00000000
00000000
00000000
11000000
00000000
00000000
00000000
,
00100000
10000000
01000000
00000000
01000000
00000000
00100000
00001000
00010000
00000000
00010000
00000000
00021000
00000000
00000000
00000000
,
00031000
00000000
00000000
00000000
00000000
00000000
00001000
00000000
00000000
00100000
00000000
00000000
00000000
00000000
00000000
00001000
00000000
00000000
00010000
00000000
00000000
00000000
00000000
00000000
00000100
00000000
00000000
00000000
00000010
00000000
00000000
00000000
00000001
00000000
00000000
00000000
00000100
00000000
00000000
00000000
00000010
00000000
00000000
00000000
00001000
00000000
00000000
00000000
,
00000000
00000000
00000110
00000000
00000001
00000000
00000100
00000000
00000010
00000000
00010000
00000100
00000000
00000100
00010000
00000000
,
00000010
00000000
00000100
00000000
00000001
00000000
00000010
00000000
00000100
00000000
00001000
00100000
00000000
00100000
00001000
01000000
,
00000000
01000000
00100000
01000000
00100000
01000000
00100000
01000000
00100000
01000000
00100000
01000000
00100000
01000000
00100000
01000000
,
00000000
01000000
00001000
00100000
00001000
00100000
00001000
00100000
00001000
00100000
00001000
00100000
00001000
00100000
00001000
00100000
,
00000000
00100000
00001000
00000000
00100000
00000000
00001000
00000100
00000000
00000100
00001000
00000000
00100000
00000000
00001000
00000100
,
00000000
00000100
00001000
00000000
00010000
00000000
00001000
00000100
00000000
00000100
00001000
00000000
00100000
01000000
00001000
01000000
,
00101000
00011000
00001100
00001001
00000110
00001100
00011000
01001000
,
00001000
00100000
01000000
00100000
00001000
01000000
00100000
01000000
20010000
00000000
00000000
00000000
30010000
00000000
00000000
00000000
,
01010000
00000000
00001000
01000000
00000000
01000000
00001000
00000000
00100000
00000000
00001000
00000000
00011000
00000000
00001000
00000000
,
00101000
00000000
00000010
00010000
00000000
00010000
00000010
00000000
00000110
00000000
00000001
00000000
00001001
00000000
00000010
00000000
,
00001000
00000000
00000100
00010000
00000000
00010000
00000100
00000000
00100000
00000000
00001000
01000000
00000000
01000000
00001000
00000000
,
10010000
00000000
00100000
01000000
00000000
00001000
01000000
00000000
00001000
00010000
00000000
00010000
00001000
01000000
00100000
00000000
,
10010000
00000000
00001000
01000000
00100000
00000000
10000000
01000000
00000000
01000000
00100000
00010000
01000000
00001000
00010000
00000000
,
00011000
00000000
00000100
00010000
00001000
00000000
00001000
00100000
00000000
00100000
00001000
01000000
00001000
00010000
00000010
00000000
,
00000110
00000000
00000001
00000100
00001000
00000100
00000001
00000100
00001000
00000000
00000001
00000010
00001000
00000010
00000001
00000010
,
00001000
00000000
00000100
00010000
00001000
00000000
00100000
00001000
00011000
00000000
00101000
00000000
01001000
00000000
01010000
00000000
,
01100000
00000000
00100000
10000000
00010000
10000000
00010000
01000000
00010000
00000000
00010000
00100000
01000000
10000000
00010000
01000000
,
00001000
00000000
00001000
00010000
00001000
00000100
00000010
00000001
00001000
00000000
00000010
00000100
00000010
00000001
00001000
00000010
,
00000110
00001100
00011000
00010100
00010010
00011000
00010100
00020010
,
00000000
00030010
00010000
00000100
00100000
00001000
00012000
00000000
,
00013000
00001000
00010000
00001000
00010000
00001000
00010000
00001000
00010000
00001000
00010000
00001000
00010000
00001000
01000000
00001000
,
00100000
00001000
00100000
00001000
00100000
00001000
00100000
00001000
00100000
00001000
00100000
00001000
01000000
00100000
10000000
00010000
,
01000000
00100000
00010000
00100000
01000000
00010000
10000000
01000000
00100000
00010000
01000000
00001000
00010000
00000000
00011000
00000000
,
00001100
00000000
00000110
00000000
00000011
00000000
00000001
00000100
00001010
00000000
00010100
00000000
00011000
00000000
00101000
00000000
,
02200000
00000000
00000000
00000000
,
00000000
00000000
00000000
00000000
,
00000000
00000000
00000000
00000000
,
00000000
00000000
00000000
00000000
00000000
00000000
03300000
00000000
00000000
10000000
00010000
10000000
,
01010000
00000000
00001000
01000000
00100000
00000000
01100000
00000000
00100000
01000000
00001000
00000000
01001000
00000000
00001000
00010000
,
00001000
00000000
00011000
00000000
00000100
00000000
00010000
00000000
00011000
00000000
00000100
00010000
00000000
00010000
00000010
00000000
,
00000100
00000010
00010000
00000010
00000100
00000000
00000001
00000000
00001000
00000000
00000001
00000100
00001000
00000000
00100000
00001000
,
01000000
00001000
00000000
10010000
00000000
00100000
01000000
00010000
00001000
00000100
00000010
00000001
00010000
00000010
00000100
00000001
;
