#TITLE:Time is Running Out;
#ARTIST:Muse;
#BANNER:Time is Running Out.png;
#BACKGROUND:Time is Running Out-bg.png;
#JACKET:Time is Running Out-jacket.png;
#CDTITLE:./CDTITLES/NONE.PNG;
#MUSIC:Time is Running Out.ogg;
#SAMPLESTART:57.116;
#SAMPLELENGTH:15;
#DISPLAYBPM:119;
#BPMS:0=119,16=118,64=119,68=118,83=120,84=119,96=118,144=117,148=120,181=119;

//---------------dance-single - t7r----------------
#NOTES:
     dance-single:
     t7r:
     Beginner:
     1:
     :
0000
0000
0000
0000
,
0000
0000
0000
0000
,
0000
0000
0000
0000
,
0000
0000
0000
0000
,
0000
0000
0000
0000
,
0000
0010
0000
0010
,
0000
0100
0000
0100
,
0000
0010
0000
1000
,
0000
0100
0000
0001
,
0000
0100
0000
1000
,
0000
0010
0000
0001
,
0000
0010
0000
1000
,
0000
0100
0000
1000
,
1000
0000
0000
0000
,
0001
0000
0000
0000
,
0001
0000
0000
0000
,
0100
0000
0000
0010
,
0010
0000
0000
0000
,
1000
0000
0000
0000
,
0001
0000
0000
0000
,
0100
0000
0001
0001
,
0001
0000
0000
1000
,
1000
0000
0000
0100
,
0100
0000
0000
0010
,
0010
0000
0000
0001
,
0001
0000
0000
0001
,
0001
0000
0000
0010
,
0010
0000
0000
0100
,
0100
0000
1000
0000
,
0010
0000
0010
0000
,
0100
0000
0100
0000
,
0010
0000
0100
0000
,
0001
0000
1000
0000
,
0001
0000
0010
0000
,
0100
0000
1000
0000
,
0100
0000
1000
0000
,
0010
0000
0100
0000
,
0000
0001
0000
0001
,
0000
0001
0000
0001
,
0001
0000
0000
1000
,
0000
1000
0000
1000
,
1000
0000
0000
0010
,
0000
0010
0000
0010
,
0010
0000
0100
0000
,
0110
0000
1001
0000
,
2000
0000
3000
0000
,
0002
0000
0003
0000
,
0200
0000
0300
0000
,
0020
0000
0030
0000
;

//---------------dance-single - t7r----------------
#NOTES:
     dance-single:
     t7r:
     Easy:
     5:
     :
0000
0000
0000
0000
,
0000
0000
0000
0000
,
0000
0000
0000
0000
,
0000
0000
0000
0000
,
0000
0000
0000
0000
,
0000
0100
0100
0100
,
0000
0010
0010
0010
,
0000
1000
0001
1000
,
0000
0001
1000
0001
,
0000
1000
0100
0100
,
0000
0001
0100
0100
,
0000
1000
0010
0010
,
0000
0001
0010
0010
,
2002
0000
3003
0000
,
0200
0000
0300
0000
,
0020
0000
0030
0000
,
2000
3000
0002
0003
,
1000
0100
0100
0100
,
1000
0001
0001
0001
,
0100
0001
0001
0001
,
0010
0100
0010
1001
,
1000
0000
0001
0100
,
0001
0000
1000
0100
,
0010
0000
0001
0010
,
1000
0000
0001
0100
,
1000
0000
1000
0010
,
0001
0000
1000
0100
,
0001
0000
1000
0100
,
1001
0010
0100
0010
,
1001
1000
0001
0001
,
0100
0000
0010
0000
,
0010
0010
1000
1000
,
0001
0000
0100
0000
,
1001
0001
0010
0010
,
0100
0000
1000
0000
,
0100
0100
0010
0010
,
0001
0010
1000
0100
,
1000
0010
0001
0010
,
0001
0100
0010
1000
,
0010
0001
0100
1000
,
0100
0001
0010
1000
,
0010
0001
0100
0010
,
0100
0001
0100
0010
,
1000
0010
0100
0001
,
1000
0100
0010
0001
,
2000
0000
3001
0000
,
0002
0000
1003
0000
,
0020
0000
0130
0010
,
2002
0000
3003
0000
;

//---------------dance-single - t7r----------------
#NOTES:
     dance-single:
     t7r:
     Medium:
     7:
     :
0000
0000
0000
0000
,
0000
0000
0000
0000
,
0000
0000
0000
0000
,
0000
0000
0000
0000
,
0000
0000
0000
0000
,
1000
1000
0001
0001
,
0100
0100
0010
0010
,
1000
0100
0010
0001
,
1000
0000
0100
0010
0001
0000
1001
0000
,
0001
0100
0010
1000
,
0010
0100
0001
1000
,
0001
0100
0001
0010
,
0100
0000
0010
0001
0100
0000
0101
0000
,
1001
0000
0001
0000
0100
0001
1000
0000
,
0001
0000
1000
0000
0100
1000
0001
0000
,
1000
0000
0010
0000
0100
0010
1000
0000
,
0010
0000
0100
0000
0001
0100
1000
0100
,
0001
0000
1000
0000
0100
0000
0010
0100
,
1000
0000
0100
0000
1000
0000
0010
1000
,
0001
0000
0100
0000
0001
0000
1000
0010
,
0100
0010
1000
2001
,
3001
0001
0100
0000
0010
0000
0100
0000
,
0010
0000
1000
0000
0100
0010
0001
0000
,
1000
1000
0100
0000
1000
0000
0010
0000
,
0100
0000
0010
0000
1000
0001
0100
0000
,
0001
0001
1000
0000
0001
0000
0100
0000
,
0001
0000
0010
0000
1000
0100
0001
0000
,
0010
0010
0100
0000
1000
0100
1000
0000
,
1000
0010
0010
0000
0110
0000
1001
0000
,
0101
0001
0100
0010
,
1000
0000
0100
0000
1000
0000
0010
1000
,
0001
0100
0001
1000
,
0100
0000
0010
0000
0001
0100
1000
0000
,
1000
0100
0010
1000
,
0001
0000
0010
0000
0100
0010
0001
0000
,
0010
0100
1000
0001
,
0100
0001
1000
0000
0001
1000
0100
0000
,
1000
0020
0230
0302
,
2003
3002
2003
3200
,
0310
0002
0023
0230
,
2300
3200
2300
3020
,
1030
0020
0230
0302
,
0203
2300
3000
0100
,
0110
0000
0010
0100
0001
0000
1000
0100
,
0010
0000
0001
0010
0100
1000
0100
1000
,
0010
0100
0100
0000
1001
0000
0000
0000
,
0001
0100
0100
0000
1010
0000
0000
0000
,
1000
0100
0100
0000
0011
0000
0000
0000
,
1010
0100
0001
2000
0000
0000
3000
0000
;

//---------------dance-single - t7r----------------
#NOTES:
     dance-single:
     t7r:
     Hard:
     10:
     :
0000
0000
0000
0000
,
0000
0000
0000
0000
,
0000
0000
0000
0000
,
0000
0000
0000
0000
,
0000
0000
0000
0000
,
0001
0001
0100
0000
0020
0000
1030
0000
,
1000
1000
0100
0000
0020
0000
0031
0000
,
0001
0010
0100
1000
0001
0100
0020
0000
,
1030
0010
1000
0001
0200
0000
0301
0000
,
0001
0100
1000
0100
0001
0010
0100
0000
,
1000
0010
0001
0010
2000
0000
3100
0000
,
0100
0010
0001
0010
0100
1000
0020
0000
,
0130
0010
1000
0010
0110
0000
1002
0000
,
1003
0001
0010
0000
0100
0010
0001
0000
,
0010
0100
1000
0000
0010
1000
0100
0000
,
1000
0010
0100
0000
0001
0100
0002
0000
,
0013
0001
0200
0000
0301
1000
0002
0000
,
1003
0010
0100
0000
0010
1000
0100
0000
,
1000
0100
0001
0000
0001
0100
0010
0000
,
0001
0010
1000
0000
0010
0001
0200
0000
,
0310
1000
0002
0000
1003
0000
0210
0000
,
0310
0000
0000
1000
0010
0000
1000
0000
0001
0000
0100
0000
0001
0000
0000
0000
,
0001
0000
0000
0001
0010
0000
0100
0000
1000
0000
0100
0000
1000
0000
0000
0000
,
1000
0000
0000
0010
1000
0000
0010
0000
0100
0000
0001
0000
0100
0000
0000
0000
,
0100
0000
0000
0100
0010
0000
1000
0000
0001
0000
1000
0000
0100
0000
0000
0000
,
1001
0000
0000
0001
0010
0000
0001
0000
0100
0000
0010
0000
1000
0000
0000
0000
,
0100
0000
0000
1000
0010
0000
0001
0000
0010
0000
1000
0000
0100
0000
0000
0000
,
1000
0000
0000
0100
0001
0000
0100
0000
1000
0000
0010
0000
0001
0000
0000
0000
,
0010
0000
1000
0000
0100
0000
1001
0000
0110
0000
0000
0000
1000
0001
1000
0001
,
1000
0100
0010
0100
1000
0010
0100
0001
,
0100
0001
0010
1000
0010
0001
0100
1000
,
0100
0010
0011
0000
0001
0100
1010
0000
,
0010
1000
0001
0000
1000
0001
0100
0000
,
1001
0001
1000
0010
1000
0100
0010
0100
,
1000
0010
0001
0010
1000
0100
0001
0100
,
1000
0010
0100
0000
0010
0100
0001
0000
,
1000
0000
1001
0000
1001
0000
0000
0001
0100
0000
0001
0000
1000
0000
0010
0000
,
0100
0020
2030
3002
,
0203
0000
0302
0000
0023
0000
0130
0010
,
1001
2000
3020
0032
,
0203
0000
0302
0000
0023
0000
1030
0100
,
0010
0002
0023
0230
,
1300
0100
0010
0000
0001
0010
0001
0100
,
0010
0000
1000
0000
1100
0000
0000
0100
0010
0000
0001
0000
0101
0000
0000
0000
,
0001
1000
0100
1000
0010
0100
0001
1000
,
0020
0100
0130
0100
1001
0000
0110
0000
,
2000
0001
3001
0001
0101
0000
1010
0000
,
2100
0100
3100
0100
0011
0000
0101
0000
,
1001
0010
0100
2000
0000
0000
3000
0000
;

//---------------dance-single - t7r----------------
#NOTES:
     dance-single:
     t7r:
     Challenge:
     12:
     :
0000
0000
0000
0000
,
0000
0000
0000
0000
,
0000
0000
0000
0000
,
0000
0000
0000
0000
,
0000
0000
0000
0000
,
0001
0010
0100
1000
1010
0000
0101
0000
,
1000
0100
0010
0001
0011
0000
0101
0000
,
0001
0100
1000
0100
0001
0010
0011
0000
,
1000
0100
0001
0100
1100
0000
1001
0000
,
1000
0010
0100
0001
0100
0010
1010
0000
,
0010
1000
0100
0001
0101
0000
0011
0000
,
0001
0100
1000
0100
1000
0010
0011
0000
,
0010
1000
0001
1000
1001
0000
0110
0000
,
0010
0000
0110
0000
0010
1000
1200
0000
,
1300
0000
1001
0000
0001
0100
0201
0000
,
0301
0000
0011
0000
0001
0010
0210
0000
,
0310
0000
1001
0000
1000
0100
1000
0010
,
0110
0000
1001
0000
0001
0100
1002
0000
,
1003
0000
1100
0000
1000
0100
2001
0000
,
3010
0000
0110
0000
0010
1000
2010
0000
,
3001
0100
0001
1000
0001
1000
1001
0000
,
0001
0010
0001
0010
0001
0000
0100
0000
0010
0000
0000
1000
0010
0000
0100
0000
,
0010
1000
0010
1000
0010
0000
1000
0000
0100
0000
0000
1000
0001
0000
1000
0000
,
0100
1000
0100
1000
0100
0000
0010
0000
0100
0000
0000
0010
0001
0000
1000
0000
,
0001
1000
0001
1000
0001
0000
1000
0000
0100
0000
0000
1000
0010
0000
0100
0000
,
0010
0100
0001
0100
0010
0000
0100
0000
0001
0000
0000
1000
0100
0000
0001
0000
,
0100
1000
0100
0010
0100
0000
1000
0000
0001
0000
0000
0100
0010
0000
0100
0000
,
0010
0100
0010
1000
0001
0000
1000
0000
0100
0000
0000
1000
0010
0000
0100
0010
,
1000
0000
0010
0000
0110
0000
0010
0000
1000
0000
0001
0000
1000
0001
1000
0001
,
1000
0100
1100
1000
0010
0100
0101
0001
,
1000
0001
1001
0001
0010
0100
0110
0000
,
0010
0001
0101
0001
0100
0010
1010
0010
,
1000
0001
1001
0001
0101
0000
1010
0000
,
0010
1000
0110
0010
0001
0100
1001
0001
,
0010
0100
0011
1000
0100
1000
1001
0000
,
0010
0100
1010
0010
1000
0001
1100
0010
,
0001
0000
0100
0000
0101
0000
0010
0000
0110
0000
0010
1000
0010
1000
0010
1000
,
0001
0000
0000
0000
1100
0000
0000
0100
1000
0000
0000
1000
0010
0000
0000
0010
,
0100
0000
0000
0100
0001
0000
0000
0001
1000
0000
0000
1000
0001
0000
0100
0000
,
0001
0000
0000
0001
0010
0000
0000
0010
1000
0000
0000
1000
0010
0000
0000
0010
,
0001
0100
1000
0100
0001
0100
0010
1000
,
0001
0000
0000
0010
1000
0000
0000
0001
0100
0000
0000
0001
1000
0000
0000
0100
,
0010
0000
0100
0000
1000
0000
0000
0000
1010
0000
0100
0000
0001
0000
1000
0001
,
0100
0000
0001
0000
1001
0000
0000
0001
1000
0000
0100
0000
1100
0000
0100
0010
,
0001
0000
0010
0000
0011
0000
0000
0001
0010
0000
0100
0000
1001
0000
0000
0000
,
1010
0000
1010
0000
0100
0001
0100
0001
0100
0000
0000
0000
0011
0000
0000
0000
,
0011
0000
1001
0000
0100
1000
0010
1000
0100
0000
0000
0000
0110
0000
0000
0000
,
1100
0000
0110
0000
0001
0100
1000
0100
0001
0000
0000
0000
0110
0000
0010
0100
,
0001
0101
1001
2200
0000
0000
3300
0000
;
