#TITLE:The Sound of Truth;
#ARTIST:As I Lay Dying;
#BANNER:The Sound of Truth.png;
#BACKGROUND:The Sound of Truth-bg.png;
#JACKET:The Sound of Truth-jacket.png;
#CDTITLE:./CDTITLES/NONE.PNG;
#MUSIC:The Sound of Truth.ogg;
#SAMPLESTART:37.818;
#SAMPLELENGTH:15;
#BPMS:0=165;

//---------------dance-single - t7r----------------
#NOTES:
     dance-single:
     t7r:
     Beginner:
     2:
     :
0000
0000
0000
0000
,
0000
0000
0000
0000
,
0000
0000
0000
0000
,
0000
0000
0000
0000
,
0000
0000
0000
0000
,
0000
0000
0000
0000
,
1000
0000
1000
0000
,
1000
0000
1000
0000
,
0001
0000
0001
0000
,
1000
0000
0001
0000
,
1001
0000
0000
0000
,
0000
0000
0000
0000
,
0100
0000
0000
0000
,
0000
0000
0000
0000
,
0010
0000
0000
0000
,
1000
0000
0000
0000
,
0001
0000
0000
0000
,
0000
0000
0000
0000
,
0100
0000
0000
0000
,
0001
0000
0000
0000
,
1000
0000
0000
0000
,
0010
0000
0000
0000
,
1000
0000
0000
0000
,
0001
0000
0000
0000
,
0100
0000
0000
0000
,
0001
0000
0010
0000
,
0100
0000
0000
0000
,
1000
0000
0000
0000
,
0100
0000
0000
0000
,
1000
0000
0000
0000
,
0010
0000
0000
0000
,
1000
0000
0001
0000
,
1000
0000
0000
0000
,
0100
0000
0010
0000
,
0100
0000
0000
0000
,
1000
0000
0000
0000
,
0001
0000
0000
0000
,
0100
0000
0000
0000
,
0001
0000
0000
0000
,
1000
0000
0000
0000
,
0010
0000
0000
0000
,
1000
0000
1000
0000
,
0001
0000
0000
0000
,
0100
0000
0000
0000
,
0001
0000
0000
0000
,
0010
0000
0000
0000
,
0001
0000
0000
0000
,
0100
0000
0000
0000
,
0010
0000
0000
0000
,
1000
0000
0000
0000
,
0000
0001
0000
0001
,
0000
1000
0000
1000
,
0000
0010
0000
0010
,
0000
0100
0000
0100
,
0000
0001
0000
0001
,
0000
1000
0000
1000
,
0000
0100
0000
0100
,
0000
1000
0000
1000
,
1000
0000
0000
0000
,
0010
0000
0000
0000
,
0100
0000
0000
0000
,
0001
0000
0000
0000
,
1000
0000
0000
0000
,
0001
0000
0000
0000
,
0010
0000
0000
0000
,
0100
0000
0000
0000
,
1000
0000
0000
0000
,
0010
0000
0100
0000
,
1001
0000
0000
0000
,
0001
0000
0000
0000
,
0100
0000
0000
0000
,
0010
0000
0000
0000
,
1000
0000
0000
0000
,
0100
0000
0001
0000
,
0100
0000
0000
0000
,
1000
0000
0010
0000
,
1000
0000
0000
0000
,
0001
0000
0100
0000
,
1001
0000
0000
0000
;

//---------------dance-single - t7r----------------
#NOTES:
     dance-single:
     t7r:
     Easy:
     6:
     :
0000
0000
0000
0000
,
0000
0000
0000
0000
,
0000
0000
0000
0000
,
0000
0000
0000
0000
,
0000
0000
0000
0000
,
0000
0000
0000
0000
,
0010
0010
0010
0010
,
0010
0010
0010
0100
,
0001
0001
0001
0001
,
1000
1000
1000
0010
,
2002
0000
0000
0000
,
0000
0000
0000
3003
,
0200
0000
0000
0000
0300
0000
0000
0020
,
0000
0000
0000
0030
,
2000
0000
0000
0000
3000
0000
0000
0002
,
0000
0000
0000
0003
,
2000
0001
0001
0001
,
0001
0010
3100
1001
,
0010
0000
0000
0100
0000
0100
0000
0100
,
0000
0001
0000
0000
1000
0000
1000
0000
,
0001
0000
0000
0010
0000
0010
0000
0010
,
0000
0001
0000
0000
1000
0000
0010
0000
,
0100
0000
0000
0001
0000
0001
0000
0001
,
0000
1000
0000
0000
0100
0000
1000
0000
,
0010
0100
0001
1000
,
0010
0100
0001
1000
,
0001
0000
0000
1000
0000
1000
0000
1000
,
0000
0100
0000
0000
1000
0000
0010
0000
,
0100
0000
0000
0001
0000
0001
0000
0001
,
0000
0010
0000
0000
0001
0000
0010
0000
,
1000
0000
0000
0010
0000
0010
0000
0010
,
0000
0001
0000
0000
0100
0000
0010
0000
,
1000
0001
0100
0010
,
1000
1000
0001
1001
,
0010
0010
0010
0010
,
0100
0010
0001
0001
,
1000
1000
1000
1000
,
0001
0100
0010
0010
,
0100
0100
0100
0100
,
0001
1000
0010
0010
,
1000
1000
1000
1000
,
0002
0003
0200
0300
,
0001
0001
0001
0001
,
0010
0100
1000
1000
,
0100
0100
0100
0100
,
0010
0001
0010
0010
,
0001
0001
1000
1000
,
0010
0100
0001
1000
,
0010
0010
0100
0100
,
0001
1000
0010
0100
,
0002
0003
2000
3000
,
0020
0030
0200
0300
,
0002
0003
0002
0003
,
2000
3000
2000
3000
,
0002
0003
0020
0030
,
0200
0300
2000
3000
,
0200
0300
0020
0030
,
0001
1000
0010
0100
,
0000
0020
0030
2000
,
3000
0002
0003
0200
,
0300
0002
0003
2000
,
3000
0020
0030
2000
,
3000
0002
0003
0020
,
0030
0200
0300
2000
,
3000
0200
0300
0020
,
0030
0002
0003
1000
,
1000
0000
0000
0000
,
0010
0010
0100
0100
,
1001
0000
0000
0001
0000
0100
0000
0100
,
0000
0100
0000
0000
0001
0000
1000
0000
,
0001
0000
0000
0010
0000
0010
0000
0010
,
0000
0100
0000
0000
1000
0000
0010
0000
,
1000
0000
0000
0001
0000
1000
0000
0001
,
0000
1000
0000
0000
0010
0000
0100
0000
,
1001
0001
0001
0001
,
1000
0001
0110
1001
,
0110
0100
0100
0110
,
0010
0010
1000
0001
,
2002
0000
3003
0000
;

//---------------dance-single - t7r----------------
#NOTES:
     dance-single:
     t7r:
     Medium:
     8:
     :
0000
0000
0000
0000
,
0000
0000
0000
0000
,
0000
0000
0000
0000
,
0000
0000
0000
0000
,
0000
0000
0000
0000
,
0000
0000
0000
0000
,
1001
1000
1000
1000
,
0100
0100
0010
0010
,
0001
0001
0001
0001
,
1000
0010
0100
0001
,
2002
0000
0000
0000
,
0000
0000
0000
3003
,
0220
0000
0000
0000
0330
0000
0000
2002
,
0000
0000
0000
3003
,
2200
0000
0000
0000
3300
0000
0000
0022
,
0000
0000
0000
0033
,
1001
0100
0100
0100
,
0010
0100
0010
1000
,
1001
0000
1000
0200
0000
2300
0000
3100
,
0000
0100
0000
0100
1000
0000
0001
0000
,
0100
0000
0001
0020
0000
0032
0000
0013
,
0000
0001
0000
0100
0001
0000
1000
0000
,
0010
0000
0100
0020
0000
2030
0000
3001
,
0000
0100
0000
0001
1000
0000
0001
0000
,
1000
0100
0010
0001
,
1000
0100
0010
1001
,
0010
0000
0100
0002
0000
2003
0000
3010
,
0000
0100
0000
0001
1000
0000
0001
0000
,
1000
0000
0010
2000
0000
3002
0000
0103
,
0000
0001
0000
0010
0100
0000
1000
0000
,
0010
0000
0100
0020
0000
0230
0000
0301
,
0000
1000
0000
0100
1000
0000
0001
0000
,
1000
0001
0100
0010
,
1000
0100
0010
0011
,
2001
0001
0001
0001
,
0100
0000
3100
0000
0010
0010
0010
0000
,
1002
1000
1000
1000
,
0100
0000
0103
0000
0010
0010
0010
0000
,
0120
1000
1000
1000
,
0001
0000
0031
0000
0100
0100
0100
0000
,
0012
1000
1000
1003
,
0100
0000
0000
0100
0000
0000
0100
0000
0010
0000
0000
0010
0000
0000
0010
0000
,
2000
0001
0100
0001
,
0010
0000
3001
0000
0001
0001
0001
0000
,
0002
0100
1000
0010
,
1000
0000
0103
0000
1000
1000
1000
1000
,
0020
0100
0001
0100
,
1000
0000
0031
0000
0001
0001
0001
0001
,
0200
0010
1000
0301
,
1000
0100
0110
1001
,
0001
1001
0220
0330
,
1000
1001
0220
0330
,
0010
0110
2002
3003
,
0100
0110
2002
3003
,
0001
0101
2200
3300
,
1000
1100
0202
0303
,
0001
0011
2020
3030
,
0010
0100
1001
0110
,
1000
0000
1000
0100
0000
0000
2002
0000
0000
3003
0000
0000
,
0001
0000
0001
0100
0000
0000
2002
0000
0000
3003
0000
0000
,
0010
0000
0010
0100
0000
0000
0220
0000
0000
0330
0000
0000
,
0100
0000
0100
0001
0000
0000
0202
0000
0000
0303
0000
0000
,
0001
0000
0001
1000
0000
1000
0200
0000
0000
0300
0000
0000
,
1000
0000
1000
0001
0000
0001
0020
0000
0000
0030
0000
0000
,
0001
0000
0010
0100
0000
1000
0002
0000
0000
0003
0000
0000
,
0100
0000
0010
1000
0000
0001
0200
0000
0000
0300
0000
0000
,
0002
1000
1000
1003
,
0010
0100
0010
1001
,
0100
0000
1000
0200
0000
2300
0000
3002
,
0000
0013
0000
0001
0100
0000
1001
0000
,
0010
0000
0100
0020
0000
2030
0000
3020
,
0000
0130
0000
0001
1000
0100
1000
0000
,
1001
0000
0001
0200
0000
0302
0000
2003
,
0000
3001
0000
1000
0001
0000
1001
0000
,
0010
0000
0100
0010
0100
0010
0100
0000
,
0010
0000
1000
0001
1000
0001
1000
0000
,
0001
0110
0110
1000
,
0110
0110
0001
0010
,
2002
0000
3003
0000
;

//---------------dance-single - t7r----------------
#NOTES:
     dance-single:
     t7r:
     Hard:
     13:
     :
0000
0000
0000
0000
,
0000
0000
0000
0000
,
0000
0000
0000
0000
,
0000
0000
0000
0000
,
0000
0000
0000
0000
,
0000
0000
0000
0000
,
0010
0100
0010
0100
0001
0100
0001
0100
,
1000
0100
1000
0100
0001
1000
0100
0010
,
0100
1000
0100
1000
0001
0010
0001
0010
,
0001
1000
1000
1000
0010
0100
0100
0100
,
2002
0000
0000
0000
,
0000
0000
0000
3003
,
2020
0000
0000
0000
3030
0000
0000
0202
,
0000
0000
0000
0303
,
2200
0000
0000
0000
3300
0000
0000
0022
,
0000
0000
0000
0033
,
1001
0000
0100
0100
0100
0100
0100
0100
,
0010
0100
0001
0010
0100
0010
1001
0000
,
0110
0000
0010
1000
0000
0100
0000
1100
,
0000
0011
0000
1000
0100
0000
0110
0000
,
1001
0000
0001
0100
0000
0010
0000
1010
,
0000
0011
0000
1000
0100
0010
0100
0000
,
1100
0000
0010
0001
0000
0100
0000
0110
,
0000
1010
0000
0001
0010
0000
0110
0000
,
0010
0000
0001
0010
0100
1000
0001
0000
,
1000
0010
0010
0010
0100
0001
0001
0001
,
1000
0000
0010
0100
0000
0010
0000
0110
,
0000
1010
0000
0001
0010
0000
0011
0000
,
0101
0000
0001
0010
0000
0100
0000
0110
,
0000
0011
0000
1000
0100
0010
0001
0000
,
1001
0000
0010
1000
0000
0010
0000
0110
,
0000
1010
0000
1000
0001
0000
0110
0000
,
0101
0000
0001
1000
0100
1000
0001
0000
,
0100
0010
1000
0001
1000
0100
0010
0001
,
0010
0000
0011
0000
0010
0001
0010
0001
,
0100
0000
0110
0000
0010
0010
1000
1000
,
0001
0000
1001
0000
0001
1000
0100
1000
,
0001
0000
1000
0000
0110
0010
0110
0100
,
0001
0000
1001
0000
0001
0010
0100
0010
,
0001
0000
1000
0000
0100
0100
1000
1000
,
0010
0000
0110
0000
0010
1000
0100
1000
,
0001
0000
0000
0011
0000
0000
1000
0000
0100
0000
0000
1100
0000
0000
1000
0000
,
0001
0000
1001
0000
0100
0001
0010
0001
,
0100
0000
0010
0000
1000
1000
0010
0010
,
1000
0000
1001
0000
1000
0100
0010
0001
,
0100
0000
0010
0000
1010
0010
1010
1000
,
0001
0000
0011
0000
0001
0010
0100
0010
,
0001
0000
0100
0000
0001
0001
0010
0010
,
0001
0000
1000
0000
0001
0010
0100
1000
,
0001
0000
0001
0100
0000
0100
0010
0000
0010
1000
0000
1000
,
0001
0000
0010
0001
0000
0001
1000
0000
0010
1000
0000
1000
,
0001
0000
1000
0100
0000
0100
0010
0000
0001
0100
0000
0100
,
0010
0000
1000
0010
0000
0010
1000
0000
0001
0010
0000
0010
,
0001
0000
1000
0100
0000
0100
1000
0000
0001
1000
0001
0000
,
1001
0000
0010
0100
0000
0100
0001
0000
0010
0100
0000
0100
,
1000
0000
0001
0010
0000
0010
0001
0000
1000
0010
0000
0010
,
1000
0000
0001
0100
0000
0100
0001
0000
1000
0100
0000
0100
,
1000
0100
1000
0001
0010
0001
1000
0010
1000
0001
0100
0001
,
1000
0000
1000
0010
0000
0000
1000
0001
1000
0010
0000
0000
,
1000
0000
1000
0100
0000
0000
0010
0001
1000
0001
0000
0000
,
0100
0000
0100
0010
0000
0000
0100
0001
1000
0001
0000
0000
,
0010
0000
0010
0001
0000
0000
0100
0000
0010
0100
0010
0000
,
0110
0000
0010
1000
0000
1000
0001
1000
0010
1000
0000
1000
,
0001
0000
0010
0001
0000
0001
1000
0001
0010
0001
0000
0001
,
1000
0100
1000
0010
0000
1000
0001
0010
0001
1000
0000
0001
,
0100
0001
0100
0010
1000
0010
1000
0100
0010
0001
0010
0100
,
2000
0000
0001
0001
0001
0001
3001
0000
,
0100
0110
0010
1010
,
1001
0000
0000
0000
0001
0010
0100
0000
0000
0000
0010
0000
0000
0000
0110
0000
,
0000
0011
0000
1000
0100
0000
0110
0000
,
1100
0000
0000
0000
1000
0010
0100
0000
0000
0000
0010
0000
0000
0000
0110
0000
,
0000
1010
0000
0001
1000
0100
1000
0000
,
0011
0000
0000
0000
0100
0001
1000
0000
0000
0000
0010
0000
0000
0000
0110
0000
,
0000
0101
0000
0001
1000
0000
1001
0000
,
0011
0000
0001
0100
0010
1000
0100
0000
,
1000
0100
0010
0001
1000
0010
1000
0000
,
1001
0000
0101
0001
0101
0000
0011
0000
,
1100
0100
1100
0000
1000
0010
0001
0100
,
2002
0000
3003
0000
;

//---------------dance-single - t7r----------------
#NOTES:
     dance-single:
     t7r:
     Challenge:
     16:
     :
0000
0000
0000
0000
,
0000
0000
0000
0000
,
0000
0000
0000
0000
,
0000
0000
0000
0000
,
0000
0000
0000
0000
,
0000
0000
0000
0000
,
0010
0000
1000
0010
1000
0000
0100
1000
0100
0000
1000
0010
1000
0000
0001
1000
,
0001
0000
0010
0001
0010
0000
0001
0100
0001
0000
0100
0010
0100
0000
0010
1000
,
0001
0000
1000
0100
1000
0000
0001
0100
0001
0000
0010
0001
0010
0000
0001
1000
,
0010
0000
0100
0001
0100
0000
0001
0010
0001
0000
1000
0100
1000
0000
0001
1000
,
0002
0000
1000
1000
0000
0010
0000
1000
,
0000
0100
0000
1000
1000
0000
0013
0000
,
2001
0000
0100
0100
0000
3001
0000
0210
,
0000
0001
0000
0010
0010
0001
0310
0000
,
2010
0000
0001
0001
0000
3100
0000
0012
,
0000
1000
0000
0100
0100
0000
1003
0000
,
2001
0000
3100
0100
0010
0010
0100
0100
,
1000
0010
0100
0001
0010
0100
0011
0100
,
2100
0000
0000
0000
3100
1000
0010
0000
0000
0100
0001
0000
0000
0001
1000
0000
,
0000
1000
0001
0000
0000
0001
0010
0100
0010
0000
0000
0000
0011
0000
0000
0000
,
0201
0000
0000
0000
0301
0100
0010
0000
0000
0100
0001
0000
0000
0001
1000
0000
,
0000
1000
0010
0000
0000
0010
1000
0100
1000
0010
1000
0010
0100
0010
0100
0010
,
2000
0000
0000
0000
3100
0010
0001
0000
0000
0100
0001
0000
0000
0001
1000
0000
,
0000
1000
0001
0000
0000
0001
0010
0001
0100
0000
0000
0000
0110
0000
0000
0000
,
2010
0000
0000
0000
3001
0010
0001
0010
0001
0000
1000
0000
0001
0000
1000
0000
,
0001
0100
0001
0000
1000
0010
1000
0000
0001
0010
0001
0000
1000
0100
0010
0100
,
2000
0000
0000
0000
3010
0100
0001
0000
0000
0100
0010
0000
0000
1000
0010
0000
,
0000
0001
0010
0000
0000
1000
0100
0010
0100
0000
0000
0000
1100
0000
0000
0000
,
0021
0000
0000
0000
0031
0010
0100
0000
0000
0010
0001
0000
0000
1000
0010
0000
,
0000
1000
0001
0000
0000
0100
0010
0100
0001
0010
0001
0010
0100
1000
0100
1000
,
0002
0000
0000
0000
0013
0001
0100
0000
0000
0010
1000
0000
0000
0001
0010
0000
,
0000
0001
1000
0000
0000
0100
0010
0100
1000
0000
0000
0000
1100
0000
0000
0000
,
1020
0000
0000
0000
1030
0010
1000
0010
1000
0000
0001
0000
1000
0000
0001
0000
,
1000
0100
0010
0000
0001
0010
0100
0000
1000
0010
0100
0000
0001
0100
0010
0000
,
2010
0000
0000
3010
1000
0000
0001
0100
0001
0000
0010
0001
0010
0000
0001
1000
,
0001
0000
1000
0010
1000
0000
0001
0010
0001
1000
0001
0000
1000
0100
1000
0000
,
0120
0000
0000
0130
0010
0000
0100
0001
0100
0000
0001
1000
0100
0000
1000
0001
,
0010
0000
0001
1000
0010
0000
0100
0001
1000
0000
1001
0000
1100
0000
1100
0000
,
2001
0000
0000
3001
0010
0000
0001
0100
0001
0000
1000
0010
1000
0000
0001
0010
,
0001
0000
1000
0100
0010
0000
0100
1000
0001
0100
0001
0000
1000
0010
1000
0000
,
2010
0000
0000
3010
1000
0000
0001
0010
0001
0000
1000
0100
1000
0000
0001
0010
,
0100
0000
0010
0001
0000
1000
0010
1000
0001
0000
0100
0010
0000
0100
0001
0000
,
0102
0000
0000
0013
0001
0000
1000
0100
0010
0000
0001
0010
0100
0000
1000
0010
,
0100
0000
0001
0100
0010
0000
0100
0001
1000
0100
1000
0000
0001
0010
0001
0000
,
2001
0000
0000
3001
0010
0000
0001
1000
0100
0000
1000
0001
0010
0000
0100
0010
,
0001
0000
1000
0010
0100
0000
0010
1000
0010
0000
1010
0000
1001
0000
1001
0000
,
0021
0000
0000
0031
0100
0000
0010
1000
0100
0000
0010
0001
0100
0000
0010
1000
,
0001
0000
0100
0001
0010
0000
0100
1000
0010
0100
0010
0000
1000
0001
0100
0000
,
2010
0000
0000
3001
0010
0000
0100
0010
0001
0000
0100
0010
1000
0000
0010
1000
,
0001
0100
1000
0100
0001
0010
1000
0010
0001
1000
0100
1000
,
0001
0100
0001
1000
0001
0010
0001
0100
0001
1000
0001
0010
,
0001
0010
0100
0010
0001
0100
0001
0010
0100
0010
0001
0100
,
0010
1000
0100
1000
0010
1000
0100
1000
0010
1000
0001
1000
,
0010
0100
0001
0100
0010
1000
0001
0000
1001
0000
1100
0000
,
0010
0001
0010
0001
0100
0001
1000
0010
1000
0001
1000
0100
,
1000
0010
0100
0010
1000
0001
1000
0100
0010
0100
1000
0001
,
1000
0100
0001
0100
1000
0010
1000
0100
0001
0100
1000
0010
,
1000
0001
0001
0100
0010
0010
1000
0100
0100
0010
0001
0001
,
0100
0001
0010
0011
0001
0100
0001
0010
0001
1001
0001
1000
,
0010
1000
0100
1100
0100
1000
0010
0100
0010
0110
0010
1000
,
0001
0010
0100
0110
0010
0001
1000
0001
1000
1001
0001
0100
,
0001
0010
0100
0110
0010
0001
1000
0000
1001
0000
1100
0000
,
1010
0010
0100
0110
0010
1000
0001
0010
0001
0011
0001
0100
,
0001
1000
0010
1010
0010
1000
0100
0010
0100
1100
1000
0100
,
0010
0001
0100
1010
0100
0001
1000
0100
0010
1100
0001
1000
,
0001
0001
0001
0001
0001
0001
1000
1000
1000
1000
1000
1000
,
0010
0000
0100
0001
0100
0000
0001
0010
0001
0000
1000
0100
1000
0000
0001
0010
,
0100
1000
0010
0000
0100
0001
0010
0000
0100
1000
0010
0100
0010
1000
0001
0100
,
0002
0000
0000
0000
1003
0100
0010
0000
0000
0100
1000
0000
0000
1000
0001
0000
,
0000
0001
0010
0000
0000
0010
0001
0100
0001
0000
0000
0000
1001
0000
0000
0000
,
0210
0000
0000
0000
0310
1000
0001
0000
0000
0010
0001
0000
0000
0001
1000
0000
,
0000
1000
0010
0000
0000
0010
1000
0100
1000
0001
1000
0001
1000
0100
1000
0100
,
0020
0000
0000
0000
0031
0100
0010
0000
0000
0100
0001
0000
0000
1000
0100
0000
,
0000
0001
0010
0000
0000
1000
0100
1000
0001
0000
0000
0000
0101
0000
0000
0000
,
0210
0000
0000
0301
0010
0000
0100
0010
0001
0000
0100
0000
0010
0000
1000
0000
,
0010
0000
0100
0001
0010
0000
0100
1000
0010
0000
0100
0001
1000
0000
0001
0000
,
1000
0100
1000
0000
1001
0000
1000
0000
1100
0000
0100
0000
0010
0001
0010
0000
,
0101
0000
0001
0000
0110
0000
0010
0000
1000
0100
0010
0001
1000
0001
1000
0000
,
2002
0000
3003
0000
;
