#TITLE:TROOPERS;
#ARTIST:Des-TRACT;
#BANNER:TROOPERS.png;
#BACKGROUND:TROOPERS-bg.png;
#JACKET:TROOPERS-jacket.png;
#CDTITLE:./CDTITLES/BEATMANIA IIDX.PNG;
#MUSIC:TROOPERS.ogg;
#OFFSET:0.002;
#SAMPLESTART:33.898;
#SAMPLELENGTH:15;
#BPMS:0=177;

//---------------dance-single - t7r----------------
#NOTES:
     dance-single:
     t7r:
     Beginner:
     2:
     :
0000
0000
0000
0000
,
0000
0000
0000
0000
,
0000
0000
0000
0000
,
0000
0000
0000
0000
,
0000
0000
0000
0000
,
0001
0000
0000
0000
,
0001
0000
1000
0000
,
0001
0000
1000
0000
,
0100
0000
0000
0000
,
0010
0000
0010
0000
,
0010
0000
0010
0000
,
0100
0000
0100
0000
,
0100
0000
0100
0000
,
0010
0000
0010
0000
,
0010
0000
0010
0000
,
1000
0000
0001
0000
,
0100
0000
0000
0000
,
0000
0010
0000
1000
,
0000
0001
0000
1000
,
0000
0100
0000
0010
,
0000
0001
0000
0001
,
0001
0000
0010
0000
,
0100
0000
1000
0000
,
0100
0000
0010
0000
,
0001
0000
1000
0000
,
0000
0001
0000
1000
,
0000
0001
0000
1000
,
0000
0100
0000
0010
,
0010
0000
0000
0000
,
0000
0100
0000
0010
,
0000
0001
0000
0010
,
0000
0001
0000
0100
,
0100
0000
0010
0000
,
1000
0000
0010
0000
,
1000
0000
0001
0000
,
1001
0000
0001
0000
,
0100
0000
0001
0000
,
1001
0000
0001
0000
,
0010
0000
0100
0000
,
1000
0000
0100
0000
,
0010
0000
0000
0000
,
0100
0000
0100
0000
,
0100
0000
0100
0000
,
0100
0000
0100
0000
,
0100
0000
0100
0000
,
0010
0000
0000
0000
,
0100
0000
0000
0010
,
0010
0000
0000
0000
,
0100
0000
0000
1000
,
1000
0000
0000
0000
,
0001
0000
0000
1000
,
1000
0000
0001
0000
,
1000
0000
0000
0000
,
0000
0001
0000
1000
,
0000
0001
0000
0100
,
0000
0001
0000
1000
,
0000
0001
0000
0010
,
0000
0100
0000
1000
,
0000
0100
0000
0010
,
0000
0001
0000
0010
,
0010
0000
0100
0000
,
0010
0000
1000
0000
,
0001
0000
1000
1000
,
1000
0000
0001
0000
,
0100
0000
0010
0010
,
0010
0000
0100
0000
,
0010
0000
0100
0000
,
0010
0000
1000
0000
,
0001
0000
0000
0000
,
1000
0000
0000
0000
,
0001
0000
0000
0000
,
1000
0000
0000
0000
,
0001
0000
0010
0000
,
0100
0000
0000
0000
,
0010
0000
0001
0000
,
1000
0000
0000
0000
,
1000
0000
0001
0000
,
0100
0000
0000
0000
,
0010
0000
0000
0100
,
0100
0000
0000
0010
,
0010
0000
0000
1000
,
1000
0000
0000
0001
,
0001
0000
0000
1000
,
1000
0000
0001
0000
,
0100
0000
0010
0000
,
1001
0000
0000
0000
;

//---------------dance-single - t7r----------------
#NOTES:
     dance-single:
     t7r:
     Easy:
     7:
     :
0000
0000
0000
0000
,
0000
0000
0000
0000
,
0000
0000
0000
0000
,
0000
0000
0000
0000
,
0000
0000
0000
0000
,
0010
0010
0010
0010
,
0010
0010
0100
0110
,
0001
1000
0001
1000
,
0001
0001
0000
0000
1000
1000
0000
0000
,
1001
0010
1000
0100
,
0001
0010
0100
1000
,
0001
0100
0001
0010
,
1000
0100
0010
1001
,
1000
1000
0001
0001
,
1000
1000
0001
1001
,
0001
0001
1000
1000
,
0010
0010
0000
0000
0100
0100
0000
0000
,
0010
1000
0010
1000
,
0001
0100
0002
1003
,
0001
0010
0001
0010
,
0100
1000
0200
0310
,
0100
1000
0010
0100
,
0001
1000
0020
0130
,
0010
1000
0100
0010
,
0100
0100
0000
0000
1000
1000
0000
0000
,
0001
0100
0001
0100
,
0010
1000
0010
1000
,
0001
0010
0100
1000
,
0001
0100
0110
1000
,
1000
0100
1000
0100
,
1000
0010
1000
0010
,
1000
0001
0100
0010
,
1000
1000
0000
0000
0001
0001
0000
0000
,
1001
0010
0100
0001
,
1000
0100
0010
1001
,
0110
1000
0001
0100
,
0020
0030
1000
1001
,
0110
1000
0001
0100
,
0001
0010
0100
1000
,
0001
0011
1000
1100
,
1000
1000
0000
0000
0001
0001
0000
0000
,
0100
0000
0010
0100
0000
0010
0100
0000
,
0010
0100
0000
0010
0100
0000
0010
0100
,
0000
0010
0100
0000
0010
0010
0000
0100
,
0100
0000
0001
1000
0001
0000
1001
0000
,
1000
1000
1000
1000
,
1000
1000
0100
0110
,
0001
0001
0001
0001
,
0001
0001
0110
1001
,
1000
1000
1000
0110
,
1000
1000
0110
1001
,
0001
1001
1000
1001
,
0010
0010
0000
0000
0100
0100
0000
0000
,
0001
0020
0130
2000
,
3100
0020
0031
2000
,
3001
0200
0310
2000
,
3001
0200
0301
0020
,
0130
0020
0031
2000
,
3100
2000
3001
0200
,
0310
0200
0301
0200
,
0301
0001
0000
0000
1000
1000
0000
0000
,
1001
0010
0100
0001
,
1000
0001
0100
0110
,
1001
1000
0100
0010
,
0001
0010
0100
0110
,
1001
1000
0010
0100
,
0001
0001
1000
0001
,
1000
0100
0010
0001
,
1000
1000
0000
0000
0100
0100
0000
0000
,
0010
0000
0001
0010
0000
0001
0010
0000
,
0100
0000
1000
0100
0000
1000
0100
0000
,
1000
0000
0010
1000
0000
0010
1000
0000
,
0001
0000
0100
0001
0000
0100
0001
0000
,
1000
0000
0001
1000
0000
0001
1000
0000
,
0010
0000
0100
0010
0000
0100
0010
0000
,
1000
0000
0001
0010
0000
0100
1000
0000
,
0100
0000
0010
0001
0000
1000
0100
0000
,
1000
0001
1000
0001
,
0100
0010
0100
0010
,
1000
0100
0010
0001
,
1000
1000
0001
0001
,
1000
0010
0100
0001
,
0010
1000
0010
0001
,
1000
0100
0001
0100
,
1000
0010
0100
0001
,
2002
0000
0000
0000
,
3003
0000
0000
0000
;

//---------------dance-single - t7r----------------
#NOTES:
     dance-single:
     t7r:
     Medium:
     10:
     :
0000
0000
0000
0000
,
0000
0000
0000
0000
,
0000
0000
0000
0000
,
0000
0000
0000
0000
,
0000
0000
0000
0000
,
1001
1010
1001
1100
,
1001
0011
0101
1001
,
0110
1001
1100
0101
,
1000
1000
0001
0000
0001
0001
1000
0000
,
0001
0011
1000
0100
,
1000
0000
0010
0000
0100
0001
1000
0000
,
0010
1010
0100
0001
,
1000
1000
0001
1000
0001
0000
1001
0000
,
0010
0100
0001
1000
,
0001
0001
0010
0100
1000
0000
0110
0000
,
1000
0010
0100
0001
,
1001
0001
1000
0000
1000
1000
0001
0000
,
1000
0000
0010
0000
0100
0001
0100
0000
,
0001
0000
0010
0100
2000
0000
3001
0000
,
1000
0010
0100
0001
,
1000
0000
0001
1000
0000
1000
0001
1000
,
0001
0010
0001
1000
,
0100
0000
0010
0100
0002
0000
0013
0000
,
1000
0100
0001
0100
,
1001
0001
1000
0000
0010
0010
0100
0000
,
0010
0000
2000
0000
3010
0100
0001
0000
,
0010
0000
0002
0000
0013
0100
1000
0000
,
0100
0000
2000
0000
3001
1000
0100
0000
,
1000
0000
0001
1000
0010
0100
0001
0000
,
1000
0000
0200
0000
1300
0100
0001
0000
,
0001
0000
0200
0000
0301
0100
1000
0000
,
0010
0000
0200
0000
0310
1000
0001
1000
,
0001
0001
1000
0000
1001
1000
0001
0000
,
1000
0000
0100
1000
0000
1000
0100
0010
,
0000
0010
0001
0100
0000
0100
0110
0000
,
1001
0000
0001
0010
0000
0010
0001
0200
,
0000
0310
0100
0002
0000
1003
0110
0000
,
1001
0000
0010
1000
0000
1000
0010
0100
,
0000
0100
0001
1000
0000
1000
0001
0000
,
1000
0100
1000
0000
0001
0100
0001
0000
,
0110
0010
1000
0000
0110
0110
0001
0000
,
1000
0000
0001
0100
0000
1000
0100
0000
,
0001
0100
0000
1000
0010
0000
0001
0010
,
0000
1000
0100
0000
0001
0100
0000
0001
,
1000
0000
1000
0001
1000
1000
1000
1000
,
1001
0010
0100
0001
,
1000
0000
0000
0001
0000
0000
1000
0000
1000
0100
0000
0000
,
1001
0010
0100
0001
,
1000
0001
0010
0110
,
1001
0001
0010
0100
,
1001
0000
0000
0010
0000
0000
0100
0000
0100
0001
0000
0000
,
1001
0010
0100
1000
,
0110
0110
0001
0000
0110
0010
1000
0000
,
0010
0000
2000
0000
3010
0100
0002
0000
,
0013
0000
0002
0000
0013
0100
2000
0000
,
3100
0000
0020
0000
0130
0010
0002
0000
,
0103
0000
0020
0000
0130
0010
0200
0000
,
0310
0000
2000
0000
3001
0100
2000
0000
,
3100
0000
0002
0000
0103
1000
0020
0000
,
0130
0000
0120
0000
1030
0010
2000
0000
,
3001
0001
1001
0000
1001
1000
0001
0000
,
1000
0000
0010
0200
0000
0301
0100
0020
,
0000
1030
0001
1000
0000
1000
1001
0000
,
0110
0000
1000
0020
0000
1030
0100
0020
,
0000
0031
0001
0020
0000
0031
1001
0000
,
0110
0000
1000
0002
0000
0103
0010
0200
,
0000
0310
1000
0002
0000
1003
0001
0000
,
1000
0100
0010
0000
0001
0100
0010
0000
,
1001
0001
0001
0001
1000
1000
0001
0100
,
0010
0010
1000
0010
0010
1000
0010
0010
,
1000
0000
0001
0100
0000
0100
0001
0000
,
0010
0010
0001
0010
0010
0001
0010
0010
,
0001
0000
1000
0100
0000
0100
1000
0000
,
0001
0001
1000
0001
0001
1000
0001
0001
,
0010
0000
0001
0100
0000
0010
1000
0000
,
0100
0100
0010
0100
0100
0001
0100
0100
,
0110
0010
0010
0010
0001
0000
1000
0000
,
0001
0100
0001
0000
1000
0000
0010
1000
,
0000
1000
0100
0001
0100
0000
1001
0000
,
0001
0010
0001
0000
1000
0010
1000
0010
,
0000
0010
1000
1000
0001
0000
1001
0000
,
0010
0000
0100
0000
0010
0100
0001
1000
,
0000
1000
0100
0100
0010
0000
0110
0000
,
0010
0001
1000
0000
0010
1000
0001
0100
,
0001
0000
1001
0000
1000
0010
0001
0100
,
0220
0000
0000
0000
,
0330
0000
0000
0000
;

//---------------dance-single - t7r----------------
#NOTES:
     dance-single:
     t7r:
     Hard:
     15:
     :
0000
0000
0000
0000
,
0000
0000
0000
0000
,
0000
0000
0000
0000
,
0000
0000
0000
0000
,
0000
0000
0110
0101
,
1001
1010
0101
1100
,
0011
0110
0101
1001
,
0110
1001
0110
1010
,
0101
0101
1000
0000
1100
1100
0001
0000
,
1000
0000
0100
1000
0100
0000
1000
0000
0010
0000
0100
0000
0100
0000
0001
0000
,
0010
0010
0001
1000
0100
0000
1001
0000
,
0001
0000
0010
0001
0010
0000
0001
0000
0100
0000
0100
0000
0010
0000
1000
0000
,
0001
0100
0001
1000
0001
0000
1001
0000
,
0001
0010
0100
1000
0100
0010
0001
0100
0010
1000
0010
0100
,
0010
1000
0001
0100
0001
1000
0100
0010
0001
2000
0000
0000
,
3010
0100
0001
1000
0010
0001
0010
1000
0100
0001
0100
1000
,
0001
1001
1000
0000
1001
1001
0001
0000
,
1000
0100
0010
0001
1000
0100
0010
0100
,
1000
0001
0100
0010
2000
0000
3020
0000
,
0130
0010
1000
0010
0100
0001
1000
0001
,
0100
0000
0001
0000
1000
0000
0001
0000
1000
0000
0001
1000
0001
0000
1000
0001
,
1000
0010
0100
0001
0100
0010
1000
0001
,
0010
0100
1000
0100
0020
0000
0032
0000
,
1003
0100
0010
0100
1000
0010
0100
0001
,
1001
1001
0010
0000
1001
1001
0100
0000
,
0010
0000
0100
0000
0000
0001
0100
0000
0010
0000
0100
0000
0001
0100
0010
0000
,
1000
0000
0100
0000
0000
1000
0100
0000
0010
0000
0100
0000
1000
0100
0010
0000
,
0001
0000
1000
0000
0000
0001
1000
0000
0001
0000
0100
0000
0010
0100
0001
0000
,
0100
0000
0010
0000
0000
1000
0010
0000
1000
0000
0001
0000
2000
0000
0000
0000
,
3001
0000
0010
0000
0000
0001
0010
0000
0100
0000
0010
0000
0001
0010
0100
0000
,
1000
0000
0010
0000
0000
1000
0010
0000
1000
0000
0010
0000
0100
0001
1000
0000
,
0001
0000
1000
0000
0000
0001
1000
0000
0001
0000
0010
0000
0001
0100
0010
0000
,
0110
0110
0001
0000
1001
1001
0010
0000
,
1001
0100
0010
0001
0000
1000
0100
0010
,
0000
0001
0100
0010
0000
1000
0110
0000
,
1001
0100
0010
1000
0000
0001
0100
0020
,
0000
1030
0010
2000
0000
3001
0110
0000
,
1001
0010
0100
0001
0000
1000
0001
0100
,
0000
0001
1000
0010
0000
0100
0010
0000
,
1000
0010
0100
0001
0000
0010
0100
1000
,
1001
1001
0010
0000
1001
1001
0100
0000
,
0100
0100
1001
0100
0100
1001
0010
0010
,
1001
0010
0010
1001
0100
0100
1100
0010
,
0010
0011
0100
0100
1010
0100
0100
0011
,
0100
0100
1001
0010
1001
1010
1100
1001
,
1002
0010
0103
0001
,
2001
0000
0000
3010
0000
0000
0100
1000
0001
1000
0000
0000
,
2001
0010
3100
1000
,
0210
0301
1020
0230
,
0301
0011
0110
1100
,
1001
0000
0000
0110
0000
0000
1000
0010
0100
0001
0000
0000
,
1001
0011
1001
1100
,
0110
0110
0001
0000
0110
0110
1000
0000
,
0001
0000
0100
0000
0000
0010
1000
0000
0001
0000
0100
0000
0000
0010
1000
0000
,
0001
0000
0100
0000
0000
0010
1000
0000
0001
0000
0100
0000
0010
1000
0100
0000
,
0010
0000
0001
0000
0000
1000
0100
0000
0010
0000
0001
0000
0000
1000
0100
0000
,
0010
0000
0001
0000
0000
1000
0100
0000
0010
0000
0001
0000
0100
0010
1000
0000
,
0010
0000
0100
0000
0000
0001
1000
0000
0010
0000
0100
0000
0000
0001
1000
0000
,
0010
0000
0100
0000
0000
0001
1000
0000
0010
0000
0100
0000
0001
0010
0100
0000
,
1000
0000
0100
0000
0000
0001
0100
0000
1000
0000
0010
0000
0000
0001
0010
0000
,
0110
0110
0001
0001
0110
0110
1001
0000
,
0110
1000
0001
0100
0000
0100
0001
1000
,
0000
1000
0010
0100
0000
0100
1001
0000
,
0110
0001
0010
0100
0000
1000
0100
0020
,
0000
0031
0010
0002
0000
1003
1001
0000
,
0110
1000
0010
0100
0000
0001
0100
0001
,
0000
1000
0100
0001
0000
0100
1000
0000
,
0010
0100
0001
0100
0000
0010
1000
0001
,
1001
0000
1001
0000
1000
0000
1000
0000
1001
0000
1001
0000
0001
1000
0001
1000
,
0001
0001
0101
0010
0010
1010
1000
1000
,
1100
0010
0010
0011
0100
0100
1002
0000
,
1003
1000
1010
0001
0001
0011
0100
0100
,
1100
0010
0010
0110
1000
1000
2001
0000
,
3001
1000
0001
1000
0001
0000
0010
0001
0010
0001
0010
0000
0100
1000
0100
1000
,
0100
0000
1000
0001
1000
0001
1000
0000
0100
0010
0100
0010
0200
0000
0000
0000
,
1300
0001
1000
0001
0010
0000
0001
1000
0001
1000
0100
0000
0010
0100
0010
0000
,
0001
0001
0001
0001
1000
0001
1000
0001
,
1001
0010
0100
1000
0001
0010
0100
0020
,
0000
0031
0010
0100
1000
0001
0100
1000
,
0100
0010
0200
0000
0310
1000
0010
0200
,
0000
0301
0100
0010
1000
0100
0001
0100
,
1000
0010
0020
0000
1030
0010
0100
0002
,
0000
1003
0100
0001
0100
1000
0010
0001
,
0010
1000
0020
0000
0130
0001
0100
0001
,
1000
0100
0010
0001
1000
0100
0001
0010
,
2002
0000
0000
0000
,
3003
0000
0000
0000
;

//---------------dance-single - t7r----------------
#NOTES:
     dance-single:
     t7r:
     Challenge:
     17:
     :
0000
0000
0000
0000
,
0000
0000
0000
0000
,
0000
0000
0000
0000
,
0000
0000
0000
0000
,
0000
0000
0110
0101
,
1100
0000
1010
0010
1010
0010
1010
0000
,
1100
0000
0100
0000
1100
0000
0100
0000
1100
0000
0100
0010
0002
0000
0003
0000
,
0101
0000
0110
0010
1010
0010
1010
0000
,
1100
0000
1100
0000
0001
1000
0001
1000
0100
0000
0110
0000
0002
0000
0000
0000
,
1003
0000
0010
1000
0010
0000
1000
0000
0001
0010
0001
0010
0001
0000
1000
0000
,
0100
0000
1000
0010
1000
0000
0001
0000
1000
0001
0100
0010
1000
0000
0001
0000
,
1000
0000
0100
1000
0100
0000
1000
0000
0010
0100
0010
0100
0010
0000
1000
0000
,
0001
0010
0100
0000
1000
0010
0100
0000
0010
0000
0100
0001
1000
0000
0001
1000
,
0001
0010
1000
0010
0001
0100
0001
0010
0100
1000
0010
0100
,
0010
1000
0100
0001
0100
1000
0010
0100
0001
2000
0000
0000
,
3010
1000
0100
0010
0100
1000
0010
0001
0010
1000
0010
0100
,
0110
0000
0110
0000
0001
0000
0000
1000
0100
0000
1100
0000
0010
0000
0000
0000
,
0101
0010
1000
0100
0001
0100
1000
0010
,
0100
0001
0010
0001
2000
0010
3002
0010
,
1003
0100
0001
0100
1000
0010
0100
0010
,
1000
0000
0001
0000
0010
0000
0100
0000
1000
0000
0001
0100
0010
0000
1000
0010
,
0100
0010
1000
0010
0100
0001
0010
1000
,
0010
0100
0010
0001
2000
0100
3002
0100
,
1003
0010
0100
0001
0010
0100
1000
0001
,
0110
0110
0001
0000
0110
0110
1000
0000
,
0010
0000
1000
0000
0100
1000
0010
0000
0100
0000
0001
0000
0010
0001
0100
0000
,
0001
0000
0010
0000
0100
0010
0001
0000
1000
0000
0010
0000
0100
0010
1000
0000
,
0010
0000
1000
0000
0001
1000
0100
0000
0010
0000
0001
0000
1000
0001
0100
0000
,
0010
0000
0100
0000
0001
0010
0100
0000
1000
0000
0010
0000
0200
0000
0010
0000
,
1300
0000
0010
0000
1000
0001
0100
0000
0001
0000
0010
0000
0001
1000
0100
0000
,
1000
0000
0100
0000
0010
0001
1000
0000
0001
0000
0100
0000
0010
1000
0001
0000
,
1000
0000
0010
0000
0100
0010
1000
0000
0001
0000
0010
0000
0100
0010
0001
0000
,
0110
0000
0110
0000
0001
1000
0100
1000
0001
0000
1001
0000
0010
0000
0000
0000
,
0110
0000
0001
0000
1000
0010
2000
0000
0001
0000
0010
0000
3100
0001
0200
0000
,
0001
0000
1000
0000
0301
0010
0002
0000
1000
0000
0103
0000
0011
0000
0000
0000
,
1001
0000
0010
0000
0100
0010
0200
0000
0010
0000
1000
0000
0301
0010
0002
0000
,
1000
0000
0100
0000
1003
0010
2000
0000
0010
0000
3100
0000
1100
0000
0000
0000
,
0011
0000
0001
0000
1000
0010
0200
0000
0001
0000
0010
0000
0301
0010
0200
0000
,
1000
0000
0010
0000
1300
0001
0200
0000
0001
0000
0010
0000
1300
0000
0001
0000
,
1000
0000
0100
0000
1000
0010
1000
0000
0001
0000
0100
0000
0001
0010
0001
0000
,
1001
1001
0100
0000
0110
0110
1000
0000
,
0100
0100
1010
0100
0100
0011
0100
0100
,
1001
0010
0010
0110
0001
0001
0101
1000
,
1000
1100
0001
0001
0011
1000
1000
1010
,
0001
0001
0101
0010
0110
1001
1001
1001
,
1100
0000
0110
0100
1100
0000
0110
0010
,
0011
0000
0000
0000
0000
0000
0101
0000
0000
0100
0000
0000
0101
0000
0010
0000
0100
0000
2000
0000
0000
0000
0000
0000
,
3001
0000
0011
0001
1001
0000
1010
1000
,
1001
0000
0000
0000
0110
0000
0010
0000
1010
0000
1000
0100
1000
0000
0100
0010
,
0001
0000
0011
0001
0101
0000
1010
1000
,
1100
0000
0000
0000
0000
0000
0110
0000
0000
0010
0000
0000
0110
0000
0100
0000
1000
0000
0002
0000
0000
0000
0000
0000
,
0103
0000
0110
0010
1010
0000
1100
0100
,
0110
0110
1000
0000
0110
0110
0001
0000
,
1001
0000
0010
0000
0100
0001
1000
0000
0001
0000
0010
0000
0100
0010
0001
0000
,
1000
0000
0100
0000
0010
0100
1000
0000
0010
0000
0100
0000
0001
1000
0010
0000
,
0100
0000
0001
0000
1000
0100
0010
0000
0100
0000
1000
0000
0010
0100
0001
0000
,
1000
0000
0010
0000
0100
0010
1000
0000
0001
0000
0010
0100
1000
0000
0100
0010
,
0001
0000
0010
0000
0001
0100
1000
0000
0100
0000
0010
0000
1000
0100
0001
0000
,
1000
0000
0010
0000
0100
0010
0001
0000
1000
0000
0010
0000
0100
0010
1000
0000
,
0001
0000
0010
0000
1000
0010
0001
0000
1000
0000
0010
0000
0001
0010
1000
0000
,
0110
0000
0110
0000
0001
1000
0100
1000
0001
0000
1001
0000
0010
0000
0000
0000
,
0110
0000
0001
0000
0100
0001
0020
0000
0001
0000
0100
0000
0031
0010
0200
0000
,
0010
0000
0001
0000
1300
0010
0200
0000
0010
0000
1000
0000
0301
0000
0000
0000
,
1001
0000
0010
0000
1000
0100
0002
0000
0100
0000
1000
0000
0103
0010
0002
0000
,
0100
0000
0010
0000
1003
0010
0200
0000
0010
0000
1000
0000
0301
0000
0000
0000
,
1010
0000
0100
0000
0010
1000
0200
0000
0010
0000
1000
0000
0310
0100
2000
0000
,
0010
0000
0001
0000
3100
0010
0002
0000
0100
0000
0010
0000
1003
0000
0001
0000
,
0100
0000
0010
0000
1000
0100
1000
0000
0001
0000
0010
0000
0001
0100
0001
0000
,
0110
0000
0110
0000
0001
0000
0000
0000
0110
0000
0110
0000
1000
0100
0010
0100
,
1000
0010
1000
0010
0100
0000
0001
0010
0001
0010
0100
0000
1000
0010
1000
0010
,
0001
0000
1000
0100
1000
0100
0001
0000
1000
0100
0010
0100
1000
0000
1001
0000
,
0100
0010
0100
0010
0001
0000
0100
0010
0100
0010
1000
0000
0010
1000
0001
1000
,
0010
0000
0100
0001
1000
0001
0010
0000
0001
0010
0100
0010
0002
0000
1003
0100
,
1000
0010
0100
0100
0010
0000
1000
0001
0010
0010
0001
0000
0100
0001
0010
0010
,
0100
0000
0010
0001
0100
0100
0010
0000
1000
0001
0100
0100
0010
0000
1010
0000
,
0100
0010
0100
0100
0001
0000
0010
0100
0010
0010
0001
0000
1000
0100
0010
0010
,
0100
0000
1000
0100
1000
0100
1000
0001
0100
0010
0100
0010
1000
0001
1000
0001
,
1000
0000
0010
0000
0100
0010
1000
0000
0001
0000
0010
0000
0100
0010
0001
0000
,
1000
0000
0100
0000
0010
0100
1000
0000
0001
0000
0010
0000
0100
0010
0001
0000
,
1000
0000
0010
0000
1000
0100
0001
0000
1000
0000
0100
0000
1000
0010
0001
0000
,
0010
0000
0100
0000
0001
0010
0100
0000
0010
0000
0001
0000
1000
0010
0100
0000
,
0010
0000
1000
0000
0100
1000
0100
1000
0010
0000
0100
0001
1000
0001
0010
0000
,
0001
0000
1000
0100
0010
0100
1000
0000
0001
0000
0010
0001
0100
0001
0010
0000
,
0100
0000
0010
0001
0100
1000
0100
0000
1000
0000
0010
1000
0100
0001
0100
0000
,
0110
0000
0110
0000
2000
0000
0000
0000
3001
0000
1001
0000
0001
0010
0100
1000
,
0002
0000
0000
0000
,
0003
0000
0000
0000
;

//---------------dance-double - t7r----------------
#NOTES:
     dance-double:
     t7r:
     Easy:
     8:
     :
00000000
00000000
00000000
00000000
,
00000000
00000000
00000000
00000000
,
00000000
00000000
00000000
00000000
,
00000000
00000000
00000000
00000000
,
00000000
00000000
00000000
00000000
,
00100000
00010000
01000000
00100000
,
10000000
01000000
00100000
00010000
,
00001000
00000100
00000001
00000100
,
00001000
00001000
00000000
00000000
00000001
00000001
00000000
00000000
,
00001001
00000010
00001000
00000100
,
00000010
00000100
00001000
00011000
,
00101000
01000000
00100000
10000000
,
01000000
00100000
00010000
10010000
,
01100000
00001000
00001000
00001000
,
01100000
00100000
00100000
01010000
,
00011000
00001000
00001000
00001000
,
00100000
00100000
00000000
00000000
00001000
00001000
00000000
00000000
,
10000000
01000000
00100000
00010000
,
01000000
00001000
00010000
00001000
,
00000010
00000001
00000100
00000010
,
00001000
00000001
00002000
00003001
,
00000010
00000100
00010000
00000100
,
00010000
00000100
00000010
00000100
,
00010000
00000010
00000100
00001000
,
00011000
00001000
00000000
00000000
00010000
00010000
00000000
00000000
,
00001000
00100000
00001000
00100000
,
00001000
01000000
00001000
01000000
,
00001000
00100000
00001000
00000100
,
00001000
00100000
00002000
00003000
,
00100000
00010000
01000000
10000000
,
01000000
00010000
00000100
00000001
,
00000100
00001000
00000010
00000001
,
00001000
00001000
00000000
00000000
00000001
00000001
00000000
00000000
,
00011000
00001000
00010000
00001000
,
00010000
00001000
00010000
00011000
,
00011000
00001000
00010000
00001000
,
00200000
00300000
00002000
00003000
,
00011000
00100000
00001000
01000000
,
00100000
10000000
01000000
00100000
,
00001000
00000100
00000001
00000100
,
00001000
00001000
00000000
00000000
01000000
01000000
00000000
00000000
,
10000000
00000000
00000000
00100000
00000000
00000000
01000000
00000000
,
00000000
00010000
00000000
00000000
00001000
00000000
00000000
00000100
,
00000000
00000000
00000010
00000000
00000000
00000001
00000000
00000000
,
00000100
00000010
00010000
00001000
,
00011000
00100000
00100000
00100000
,
00011000
01000000
00020000
20030000
,
30010000
01000000
01000000
01000000
,
10010000
00100000
00002000
00023000
,
00031000
00000100
00000100
00000100
,
00001001
00000010
00000100
00000002
,
00001003
00000100
00010000
00000100
,
00010000
00010000
00000000
00000000
00001000
00001000
00000000
00000000
,
00100000
00001000
01000000
00001000
,
00100000
00001000
01000000
00001000
,
00010000
00001000
00000100
00000001
,
00000100
00010000
00000010
00000100
,
00000010
00010000
00001000
00010000
,
00100000
00010000
00001000
00010000
,
00000100
00010000
00100000
00001000
,
00011000
00001000
00000000
00000000
00010000
00010000
00001000
00000000
,
00011000
00100000
00001000
01000000
,
00100000
10000000
01000000
01100000
,
00011000
00001000
00000100
00000001
,
00000100
00001000
00000010
00000110
,
00011000
00100000
00010000
01000000
,
00100000
10000000
00010000
10000000
,
00010000
10010000
10000000
10010000
,
01000000
01000000
00000000
00000000
00001000
00001000
00010000
00001000
,
00010000
00000000
00001000
00010000
00000000
00001000
00010000
00000000
,
00001000
00010000
00000000
00001000
00010000
00000000
00011000
00000000
,
00000100
00000000
00001000
00000100
00000000
00001000
00000100
00000000
,
00010000
00000100
00000000
00001000
00000100
00000000
00001100
00000000
,
00100000
00000000
00010000
01000000
00000000
00100000
10000000
00000000
,
00010000
01000000
00000000
00100000
10000000
00000000
01100000
00000000
,
01001000
00000000
00001000
00100000
00000000
00001000
01000000
00000000
,
00100000
10000000
10000000
10000000
00010000
00000000
10010000
00000000
,
10000000
10000000
01000000
00100000
,
00001000
01000000
00001000
00010000
,
00001000
00000100
00000001
00000100
,
00001000
00000010
00000001
00000010
,
00010000
00001000
00010000
00001000
,
00100000
00001000
01000000
00001000
,
01000000
00100000
10000000
01000000
,
00100000
00010000
00001000
00000100
,
00022000
00000000
00000000
00000000
,
00033000
00000000
00000000
00000000
;

//---------------dance-double - t7r----------------
#NOTES:
     dance-double:
     t7r:
     Medium:
     10:
     :
00000000
00000000
00000000
00000000
,
00000000
00000000
00000000
00000000
,
00000000
00000000
00000000
00000000
,
00000000
00000000
00000000
00000000
,
00000000
00000000
00000000
00000000
,
00001100
00010100
00001100
00001010
,
00001100
00010100
00011000
00101000
,
00001000
01000000
00100000
10000000
,
01000000
01000000
00000000
00000000
00100000
00100000
00000000
00000000
,
00001000
00011000
00001000
01000000
,
00010000
00000000
00100000
00010000
01000000
00000000
10010000
00000000
,
10000000
11000000
00010000
01000000
,
00001000
00000000
00010000
00001000
00000100
00000000
00000110
00000000
,
00000010
00001000
00000100
00000010
,
00000001
00000000
00000100
00000010
00001000
00000000
00000110
00000000
,
00010010
00011000
00010100
00011000
,
00000100
00000100
00000000
00000000
00000010
00000010
00000000
00000000
,
00000001
00000100
00000010
00001000
,
00000100
00000000
00001000
00000100
00000010
00000000
00000100
00000000
,
00010000
00000100
00001000
01000000
,
00100000
00000000
00010000
10000000
01000000
00000000
10000000
00000000
,
00100000
01000000
00010000
10000000
,
00100000
00000000
01000000
00001000
00010000
00000000
00001000
00000000
,
00010000
00000100
00000010
00000001
,
00001000
00001000
00000000
00000000
00000001
00000001
00000000
00000000
,
00001000
00000000
00000002
00000000
00001003
00000010
00000100
00000000
,
00001000
00000000
00000020
00000000
00001030
00000010
00000100
00000000
,
00000010
00000000
00020000
00000000
00031000
00100000
01000000
00000000
,
00100000
00000000
00020000
00000000
01030000
00100000
20000000
00000000
,
30100000
00000000
02000000
00000000
03001000
01000000
00200000
00000000
,
01300000
00000000
00002000
00000000
00103000
00001000
00020000
00000000
,
00031000
00000000
00000200
00000000
00000310
00000100
00002000
00000000
,
00003001
00000001
00000000
00000000
00001000
00001000
00000000
00000000
,
00001001
00000000
00000010
00001000
00000000
00000100
00010000
00001000
,
00000000
00001000
00010000
00001000
00000000
00001000
00010000
00000000
,
00011000
00000000
00100000
00001000
00000000
00001000
01000000
00200000
,
00000000
10300000
00100000
20000000
00000000
30010000
10000000
00000000
,
10010000
00000000
00100000
01000000
00000000
00001000
01000000
00100000
,
00000000
00100000
01000000
00001000
00000000
00001000
00020000
00000000
,
00030100
00010000
00001000
00000000
00010000
00001000
00010000
00000000
,
00001000
00001000
00000000
00000000
00010000
00010000
00000000
00000000
,
00001000
00000000
00000000
00011000
00000000
00000000
00010100
00000000
,
00000000
00010010
00000000
00000000
00011000
00000000
00000000
00001100
,
00000000
00000000
00001001
00000000
00000000
00000110
00000000
00000000
,
00001001
00000000
00010010
00000000
00000100
00010000
00010000
00010000
,
00001000
00010000
00001000
00010000
,
00001000
00000000
00000000
00010000
00000000
00000000
00001000
00000000
00001000
00020000
00000000
00000000
,
00031000
00100000
00001000
00100000
,
00001000
00100000
01100000
00002000
,
00003100
00000001
00000100
00000001
,
00000010
00000000
00000000
00001000
00000000
00000000
00000010
00000000
00000010
00000200
00000000
00000000
,
00000310
00000001
00001000
00000001
,
00001000
00001000
00000000
00000000
01000000
01000000
00000000
00000000
,
00100000
00000000
00020000
00000000
00130000
00010000
02000000
00000000
,
03100000
00000000
20000000
00000000
30010000
10000000
02000000
00000000
,
03100000
00000000
00002000
00000000
00013000
00001000
00020000
00000000
,
00030010
00000000
00000200
00000000
00000310
00001000
00000200
00000000
,
00010300
00000000
00002000
00000000
00013000
00001000
00020000
00000000
,
00030100
00000000
00020000
00000000
00031000
00100000
00002000
00000000
,
00103000
00000000
02000000
00000000
03100000
01000000
20000000
00000000
,
30010000
00010000
00010000
00010000
10000000
10000000
00010000
00000000
,
10000000
00000000
00010000
01000000
00000000
00100000
01000000
00001000
,
00000000
00001000
00100000
00001000
00000000
00001000
00010000
00000000
,
00011000
00000000
00001000
00000100
00000000
00000100
00000010
00000002
,
00000000
00000013
00000100
00002000
00000000
00003100
00001000
00000000
,
00001001
00000000
00000010
00010000
00000000
00001000
00010000
00001000
,
00000000
00100000
00001000
01000000
00000000
01000000
00100000
00000000
,
10000000
00100000
01000000
00000000
00010000
10000000
01000000
00000000
,
10000000
10000000
00010000
00010000
10000000
10000000
00010000
00010000
,
10000000
00000000
01000000
10000000
00000000
01000000
00100000
00000000
,
01000000
10000000
00000000
01000000
00100000
00000000
01100000
00000000
,
00100000
00000000
00001000
00100000
00000000
00001000
01000000
00000000
,
00001000
00100000
00000000
00001000
00010000
00000000
00011000
00000000
,
00001100
00000000
00001000
00000100
00000000
00000010
00000001
00000000
,
00001000
00000100
00000000
00000010
00000100
00000000
00000110
00000000
,
00001001
00000000
00000001
00000010
00000000
00000100
00010000
00000000
,
00001000
00010000
00000000
00100000
00001000
00000000
00101000
00000000
,
00001000
01000000
01000000
01000000
00100000
00000000
01000000
00001000
,
00000000
00001000
00100000
00000000
01000000
00000000
10010000
00000000
,
10000000
00100000
00100000
00000000
01000000
00000000
00010000
01000000
,
00000000
01000000
00010000
00000000
10000000
00000000
10010000
00000000
,
00100000
00001000
00001000
00000000
00100000
00000000
00001000
00000100
,
00000000
00000001
00000100
00001000
00000100
00000000
00001001
00000000
,
00000010
00000100
00000100
00000000
00000001
00000000
00000010
00000100
,
00010000
00001000
00010000
00011000
,
00202000
00000000
00000000
00000000
,
00303000
00000000
00000000
00000000
;

//---------------dance-double - t7r----------------
#NOTES:
     dance-double:
     t7r:
     Hard:
     15:
     :
00000000
00000000
00000000
00000000
,
00000000
00000000
00000000
00000000
,
00000000
00000000
00000000
00000000
,
00000000
00000000
00000000
00000000
,
00000000
00000000
00110000
01010000
,
00011000
00101000
00011000
01001000
,
00011000
00101000
10010000
01200000
,
10300000
10100000
01010000
11000000
,
10010000
10010000
00000000
00000000
01100000
01100000
00000000
00000000
,
00001000
01000000
00001000
00100000
00001000
01000000
00100000
10000000
,
01000000
00100000
00001000
00010000
00001000
00000000
00011000
00000000
,
00000100
00001000
00000010
00000100
00000001
00000010
00000100
00010000
,
00001000
00100000
00001000
01000000
00100000
00000000
01010000
00000000
,
00100000
10000000
01000000
10000000
00010000
01000000
00001000
00100000
00001000
01000000
00001000
00100000
,
01000000
00100000
00001000
00010000
00001000
00010000
00000100
00000010
00000001
00001000
00000000
00000000
,
00000001
00000100
00000010
00001000
00000100
00000010
00000100
00010000
00001000
00010000
00001000
01000000
,
00100000
01100000
00010000
00000000
01000000
01100000
10000000
00000000
,
00100000
10000000
01000000
00100000
00001000
00010000
00001000
01000000
,
00100000
10000000
01000000
00100000
00002000
00000000
00203000
00000000
,
00301000
00010000
00001000
00000100
00000001
00000100
00001000
00000010
,
00000001
00000000
00000010
00000000
00010000
00000000
00000100
00000000
00010000
00000000
00001000
00010000
00001000
00000000
00010000
00001000
,
00010000
00001000
01000000
00100000
10000000
01000000
00100000
00001000
,
01000000
00100000
01000000
00001000
00200000
00000000
00302000
00000000
,
00103000
00001000
00000100
00000001
00000100
00010000
00000010
00000001
,
00000110
00000110
00001000
00000000
00000110
00000110
00000001
00000000
,
00000010
00000000
00000100
00000000
00000000
00001000
00000100
00000000
00000010
00000000
00000100
00000000
00010000
00000100
00001000
00000000
,
00000010
00000000
00000100
00000000
00000000
00000001
00000100
00000000
00000010
00000000
00010000
00000000
00001000
00010000
00001000
00000000
,
00100000
00000000
00001000
00000000
00000000
01000000
00100000
00000000
10000000
00000000
01000000
00000000
00100000
01000000
10000000
00000000
,
00010000
00000000
01000000
00000000
00100000
01000000
00010000
00000000
01000000
00000000
00001000
00000000
00200000
00000000
00000000
00000000
,
00301000
00000000
00000100
00000000
00000000
00000010
00000100
00000000
00010000
00000000
00000100
00000000
00000010
00000100
00001000
00000000
,
00000001
00000000
00000100
00000000
00000000
00000010
00001000
00000000
00000001
00000000
00001000
00000000
00000100
00000001
00000100
00000000
,
00010000
00000000
00000010
00000000
00000000
00000100
00000001
00000000
00001000
00000000
00000001
00000000
00001000
00000000
00000100
00000000
,
00011000
00011000
00001000
00010000
00011000
00011000
00110000
00000000
,
01100000
10000000
01000000
00200000
00000000
00310000
00100000
02000000
,
00000000
13000000
00010000
02000000
00000000
03010000
00110000
00000000
,
00011000
00001000
00000100
00000020
00000000
00000130
00001000
00000002
,
00000000
00000103
00000001
00000200
00000000
00000310
00001010
00000000
,
00011000
00001000
00100000
01000000
00000000
10000000
01000000
00100000
,
00000000
01000000
10000000
00010000
00000000
01000000
00200000
00000000
,
10300000
00100000
01000000
00000000
00010000
01000000
00100000
00000000
,
01100000
01100000
00010000
00000000
01100000
01100000
10000000
00000000
,
00010000
00010000
00110000
00010000
00010000
00011000
00010000
00010000
,
00110000
00010000
00010000
01010000
01000000
01000000
01010000
00100000
,
00100000
00011000
00000010
00000010
00011000
01000000
01000000
00011000
,
00000010
00000010
00000110
00000001
00000010
00000110
00001100
00011000
,
00210000
00010000
01000000
10300000
,
20100000
00000000
00000000
30010000
00000000
00000000
01000000
00010000
10000000
00200000
00000000
00000000
,
00302000
00000100
00000001
00003100
,
00000012
00000103
00001010
00001002
,
00001003
00001100
00010010
00010100
,
00011000
00000000
00000000
00101000
00000000
00000000
00001000
01000000
00100000
20000000
00000000
00000000
,
30010000
10010000
01100000
10010000
,
01001000
01001000
00100000
00000000
11000000
11000000
00010000
00000000
,
10000000
00000000
01000000
00000000
00000000
00100000
00010000
00000000
10000000
00000000
01000000
00000000
00000000
00100000
00010000
00000000
,
00001000
00000000
00000100
00000000
00000000
00000001
00000100
00000000
00001000
00000000
00000100
00000000
00000000
00000001
00000100
00000000
,
00010000
00000000
00000010
00000000
00000000
00010000
00000010
00000000
00010000
00000000
00000010
00000000
00000000
00010000
00000010
00000000
,
00010000
00000000
00000100
00000000
00000000
00100000
00001000
00000000
01000000
00000000
00010000
00000000
20000000
00000000
00000000
00000000
,
30100000
00000000
01000000
00000000
00000000
00010000
10000000
00000000
00100000
00000000
01000000
00000000
00000000
00010000
00100000
00000000
,
01000000
00000000
10000000
00000000
00000000
00010000
01000000
00000000
00100000
00000000
01000000
00000000
00000000
00001000
00100000
00000000
,
01000000
00000000
00010000
00000000
00000000
10000000
01000000
00000000
00100000
00000000
00001000
00000000
00000000
00010000
00001000
00000000
,
00011000
00011000
00001000
00010000
00011000
00011000
00000010
00000000
,
00000110
00001000
00000010
00000200
00000000
00000301
00001000
00000200
,
00000000
00001300
00000010
00002000
00000000
00003001
00001001
00000000
,
00010100
00000100
00010000
00002000
00000000
00103000
00001000
02000000
,
00000000
03100000
01000000
00200000
00000000
01300000
01010000
00000000
,
11000000
01000000
10000000
00200000
00000000
01300000
00001000
00020000
,
00000000
00030100
00010000
00000200
00000000
00000310
00000001
00000000
,
00000100
00000010
00000100
00000000
00000001
00001000
00000100
00000000
,
00001001
00001001
00000001
00001000
00001001
00001001
00001000
00001000
,
00000100
00000100
00010100
00000100
00000100
00010100
00000100
00000100
,
00010010
00000100
00000100
00010010
00000100
00000100
00020000
00000000
,
00031000
00001000
00011000
00001000
00001000
00101000
00001000
00001000
,
01001000
00001000
00001000
00101000
01000000
01000000
10020000
00000000
,
10030000
10000000
11000000
10000000
10000000
10100000
10000000
10000000
,
11000000
00100000
00100000
01100000
00010000
00010000
10020000
00000000
,
00130000
00100000
00101000
00100000
00100000
01100000
00100000
00100000
,
00011000
00001000
00001000
00001000
00010000
00000100
00000010
00000001
,
00000100
00000010
00000100
00000001
00001000
00000100
00000010
00000200
,
00000000
00010300
00000100
00000010
00000100
00010000
00000010
00010000
,
00001000
00010000
00010000
00010000
00001000
00100000
00001000
02000000
,
00000000
03100000
10000000
01000000
00100000
01000000
10000000
00010000
,
01000000
00010000
02000000
00000000
03100000
10000000
00010000
20000000
,
00000000
30010000
00100000
01000000
00100000
00001000
00000100
00000001
,
00000100
00001000
00000020
00000000
00000130
00000001
00000100
00000001
,
00001001
00000010
00000100
00001000
00010000
00100000
01000000
10000000
,
20020000
00000000
00000000
00000000
,
30030000
00000000
00000000
00000000
;

//---------------dance-double - t7r----------------
#NOTES:
     dance-double:
     t7r:
     Challenge:
     18:
     :
00000000
00000000
00000000
00000000
,
00000000
00000000
00000000
00000000
,
00000000
00000000
00000000
00000000
,
00000000
00000000
00000000
00000000
,
00000000
00000000
00000000
00000000
,
01010000
10010000
00101000
00011000
,
00001100
00000110
00000101
00000110
,
00010010
00011000
01001000
00011000
,
00011000
00000000
00011000
00000000
00001000
00010000
00001000
00010000
00001000
00000000
00011000
00000000
00100000
00000000
00000000
00000000
,
01100000
00000000
00010000
00100000
00010000
00000000
10000000
00000000
01000000
00000000
00100000
00000000
00001000
00000000
01000000
00000000
,
00100000
00000000
10000000
00010000
01000000
00000000
00010000
00000000
10010000
00000000
00000000
00000000
01010000
00000000
00000000
00000000
,
00101000
00000000
00000100
00001000
00000100
00000000
00001000
00000000
00000001
00000000
00000100
00000000
00000010
00000000
00001000
00000000
,
00000001
00000000
00000010
00000000
00000100
00001000
00000100
00001000
00000100
00000000
00000000
00000000
00010010
00000000
00000000
00000000
,
00000100
00010000
00001000
00010000
00000100
00010000
00001000
00100000
00001000
01000000
00010000
10000000
,
00100000
01000000
00001000
00010000
00001000
00000100
00000010
00000001
00001000
00001001
00000000
00000000
,
00000001
00000010
00000100
00010000
00000100
00010000
00001000
00100000
01000000
10000000
00010000
01000000
,
01100000
01010000
00100000
00000000
00011000
00101000
00010000
00000000
,
00000100
00010000
00001000
00010000
00000100
00000010
00000001
00000100
,
00000010
00001000
00000100
00000001
00000200
00000000
00002300
00000000
,
00103000
10000000
01000000
00010000
01000000
10000000
00100000
00010000
,
00100000
00000000
01000000
00000000
00001000
00000000
00100000
00000000
00001000
00000000
01000000
00001000
00100000
00000000
01000000
10000000
,
00010000
01000000
00100000
10000000
01000000
00100000
00001000
00010000
,
00001000
00000100
00000010
00000001
00000020
00000000
00000230
00000000
,
00000301
00000010
00000100
00001000
00000001
00000100
00000010
00001000
,
00011000
00011000
00100000
00000000
00101000
00011000
01000000
00000000
,
00010000
00000000
01000000
00000000
00100000
10000000
00010000
00000000
01000000
00000000
00010000
00000000
10000000
01000000
00100000
00000000
,
00001000
00000000
00010000
00000000
00001000
00000100
00001000
00000000
00000100
00000000
00000010
00000000
00001000
00000001
00001000
00000000
,
00000001
00000000
00000010
00000000
00000100
00000010
00001000
00000000
00000001
00000000
00000010
00000000
00000100
00010000
00001000
00000000
,
00100000
00000000
00001000
00000000
01000000
00100000
10000000
00000000
01000000
00000000
00100000
00000000
00020000
00000000
00000000
00000000
,
10030000
00000000
01000000
00000000
00100000
00010000
00100000
00000000
01000000
00000000
00001000
00000000
00010000
00001000
00010000
00000000
,
00000010
00000000
00000001
00000000
00000100
00000001
00001000
00000000
00000001
00000000
00000010
00000000
00000100
00001000
00000001
00000000
,
00000100
00000000
00000010
00000000
00010000
00001000
00010000
00000000
00000100
00000000
00010000
00000000
00001000
00100000
00001000
00000000
,
00011000
00000000
00011000
00000000
00001000
00010000
00001000
00010000
00001000
00000000
00011000
00000000
01001000
00000000
00000000
00000000
,
00101000
00000000
00001000
00000000
01000000
00010000
10000000
00000000
00010000
00000000
00100000
00000000
01000000
10000000
00010000
00000000
,
01000000
00000000
00100000
00000000
10000000
00100000
01000000
00000000
00010000
00000000
10000000
00000000
00101000
00000000
00000000
00000000
,
00000001
00000000
00000010
00000000
00000100
00001000
00000001
00000000
00000100
00000000
00000010
00000000
00001000
00000010
00000100
00000000
,
00000010
00000000
00001000
00000000
00000001
00001000
00000001
00000000
00000010
00000000
00000100
00000000
00010100
00000000
00000000
00000000
,
00100000
00000000
00001000
00000000
01000000
00010000
01000000
00000000
00010000
00000000
00100000
00000000
01000000
00100000
00010000
00000000
,
10000000
00000000
01000000
00000000
00100000
01000000
10000000
00000000
00100000
00000000
01000000
00000000
00001000
00000000
00010000
00000000
,
00001000
00000000
00000100
00000000
00000010
00001000
00000001
00000000
00000010
00000000
00000100
00000000
00000010
00000001
00000010
00000000
,
00001001
00001001
00001000
00000000
00011000
00011000
00000000
00000000
,
01100000
01100000
01000000
10010000
10010000
00010000
01100000
01100000
,
01000000
01001000
01001000
00001000
00101000
00101000
00010000
00011000
,
00011000
00001000
00001100
00001100
00000100
00000110
00000110
00000010
,
00001001
00001001
00001000
00000001
00000010
00000110
00001001
00000101
,
00001001
00000000
00000000
00001010
00000000
00000100
00010000
00000000
00000100
00000010
00000000
00000100
,
00010000
00000000
00000000
00011000
00000000
00001000
01000000
00100000
10000000
10100000
00000000
00000000
,
11000000
00000000
00000000
00110000
00000000
01000000
10000000
00000000
01000000
00100000
00000000
00001000
,
01000000
00000000
00100000
01000000
00000000
00001000
00010000
00000000
00000000
00010100
00000000
00000000
,
00011000
00000000
00000000
00010010
00000000
00000100
00010000
00000000
00000100
00000010
00000000
00000100
,
00010000
00000000
00000000
00011000
00000000
00100000
00001000
01000000
00001000
00011000
00000000
00000000
,
00001010
00000000
00000000
00001100
00000000
00000100
00001000
00000000
00000100
00000010
00000000
00000001
,
00001001
00001001
00001000
00000000
00011000
00011000
00010000
00000000
,
00001000
00000000
01000000
00000000
00100000
10000000
01000000
00000000
00100000
00000000
00010000
00000000
10000000
01000000
00100000
00000000
,
00001000
00000000
01000000
00000000
00100000
01000000
00001000
00000000
01000000
00000000
00100000
00000000
10000000
00010000
10000000
00000000
,
01000000
00000000
00010000
00000000
00000100
00010000
00000100
00000000
00010000
00000000
00000010
00000000
00000100
00000001
00001000
00000000
,
00000001
00000000
00000010
00000000
00000100
00001000
00000100
00000000
00000010
00000000
00000001
00001000
00000100
00000000
00001000
00000010
,
00010000
00000000
00000010
00000000
00000100
00000010
00010000
00000000
00000100
00000000
00010000
00000000
00000100
00010000
00001000
00000000
,
00100000
00000000
00001000
00000000
01000000
00100000
10000000
00000000
01000000
00000000
00100000
00000000
00010000
00100000
01000000
00000000
,
10000000
00000000
00010000
00000000
01000000
00001000
00010000
00000000
00000010
00000000
00000100
00000000
00000001
00001000
00000001
00000000
,
00001001
00000000
00001001
00000000
00000001
00001000
00000010
00000100
00000010
00000000
00001100
00000000
00010000
00000000
00000000
00000000
,
00010100
00000000
00001000
00000000
00100000
00001000
01000000
00000000
00010000
00000000
10000000
00000000
00010000
00100000
01000000
00000000
,
10000000
00000000
01000000
00000000
00100000
00010000
10000000
00000000
00010000
00000000
10000000
00000000
00101000
00000000
00000000
00000000
,
00000100
00000000
00010000
00000000
00000010
00000100
00000001
00000000
00000010
00000000
00000100
00000000
00000010
00000001
00000010
00000000
,
00000001
00000000
00000010
00000000
00000100
00010000
00001000
00000000
00010000
00000000
00000010
00000000
00010100
00000000
00000000
00000000
,
00100000
00000000
01000000
00000000
10000000
00100000
01000000
00000000
00010000
00000000
10000000
00000000
01000000
10000000
01000000
00000000
,
10000000
00000000
00010000
00000000
01000000
00001000
00010000
00000000
00001000
00000000
00100000
00000000
00001000
00000000
01000000
00000000
,
00001000
00010000
00011000
00010000
00001000
00010000
00011000
00001000
,
00011000
00000000
00011000
00000000
00001000
00000000
00000000
00000000
00011000
00000000
00011000
00000000
00001000
00010000
00001000
00010000
,
00001000
00100000
00001000
00000000
00101000
00000000
00001000
00000100
00001000
00000000
00010100
00000000
00001000
00100000
00001000
00000000
,
00101000
00000000
00001000
00000100
00001000
00000000
00010100
00000000
00001000
00100000
00001000
00000000
00101000
00000000
00000000
00000000
,
00010000
00000100
00010000
00000000
00010100
00000000
00010000
00100000
00010000
00000000
00101000
00000000
00010000
00000100
00010000
00000000
,
00010100
00000000
00010000
00100000
00010000
00000000
00101000
00000000
00010000
00000100
00010000
00000000
00010100
00000000
00000000
00000000
,
00010000
00100000
01000000
00000000
10010000
00000000
10000000
00010000
01000000
00000000
10010000
00000000
00010000
00100000
01000000
00000000
,
01100000
00000000
10000000
00100000
01000000
00000000
10010000
00000000
00100000
10000000
00010000
00000000
01001000
00000000
00000000
00000000
,
00001000
00000100
00000010
00000000
00000110
00000000
00010000
00001000
00010000
00000000
00011000
00000000
00000100
00000010
00000001
00000000
,
00001001
00000000
00001000
00000001
00001000
00000000
00001000
00000000
00000001
00000010
00000001
00000010
00000100
00000000
00001000
00000000
,
00011000
00000000
00001000
00000000
00100000
00001000
01000000
00000000
00100000
00000000
10000000
00000000
00010000
00100000
01000000
00000000
,
10000000
00000000
01000000
00000000
00100000
00010000
10000000
00000000
00010000
00000000
01000000
00000000
00100000
01000000
00001000
00000000
,
00000100
00000000
00000001
00000000
00000010
00001000
00000010
00000000
00000001
00000000
00001000
00000000
00000001
00001000
00000100
00000000
,
00000010
00000000
00000100
00000000
00010000
00001000
00010000
00000000
00000010
00000000
00000100
00000000
00000001
00000000
00001000
00000000
,
00001001
00000000
00000010
00000000
00010000
00000100
00010000
00000000
00000100
00000000
00010000
00000000
00001000
01000000
00100000
00000000
,
01000000
00000000
00010000
00000000
10000000
01000000
10000000
00000000
00010000
00000000
01000000
00000000
00100000
01000000
00010000
00000000
,
01000000
00000000
00001000
00000000
00010000
00001000
00010000
00000000
00001000
00000000
00000100
00000000
00000010
00000001
00001000
00000000
,
00001001
00000000
00000010
00000000
00000100
00000010
00001000
00000000
00000001
00000000
00000010
00000000
00000100
00010000
00001000
00010000
,
00002000
00000000
00000000
00000000
,
00003000
00000000
00000000
00000000
;
