#TITLE:TRIP MACHINE PhoeniX (IIDX EDITION);
#ARTIST:DE-SIRE改;
#ARTISTTRANSLIT:DE-SIRE alterative;
#BANNER:TRIP MACHINE PhoeniX (IIDX EDITION).png;
#BACKGROUND:TRIP MACHINE PhoeniX (IIDX EDITION)-bg.png;
#JACKET:TRIP MACHINE PhoeniX (IIDX EDITION)-jacket.png;
#CDTITLE:./CDTITLES/BEATMANIA IIDX.PNG;
#MUSIC:TRIP MACHINE PhoeniX (IIDX EDITION).ogg;
#SAMPLESTART:24.75;
#SAMPLELENGTH:15;
#BPMS:0=320;
#BGCHANGES:-4=TRIP MACHINE PhoeniX (IIDX EDITION).avi=1=0=0=1=====;

//---------------dance-single - t7r----------------
#NOTES:
     dance-single:
     t7r:
     Beginner:
     5:
     :
0000
0000
0000
0000
,
0000
0000
0000
0000
,
0000
0000
0000
0000
,
0000
0000
0000
0000
,
0000
0000
0000
0000
,
0000
0000
0000
0000
,
0000
0000
0000
0000
,
0000
0000
0000
0000
,
0000
0000
0000
0000
,
0000
0000
0000
0000
,
0100
0000
0000
0000
,
0100
0000
0000
0000
,
0100
0000
0000
0000
,
0100
0000
0000
0000
,
0100
0000
0000
0000
,
0000
0000
0000
0000
,
1001
0000
0000
0000
,
0000
0010
0000
0100
,
0000
0001
0000
0100
,
0000
0001
0000
0100
,
0000
0001
0000
1000
,
0000
0100
0000
0010
,
0000
0001
0001
0001
,
0000
0001
0000
1000
,
1000
0000
0000
0000
,
0000
1000
0000
0100
,
0000
0010
0000
0001
,
0000
0001
0001
0000
,
0000
0010
0000
0100
,
0000
0010
0000
0001
,
0000
0010
0000
0001
,
0000
0001
0000
1000
,
0000
1000
1000
0000
,
1000
0000
0000
0000
,
0100
0000
0000
0000
,
0010
0000
0000
0000
,
0100
0000
0000
0000
,
0010
0000
0001
0000
,
1000
0000
0000
0000
,
0001
0000
0000
0000
,
0100
0000
0000
0000
,
0001
0000
0000
0000
,
1000
0000
0000
0000
,
0000
0100
0000
0100
,
0000
0100
0000
0100
,
0100
0000
0000
0000
,
0010
0000
0000
0000
,
0001
0000
0000
0000
,
1000
0000
1000
0000
,
0001
0000
0000
0000
,
1000
0000
0000
0000
,
0001
0000
0000
0000
,
1000
0000
0000
0000
,
0000
0100
0000
0100
,
0000
0100
0000
0100
,
0100
0000
0000
0000
,
0010
0000
0000
0000
,
0000
0001
0000
0001
,
0000
0001
0000
0001
,
0001
0000
1000
0000
,
1000
0000
1000
1000
,
0000
0000
0000
0000
,
0001
0000
0000
0000
,
1000
0000
0000
0000
,
0100
0000
0000
0000
,
1000
0000
0000
0000
,
0001
0000
0001
0000
,
0001
0000
0000
0000
,
0100
0000
0000
0000
,
0001
0000
0000
0000
,
0010
0000
0010
0000
,
0010
0000
0000
0000
,
0100
0000
0000
0000
,
0010
0000
0000
0000
,
0100
0000
0100
0000
,
0100
0000
0000
0000
,
0010
0000
0000
0000
,
0001
0000
0000
0000
,
1000
0000
0000
0000
,
0001
0000
0000
0000
,
0100
0000
0000
0000
,
0000
0010
0000
0010
,
0000
0010
0010
0000
,
0100
0000
0000
0000
,
0000
0000
0000
0100
,
0000
0100
0000
0100
,
0000
0100
0100
0000
,
0010
0000
0000
0000
,
0000
0000
0000
0000
,
0000
1000
0000
1000
,
0000
1000
1000
0000
,
0001
0000
0000
0000
,
0000
0000
0000
0001
,
0000
0001
0000
0001
,
0000
0001
0001
0000
,
1000
0000
0000
0000
,
0001
0000
1000
0000
,
0001
0000
1000
0000
,
0001
0000
1000
0000
,
0001
0000
0100
0000
,
0100
0000
0010
0000
,
0010
0000
1000
0000
,
1000
0000
0000
0000
,
1000
0000
0000
0000
,
1000
0000
0000
0000
,
1000
0000
0100
0000
,
1000
0000
0100
0000
,
1000
0000
1000
0000
,
1000
0000
0000
0000
,
0001
0000
0000
0000
,
0100
0000
0000
0000
,
0000
0000
0000
0000
,
0010
0000
0000
0100
,
0000
0100
0000
0100
,
0100
0000
0000
0010
,
0000
0010
0000
0010
,
0010
0000
0001
0000
,
1000
0000
0100
0000
,
0010
0000
0001
0001
;

//---------------dance-single - t7r----------------
#NOTES:
     dance-single:
     t7r:
     Easy:
     10:
     :
0000
0000
0000
0000
,
0000
0000
0000
0000
,
0000
0000
0000
0000
,
0000
0000
0000
0000
,
0000
0000
0000
0000
,
0000
0000
0000
0000
,
0000
0000
0000
0000
,
0000
0000
0000
0000
,
0000
0000
0000
0000
,
0000
0000
0000
0000
,
0100
0000
0000
0000
,
0100
0000
0000
0000
,
0100
0000
0000
0000
,
0100
0000
0000
0000
,
0100
0000
0000
0000
,
0000
0000
0000
0000
,
1001
0000
0000
0000
,
0010
1000
0001
0000
,
1000
0001
0000
0001
,
1000
0001
0000
0001
,
1000
0001
0000
1000
,
0001
0100
0001
0000
,
1000
0001
0000
0010
,
0000
0010
0000
0010
,
0100
0000
0010
0100
,
0010
1000
0010
1000
,
0001
1000
0001
0100
,
0010
0100
0010
1000
,
0001
1000
0000
0001
,
0000
1000
0001
0100
,
0001
1000
0010
0100
,
0000
0010
0000
0100
,
0000
0010
1000
0100
,
0010
0001
0000
0001
,
0010
0000
0001
0010
,
0100
0000
1000
0100
,
0000
1000
0001
1000
,
0001
0000
1000
0001
,
0000
1001
0000
0001
,
0100
0001
0000
1000
,
0010
0100
0001
0100
,
0010
1000
0000
1000
,
0100
0010
0001
0010
,
0000
0001
0000
0011
,
0000
1100
0000
1000
,
0100
0000
0000
0100
0000
0000
0100
0000
,
0010
0000
0000
0010
0000
0000
0010
0000
,
0001
0000
0000
0001
0000
0000
0001
0000
,
1000
0001
0100
0000
,
0001
0001
0001
0000
,
1000
1000
1000
0000
,
0001
0001
0001
0000
,
1000
1000
1000
0002
,
0000
1000
0000
1000
,
0000
1000
0000
1003
,
0010
0000
0100
0001
,
1000
0000
0001
2000
,
0000
0001
0000
0001
,
0000
0001
0000
3001
,
0200
0000
0010
0000
,
0010
0000
0310
0100
,
0010
1000
0000
0001
,
1000
0010
0000
0010
,
1000
0100
0000
0010
,
0001
0100
0000
0001
,
0100
0010
1000
0001
,
0000
1000
0001
0100
,
0001
1000
0000
0001
,
0010
0100
0000
1000
,
0100
0010
0001
0010
,
0000
0001
0010
0001
,
1000
0010
0000
0010
,
1000
0100
0000
0010
,
0001
0100
0001
1000
,
0000
0001
1000
0100
,
1000
0001
0000
1000
,
0001
0010
0000
0001
,
0010
0010
0100
0100
,
1000
1000
0100
0100
,
0010
0001
0100
0000
,
1001
0000
0001
0100
,
0000
1010
0000
0101
,
0000
1000
0001
0000
,
1000
0100
0010
0000
,
0011
0000
0001
0010
,
0000
0110
0000
1001
,
0000
1000
0001
0000
,
1000
0010
0100
0000
,
0110
0000
0100
0001
,
0000
0101
0000
1010
,
0000
0001
0100
0001
,
1000
0010
0100
0000
,
1010
0000
1000
0010
,
0000
1010
0000
1100
,
0000
1000
0100
0000
,
0010
0001
0000
0001
,
0010
0100
1000
0100
,
0010
0001
0010
0100
,
1000
0100
1000
0100
,
1000
0010
1000
1000
,
1000
0010
1000
1000
,
1000
0100
0010
0001
,
0001
1000
1000
0000
,
0001
0100
0000
0100
,
0010
1000
0010
0100
,
0010
0001
0010
0100
,
0010
1000
0010
1000
,
0001
0100
0010
0010
,
0010
1000
0010
0010
,
0010
0100
0001
0001
,
1000
0001
0001
1000
,
0000
0000
0000
0000
0000
1001
0000
0000
0000
0000
0000
0000
0000
0000
0000
0000
,
0010
0100
0001
0100
,
0000
1001
0000
0001
,
0010
0100
1000
0100
,
0000
1001
0000
1000
,
0100
0010
0001
0000
,
0001
0010
0100
0000
,
1000
0100
0010
2002
,
0000
0000
0000
0000
,
0000
0000
0000
0000
,
0000
0000
0000
0000
,
0000
0000
0000
3003
;

//---------------dance-single - t7r----------------
#NOTES:
     dance-single:
     t7r:
     Medium:
     12:
     :
0000
0000
0000
0000
,
0000
0000
0000
0000
,
0000
0000
0000
0000
,
0000
0000
0000
0000
,
0000
0000
0000
0000
,
0000
0000
0000
0000
,
0000
0000
0000
0000
,
0000
0000
0000
0000
,
0000
0000
0000
0000
,
0000
0000
0000
0000
,
0100
0000
0000
0000
,
0100
0000
0000
0000
,
0100
0000
0000
0000
,
0100
0000
0000
0000
,
0100
0000
0000
0000
,
0000
0000
0000
0000
,
1001
0000
0000
0000
,
0010
1000
0100
0010
,
0001
0010
0100
1000
,
0100
0001
0100
1000
,
0100
0001
0000
0001
,
0100
0010
1000
0010
,
0100
0001
1000
0001
,
0000
1001
0000
1001
,
0101
0010
0100
0010
,
1000
0010
0100
0001
,
0100
0010
1000
0001
,
0100
0001
0100
0100
,
0010
1000
0010
1000
,
0001
0010
0100
1000
,
0100
0010
0001
1000
,
0001
1001
0000
0101
,
0000
1010
0010
0100
,
0001
1000
0100
0010
,
0001
0010
0010
0001
,
0100
0010
1000
0010
,
0100
0010
1000
0010
,
1000
0001
1000
0001
,
1000
0001
1000
0100
,
0010
0001
0010
0100
,
1000
0100
0001
0100
,
1000
0010
1000
0010
,
0100
0001
1000
0001
,
0000
1001
0000
1010
,
0000
1001
0000
0101
,
1100
0000
0000
0101
0000
0000
1100
0000
,
0101
0000
0000
1010
0000
0000
0011
0000
,
1010
0000
0000
0110
0000
0000
0010
0000
,
0100
0001
1000
0001
,
0100
0100
0110
0000
,
0010
0010
1001
0000
,
1000
1000
1100
0000
,
0001
0001
0101
1001
,
0000
1010
0000
0110
,
0000
1010
0000
1010
,
0010
0100
0010
1000
,
0001
0100
0001
1000
,
0000
1100
0000
0110
,
0000
0011
0001
0010
,
0110
0000
1001
0000
,
0110
0000
1000
0001
,
0100
0001
0010
0100
,
1000
0100
1000
0010
,
1000
0001
0001
1000
,
0100
0100
0010
0001
,
0010
0100
1000
0100
,
0000
1000
0100
0100
,
1000
0010
0010
0100
,
0001
0001
0100
0001
,
1000
0001
0100
0001
,
0000
1001
0010
0100
,
1001
0010
0100
0010
,
0010
0001
0010
0100
,
1000
0100
1000
0001
,
0000
0001
0100
0001
,
1000
0001
0001
1000
,
0100
0010
0001
0010
,
0001
0100
0010
1000
,
0001
0100
0001
1000
,
0100
0010
1001
0000
,
0101
0000
1000
0100
,
0000
1100
0000
0110
,
0000
1100
1000
0100
,
0010
0001
1000
0000
,
0101
0000
0010
0110
,
0000
1001
0000
0110
,
0000
1001
1001
0000
,
1000
0100
1000
0000
,
1001
0000
0001
0100
,
0000
0101
0000
0011
,
0000
0101
0010
0100
,
0010
1000
0001
0000
,
1001
0000
1000
1010
,
0000
0110
0000
1001
,
0000
1000
1100
0000
,
0011
1000
0000
0001
,
0101
0000
1010
0000
,
0101
0000
1001
0000
,
1100
0000
0011
0000
,
0110
0000
0010
0100
,
0001
0000
0001
1000
,
0100
0000
1000
0100
,
0010
0001
1001
0000
,
0101
0000
0000
1000
,
1010
0000
0101
0000
,
1010
0000
1100
0000
,
1001
0000
0110
0000
,
1001
0000
0001
0100
,
0110
0000
0010
1000
,
1001
0001
0100
0001
,
1000
0100
0010
0001
,
0000
0000
0000
0000
0000
1001
0000
0000
0000
0000
0000
0000
0000
0000
0000
0000
,
0010
0100
0001
0100
,
0000
0101
0000
0001
,
0100
0010
1000
0001
,
0000
1001
0000
1000
,
0100
1000
0001
0100
,
0001
0100
0010
1000
,
0100
0010
0001
2000
,
0000
0000
0000
0000
,
0000
0000
0000
0000
,
0000
0000
0000
0000
,
0000
0000
0000
3000
;

//---------------dance-single - t7r----------------
#NOTES:
     dance-single:
     t7r:
     Hard:
     16:
     :
0000
0000
0000
0000
,
0000
0000
0000
0000
,
0000
0000
0000
0000
,
0000
0000
0000
0000
,
0000
0000
0000
0000
,
0000
0000
0000
0000
,
0000
0000
0000
0000
,
0000
0000
0000
0000
,
0010
0000
0010
0010
,
0100
0000
1001
0000
,
1100
0000
0001
0100
,
0011
0000
1000
0100
,
1001
0000
0101
0000
,
1001
0000
1100
0000
,
1000
0010
0100
0000
,
0110
0000
0000
0001
1000
0000
0000
0000
,
2002
0000
0000
3003
,
0100
0101
0100
0101
,
0100
0101
0100
0101
,
0100
0101
0100
0101
,
0100
1001
0000
1001
,
0101
1010
0010
1010
,
0010
1010
0010
1001
,
0000
0101
0000
1001
,
1001
0000
0000
0000
0001
0000
1000
0001
,
0100
1001
0100
1001
,
0100
1001
0100
0101
,
1001
0101
1001
0100
,
0100
1001
0001
1001
,
0100
1100
0100
1100
,
0100
1100
0100
0110
,
0100
0110
0000
0011
,
0000
1100
0001
1000
,
0100
0000
1000
0001
0100
0000
0001
0000
,
0100
0010
1000
1001
,
1001
0000
0001
0010
0100
0000
1000
0000
,
0100
0010
1001
0100
,
0010
1010
0001
1001
,
0100
0101
1001
0100
,
0010
0001
0101
0001
,
1000
0001
0000
0000
1001
0000
0001
0000
,
0100
0000
0001
1000
0100
0000
1000
0001
,
0100
0000
0001
0100
0001
0000
1000
0010
,
1000
1010
0000
0101
,
0000
1100
0000
1001
,
1001
0000
0001
0100
0000
0010
1000
0000
,
1100
0000
1000
0100
0000
0010
0001
0000
,
0011
0000
0001
1000
0000
0100
0010
0000
,
0001
1000
0001
0100
0010
0000
0110
0000
,
1010
0000
1000
0010
0100
0000
0001
0000
,
0101
0000
0001
0100
0010
0000
1000
0000
,
1001
0000
1000
0001
0100
0000
0001
0000
,
1000
0001
1000
0000
0100
0000
1001
0000
,
0000
0011
0000
0101
,
0000
1001
0000
0100
,
0110
0000
0010
0001
0010
0000
0001
1000
,
0001
0000
1000
0001
0100
0000
1001
0000
,
0000
1010
0000
0101
,
0000
1001
1001
0101
,
0101
0001
1001
1000
,
1001
1000
1100
1100
,
1000
0000
0100
0000
0010
0001
0010
0000
,
0001
0000
0010
0000
0100
1000
0100
0000
,
0110
0000
0010
0001
0010
0000
0001
0000
,
1001
0000
0010
1000
0010
0000
0100
0000
,
0110
0000
0010
0100
0001
0000
1001
0000
,
0000
0000
0001
0100
0001
0000
0110
0000
,
1001
0000
1000
0010
1000
0000
0100
0000
,
0011
0000
0001
0010
0001
0000
0100
0000
,
1001
0000
0001
1000
0100
0000
1001
0000
,
0000
0000
1000
0010
0100
0000
0001
0000
,
0101
0000
0001
0100
0010
0000
1000
0000
,
1010
0000
0010
1000
0100
0000
0010
0001
,
1000
0000
0001
0100
0001
0000
1001
0000
,
0000
0000
1000
0001
0100
0000
1001
0000
,
0110
0000
0010
0100
0001
0000
1000
0000
,
1100
0000
0010
0001
0010
0000
0101
0000
,
0011
0000
0101
0000
0001
0100
0001
0000
,
1000
0010
1000
0010
0100
0010
1000
0010
,
1000
0001
0100
0000
,
1001
0000
0101
1001
,
0000
1100
0000
0011
,
0000
1100
0010
0100
,
1100
0010
0001
0000
,
0101
0000
1010
0110
,
1000
0101
0000
1001
,
0000
1100
1100
0000
,
0011
0000
0001
0010
0100
0000
0010
0000
,
1001
0000
0101
0110
,
0000
1010
0000
1100
,
0000
0000
1001
0000
1001
0000
0001
1000
,
0100
0000
1000
0001
0100
0000
0001
1000
,
0010
0000
1000
0010
0100
0000
0110
0000
,
1000
0101
0000
1100
,
0000
0011
0011
0000
,
1100
0000
0011
0000
1000
0010
0100
0000
,
0101
0000
1010
0000
0001
0010
0100
0000
,
1100
0010
0101
0010
,
1100
0010
0101
0010
,
0101
0000
0000
0000
1001
0000
0000
0000
0001
1000
0000
0000
0100
0000
0000
0000
,
1100
0000
1001
0000
1000
0001
0100
0000
,
0011
0000
0001
0010
0100
0000
0110
0000
,
0110
1001
1001
0000
,
0101
0011
0000
0101
,
0101
0000
0010
1000
0100
0000
1001
0000
,
0101
0000
1000
0001
0100
0000
1001
0000
,
0110
0000
1000
0010
0100
0000
0011
0000
,
1100
0000
0000
0000
0110
0000
0000
0000
1000
0010
0000
0000
0001
0000
0000
0000
,
0011
0000
0001
0010
0001
0000
1000
0100
,
1000
0000
0001
1000
0001
0000
1000
0001
,
0100
0000
0001
1000
0001
0000
1001
0000
,
0000
0000
0000
0000
0000
0101
0000
0000
0000
0000
0000
0000
0000
0000
0000
0000
,
1010
0000
0010
1000
0100
0000
1010
0000
,
0000
1010
0000
1010
,
1001
0000
0001
0100
0010
0000
0011
0000
,
0000
0011
0000
0011
,
0001
0010
0100
1000
0100
0000
1001
0000
,
1000
0010
0100
0001
0100
0000
1001
0000
,
0001
1000
0100
0000
0110
0000
2002
0000
,
0000
0000
0000
0000
,
0000
0000
0000
0000
,
0000
0000
0000
0000
,
0000
0000
0000
3003
;

//---------------dance-single - t7r----------------
#NOTES:
     dance-single:
     t7r:
     Challenge:
     18:
     :
0000
0000
0000
0000
,
1000
0101
0000
0001
,
0101
1010
0001
0100
,
1010
0100
0000
1000
,
0100
0100
0110
0000
,
0010
1001
0000
0101
,
1001
0000
1100
0000
,
0011
0001
0100
1000
,
1001
0000
0001
0100
,
0110
0000
1001
0000
,
1100
0000
0000
0001
0010
0000
0000
0000
,
0110
0000
0001
1000
,
1001
0000
0101
0000
,
1010
0100
0010
1000
,
1001
0000
0101
0000
,
1100
0000
0000
1000
0100
0000
0000
0010
,
0002
0000
1003
0000
,
1000
1100
0010
0011
,
1000
1001
0101
1000
,
0101
1001
0101
1000
,
0101
1001
0000
0001
,
1100
0110
0010
1001
,
0101
1001
1100
1001
,
0000
0101
0000
1001
,
1001
0000
0100
0000
0010
0000
0001
0010
,
0100
1100
0010
0011
,
0001
0101
1010
0101
,
1001
1100
1001
0101
,
0100
0110
0010
1010
,
1000
1001
0101
1001
,
1100
0110
0010
1001
,
0100
0011
0000
1100
,
0000
0110
0010
0001
,
1000
1001
0001
0101
,
0101
0000
0001
1000
0100
0000
1000
0000
,
1001
0000
1000
0010
0100
0000
0010
0000
,
0110
0000
0100
0010
0001
0000
0010
0000
,
1000
1001
0001
1001
,
0001
0101
0110
0010
,
0101
0001
1000
0100
,
1000
0001
0000
0000
1001
0000
0010
0000
,
1001
0000
0001
1000
0100
0000
1000
0010
,
1000
0000
0001
0100
0001
0000
1000
0100
,
0010
0000
0001
0010
0100
0000
1000
0010
,
1000
0000
0001
1000
0100
0000
0010
0001
,
1000
0000
0100
0010
0001
0000
0011
0000
,
1001
0000
0001
0100
0010
0000
0110
0000
,
1010
0000
0010
1000
0100
0000
0110
0000
,
1000
0001
1000
0001
0100
0000
0110
0000
,
1010
0000
0010
1000
0100
0000
0010
0000
,
0011
0000
0001
0010
0100
0000
1000
0000
,
1001
0000
0001
0100
1000
0000
1100
0000
,
1000
0100
0001
0000
0100
0000
1001
0000
,
0000
0101
0001
1001
,
1000
1100
1000
1001
,
0101
0000
1000
0001
1000
0000
0001
0100
,
0001
0000
1000
0010
0100
0000
0010
0100
,
0001
0101
0001
0011
,
0010
0110
1000
1100
,
1001
0001
1001
1000
,
0110
0010
0110
1001
,
0001
0000
0101
0000
0000
0001
0100
0000
,
0101
0000
1001
0000
0000
1000
0100
0000
,
1000
0000
1100
0000
1000
0010
0100
0000
,
0010
0000
0110
0000
0001
0100
0001
0000
,
1001
0000
0001
1000
0100
0000
1001
0000
,
0000
0000
1000
0010
0100
0000
0010
0000
,
1001
0000
1000
0100
0010
0000
0001
0000
,
0101
0000
0001
0100
1000
0000
1000
0100
,
0001
0000
0001
1000
0100
0000
1001
0000
,
0000
0000
1000
0010
1000
0010
0100
0001
,
1000
0000
0001
1000
0100
0000
1000
0000
,
1001
0000
0001
0100
0001
0000
1000
0001
,
0100
0000
0001
0010
0100
0000
1100
0000
,
0000
0000
1000
0100
0010
0000
0011
0000
,
0101
0000
0001
1000
0001
0000
1001
0000
,
0110
0000
0010
0100
0010
0000
0100
0000
,
0110
0101
0110
0101
,
1000
0001
1000
0010
0100
0001
0100
0010
,
1000
1001
0101
0000
,
1001
0000
1000
1100
,
0000
0011
0000
1100
,
0000
0010
0110
1001
,
0101
1001
0101
0000
,
1001
0000
1000
1100
,
0000
0110
0000
1100
,
0000
1001
1001
0100
,
0110
0110
0101
0000
,
0011
0000
0001
0011
,
0000
0110
0000
1100
,
0000
1000
1100
0110
,
1100
1010
1001
0000
,
0101
0001
1001
1001
,
0010
0110
0010
1001
,
1000
1100
0101
0010
,
0101
0101
0000
1000
,
0101
0010
0101
0010
,
1100
0001
1100
0001
,
0101
0001
1001
0110
,
1001
0000
0000
0000
1001
0000
0000
0000
1000
0001
0000
0000
0100
0000
0000
0000
,
0110
0000
0000
0000
0010
0000
0000
0000
0100
0010
0000
0000
1000
0000
0000
0000
,
1001
0000
0000
0000
1000
0000
0000
0000
0001
0100
0000
0000
0010
0000
0000
0000
,
0100
0110
0110
0010
,
1001
1100
0000
0001
,
0101
1000
0101
1000
,
1100
0001
1100
0010
,
0011
0100
1100
1001
,
0101
0000
0000
0000
0110
0000
0000
0000
0010
0100
0000
0000
1001
0000
0000
0000
,
1100
0000
0000
0000
0011
0000
0000
0000
0001
0010
0000
0000
0110
0000
0000
0000
,
1100
0000
0000
0000
1001
0000
0000
0000
1000
0001
0000
0000
0110
0000
0000
0000
,
1001
0000
0100
0010
0001
0000
1001
0000
,
0000
0000
0000
0000
0000
0202
0000
0000
0000
0000
0303
0000
0000
0000
0000
0000
,
1001
0000
0001
1000
0100
0000
1000
0100
,
0010
0000
0001
0010
0100
0000
1000
0100
,
1001
0000
0001
0100
0001
0000
1000
0010
,
1000
0000
0010
1000
0100
0000
1000
0100
,
0010
0001
0100
1000
0100
0000
0010
1000
,
0100
0001
0100
1000
0100
0000
0010
0001
,
0010
1000
0100
0001
0100
0000
2002
0000
,
0000
0000
0000
0000
,
0000
0000
0000
0000
,
0000
0000
0000
0000
,
0000
0000
0000
3003
;
