#TITLE:¥真超深TION¥;
#ARTIST:Des-あさ;
#TITLETRANSLIT:ShinchoushinTION (GFDM Ver.);
#ARTISTTRANSLIT:Des-Asa;
#BANNER:ShinchoushinTION (GFDM Ver.).png;
#BACKGROUND:ShinchoushinTION (GFDM Ver.)-bg.png;
#JACKET:ShinchoushinTION (GFDM Ver.)-jacket.png;
#CDTITLE:./CDTITLES/GUITAR FREAKS & DRUMMANIA.PNG;
#MUSIC:ShinchoushinTION (GFDM Ver.).ogg;
#OFFSET:-0.006;
#SAMPLESTART:55.593;
#SAMPLELENGTH:15;
#BPMS:0=177;

//---------------dance-single - t7r----------------
#NOTES:
     dance-single:
     t7r:
     Beginner:
     2:
     :
0000
0000
0000
0000
,
0000
0000
0000
0000
,
0000
0000
0000
0000
,
0000
0000
0000
0000
,
0000
0000
0000
0000
,
1000
0000
0001
0000
,
1000
0000
0001
0000
,
0100
0000
0010
0000
,
0100
0000
0110
0000
,
1001
0000
1000
0000
,
0100
0000
0010
0000
,
0001
0000
0010
0000
,
0100
0000
1000
0000
,
1001
0000
0010
0000
,
0100
0000
0001
0000
,
0100
0000
0001
0000
,
1000
0000
0100
0000
,
1001
0000
0000
0000
,
1001
0000
0000
0000
,
0110
0000
0000
0000
,
0110
0000
0100
0000
,
1001
0000
0000
0000
,
1001
0000
0000
0000
,
1000
0000
0100
0000
,
0010
0000
0001
0000
,
1001
0000
0000
0000
,
1001
0000
0000
0000
,
1001
0000
0000
0000
,
1001
0000
0000
0000
,
1001
0000
0000
0000
,
1001
0000
0010
0000
,
0110
0000
0110
0000
,
0110
0000
1001
0000
,
1000
0000
0001
0000
,
1000
0000
0100
0000
,
0010
0000
0001
0000
,
1000
0000
0100
0000
,
0110
0000
0010
0000
,
0001
0000
1000
0000
,
0100
0000
0010
0000
,
0001
0000
0100
0000
,
0010
0000
1001
0000
,
0110
0000
1001
0000
,
0100
0000
0110
0000
,
1001
0000
0110
0000
,
0010
0000
1001
0000
,
0110
0000
1001
0000
,
0100
0000
0110
0000
,
1001
0000
1001
0000
,
1000
0000
0000
0100
,
0100
0000
0000
0010
,
0010
0000
0000
0001
,
0001
0000
1000
0000
,
0100
0000
0000
0010
,
0010
0000
0000
0001
,
0001
0000
0000
1000
,
1000
0000
0100
0000
,
0010
0000
0000
0000
,
0000
0000
0100
0100
,
0100
0000
0000
0000
,
0010
0000
0110
0000
,
1001
0000
0000
0000
,
0100
0000
0010
0000
,
1000
0000
0001
0000
,
1000
0000
0001
0000
,
1000
0000
1000
0000
,
1000
0000
1000
0000
,
0001
0000
0001
0000
,
0001
0000
0001
0000
,
1001
0000
0000
0000
,
1001
0000
0000
0000
,
1001
0000
0010
0000
,
0100
0000
0010
0000
,
1000
0000
0100
0000
,
0010
0000
0001
0000
,
1000
0000
0100
0000
,
0010
0000
0100
0000
,
0110
0000
0000
0000
,
1001
0000
0000
0000
,
0110
0000
1001
0000
,
0110
0000
1001
0000
,
1001
0000
0000
0000
,
0000
0000
0000
0000
,
0000
0000
0000
0000
,
0000
0000
0000
0000
,
0000
0010
0000
0000
0000
0000
0000
0000
;

//---------------dance-single - t7r----------------
#NOTES:
     dance-single:
     t7r:
     Easy:
     8:
     :
0000
0000
0000
0000
,
0000
0000
0000
0000
,
0000
0000
0000
0000
,
0000
0000
0000
0000
,
0000
0000
0000
0000
,
1000
0000
1001
0000
,
0001
0000
1001
0000
,
0001
0000
0110
0000
,
1000
0000
0110
0010
,
1001
1000
1000
0000
,
0100
0000
0010
0000
,
0001
0001
0001
0000
,
0100
0000
0010
0000
,
1001
1000
1000
0000
,
0001
0000
1000
0000
,
0001
0100
0010
0000
,
1000
0010
0100
0001
,
0100
0000
0110
0000
,
0010
1000
0001
0000
,
1000
0100
1000
0000
,
0001
0010
0001
0100
,
0010
0000
1001
0000
,
1000
0100
0010
0000
,
0001
0010
0100
0000
,
1000
0100
0010
0001
,
0010
0000
0100
0010
,
0100
0000
0010
0001
,
0100
0000
0010
1000
,
0100
0010
0001
0010
,
0100
0000
1000
0100
,
1000
0000
0001
0100
,
0010
0000
0000
0010
0000
0000
0100
0000
,
0000
0010
0010
1001
,
1000
0000
0001
1000
,
0001
0000
1000
0100
,
1000
0000
0001
0010
,
0001
0010
0100
1000
,
0100
0000
0010
0001
,
0100
0000
0010
1000
,
0100
0000
0010
0001
,
1000
0001
0100
0010
,
1000
0200
2300
3200
,
2300
3200
2300
3100
,
1000
0200
0320
0032
,
0023
0032
0023
0130
,
0010
0001
0200
0302
,
0203
0302
0203
0310
,
1000
0010
0200
0310
,
1000
0001
1000
1001
,
0010
0000
0100
0010
,
0110
0000
1000
0001
,
1001
0000
0001
0100
,
0110
0000
0010
1000
,
1001
0000
1000
0100
,
0110
0000
0010
0001
,
0101
0000
0001
1000
,
1100
0000
0101
0000
,
1001
0010
0200
0000
,
0000
0300
0010
0100
,
2001
0000
3001
0000
,
0102
0000
0013
0000
,
0120
0000
1030
0000
,
0010
0001
0100
0000
,
0010
1000
0001
1000
,
0001
0100
0010
1000
,
0001
0101
0000
1100
,
0000
0101
0000
1100
,
1001
0000
1100
0000
,
0101
0000
1100
0000
,
1001
0100
0010
0100
,
1001
0010
0100
0110
,
1001
1000
0100
0000
,
0010
0001
0100
0000
,
0001
0101
1100
0101
,
1100
0101
1100
0101
,
1000
1001
1010
0011
,
1010
0011
1010
1100
,
1000
1100
0110
1100
,
0110
1100
0110
1100
,
0001
0101
0110
0101
,
0001
0101
0110
1010
,
2002
0000
0000
0000
,
0000
0000
0000
0000
,
3003
0000
0000
0000
,
0000
0000
0000
0000
,
0000
0010
0000
0000
0000
0000
0000
0000
;

//---------------dance-single - t7r----------------
#NOTES:
     dance-single:
     t7r:
     Medium:
     11:
     :
0000
0000
0000
0000
,
0000
0000
0000
0000
,
0000
0000
0000
0000
,
0000
0000
0000
0000
,
0000
0000
0000
0000
,
1000
0000
0000
0000
0011
0000
0000
0101
,
0000
1001
1100
0000
,
0001
0000
1010
0000
,
1100
0100
0110
0010
,
0012
0000
1000
0000
1000
0000
0000
1000
,
0000
1000
1003
0100
,
0010
0000
0100
0000
2001
0000
0000
0010
,
0000
0001
0001
3001
,
1002
0000
0000
1000
0000
1000
0000
0000
,
0100
1000
0100
1003
,
0000
0100
0120
0000
,
1000
0001
1000
0031
,
0100
0010
1001
0000
,
1000
0100
0110
0000
,
0001
0100
0110
0000
,
1000
0010
1001
0100
,
0010
0100
1001
0000
,
0001
0100
0110
0000
,
1000
0010
1010
0000
,
1000
0110
0001
0110
,
1000
0100
0011
0011
,
0001
0100
1010
1010
,
0001
1000
1001
1001
,
1000
0100
0110
1100
,
2001
0010
0001
3100
,
0001
0010
0100
1000
0001
0010
0100
1000
,
0100
0000
0000
0110
0000
0000
1001
0000
,
0000
0110
1001
1001
,
1000
0000
0001
1000
0100
0000
1000
0000
,
0001
0000
1000
0001
0100
0000
0001
0000
,
1000
0000
0001
1000
0100
0000
1001
0000
,
1000
0000
0110
0000
0001
0100
0010
0000
,
0001
0000
0010
1000
0100
0000
1000
0000
,
0010
0000
0100
0001
0100
0000
0001
0000
,
0010
0000
0100
1000
0100
0000
1001
0000
,
1000
0001
1000
0001
1000
0001
1000
0001
,
1000
0010
0110
0000
0102
0000
1003
0000
,
1100
0101
1100
1001
,
0001
0010
0110
0000
2100
0000
3001
0000
,
1100
0110
1100
1001
,
1000
0001
0101
0000
2010
0000
3100
0000
,
1010
1100
0110
0011
,
0001
0100
0101
0000
1002
0000
0103
0000
,
1000
0001
1000
0001
1000
0001
1000
0010
,
0100
0000
0001
0100
0000
0100
0001
0000
,
1000
0000
0100
1000
0000
1000
0100
0000
,
0010
0000
0001
0100
0000
0010
1000
0000
,
0001
0100
0010
0000
1000
0100
0010
0000
,
1001
0000
1000
0100
0000
0010
0001
0000
,
1000
0000
0100
0010
0000
0001
1000
0000
,
0100
0000
0010
0001
0000
1000
0100
0000
,
0010
0001
0100
0000
0010
1000
0001
0000
,
1001
0010
0220
0000
,
0000
0330
0110
1001
,
2002
0000
0000
3003
,
2200
3300
0011
0000
,
0202
0303
1010
0100
,
1001
0000
1000
0001
0100
0000
1001
0000
,
0001
1000
0100
0000
1001
0000
0010
0000
,
0100
0010
0000
0000
0110
0000
1001
0000
,
1000
0100
1000
0000
1000
0100
1000
0000
,
1000
0100
1000
0000
0001
0100
0001
0000
,
1000
0100
1000
0000
1000
0010
1000
0000
,
1000
0100
1000
0000
1000
0100
1000
0001
,
1000
0001
0000
0100
0000
0001
0000
1000
,
0010
0100
0000
0010
0000
0100
0000
0001
,
0100
0001
1000
0000
1000
0001
0100
0000
,
0001
0010
0100
0010
0001
0000
1001
0000
,
1000
0010
0110
0000
0101
0000
0110
0000
,
1010
1100
1010
1001
,
1000
0100
0110
0000
0011
0000
0110
0000
,
1100
0110
1100
1001
,
1000
0001
0101
0000
0110
0000
1010
0000
,
0110
0101
1001
1100
,
1000
0001
1001
0000
0110
0000
1001
0000
,
1000
0100
1100
0000
0001
0010
0011
0000
,
2002
0000
0000
0000
,
0000
0000
0000
0000
,
3003
0000
0000
0000
,
0000
0000
0000
0000
,
0000
0010
0000
0000
0000
0000
0000
0000
;

//---------------dance-single - t7r----------------
#NOTES:
     dance-single:
     t7r:
     Hard:
     14:
     :
0000
0000
0000
0000
,
0000
0000
0000
0000
,
0000
0000
0000
0000
,
0000
0000
0000
0000
,
0000
0000
0000
0000
,
1001
0000
0100
0000
0101
0000
0000
0100
,
0010
0000
0100
0000
0110
0000
0010
1000
,
0100
1000
0010
0000
1001
0000
0000
0010
,
0001
0100
0001
0000
1001
0000
0001
0010
,
0100
0000
0110
0000
0001
0001
0000
1000
,
0000
0001
0001
0000
1000
0000
0001
0000
,
1001
0000
1000
1000
0000
0010
0000
0100
,
0100
0001
1000
0001
,
1001
0001
0000
0010
0000
0100
0100
0000
,
1000
0000
0010
0000
0100
0000
0001
0001
,
0000
1000
0000
0001
1000
0000
1001
0000
,
1000
0100
0010
0000
1001
0100
0010
0100
,
0001
0010
0100
0000
0110
0000
0001
0100
,
0010
0100
0001
0000
1001
1000
0100
1000
,
0001
1000
0010
0000
1010
0000
0010
1000
,
0100
1000
0010
0000
0100
0010
1000
0001
,
0011
0001
0100
0000
1010
0010
1000
0100
,
1100
0100
1000
0100
0010
0100
1000
0010
,
0100
0001
1000
0000
1001
0000
1000
0001
,
0010
0000
0100
0000
0010
0000
0000
0000
0011
0000
0000
0000
1000
0100
1000
0000
,
0001
0000
0010
0001
0010
0000
0001
0000
0100
0000
0010
0000
0100
0000
0001
0000
,
1000
0000
0010
1000
0010
0000
1000
0000
0100
0000
0010
0000
0100
0000
1000
0000
,
0010
0000
0100
0010
0100
0000
0001
0000
1000
0000
0100
0000
1000
0000
0001
0000
,
0010
0000
0100
0010
0100
0000
0010
0000
0001
0000
0100
0000
0010
0000
0100
0000
,
0001
0000
1000
0100
1000
0000
0001
0000
0100
0000
0010
0000
0100
0000
0001
0000
,
2000
3200
0302
0203
2300
3020
0032
0023
,
1030
0100
0100
0001
0100
0100
1100
0000
,
1000
0000
0010
0000
0010
0000
0010
0000
0100
0010
0000
0010
1000
0000
0001
0000
,
1001
0000
0000
0000
0001
0000
0010
0000
0100
0000
0010
0000
0001
0000
0000
0001
,
1000
0000
0000
0000
0010
0000
1000
0000
0100
0000
1000
0000
0010
0000
0000
0010
,
1000
0000
0010
0100
0001
1000
0010
0000
,
1000
0100
1000
0000
0001
0000
1000
0000
0001
0100
0001
0000
1000
0000
0001
0000
,
1000
0000
0000
1000
0100
0000
0000
0100
1000
0000
0001
0000
0010
0000
0001
0000
,
0100
0000
0000
0100
0010
0000
0000
0010
1000
0000
0001
0000
0010
0000
0001
0000
,
1000
0000
0000
1000
0100
0000
0000
0100
0010
0000
0001
0000
0100
0000
0010
0000
,
1000
0000
1000
0000
0001
0000
0001
0000
1000
0000
0001
0000
1000
0001
1000
0000
,
0001
0010
1100
0000
1000
0010
0101
0000
,
0110
0001
1000
0000
0110
1000
0001
0010
,
0110
0010
0001
0000
0110
0010
1000
0000
,
0010
0000
0100
0010
0100
0000
0001
0000
1000
0000
0100
0000
1000
0000
0001
0000
,
0101
0001
0010
0000
1100
1000
0010
0000
,
0110
0010
1000
0001
0010
0100
1000
0010
,
0100
0000
0100
0000
0010
0000
0100
0001
0100
0000
0001
0000
1001
0000
0000
0000
,
0001
0000
0001
0000
0010
0000
0010
0000
0100
0000
0100
0000
1000
0001
1000
0000
,
1010
0000
0000
0010
1000
0000
0010
0000
0100
0000
0000
0000
0010
0000
1000
0000
,
0001
0000
0000
0000
0010
0000
0001
0000
0000
0000
0001
0000
1000
0000
0000
1000
,
0100
0000
0000
0000
1000
0000
0000
1000
0010
0000
0100
0000
0001
0000
0000
0000
,
1000
0000
0010
1000
0010
0000
1000
0000
0001
0000
0010
0001
0010
0000
0001
0000
,
1000
0000
0000
0000
0100
0000
0000
0100
1000
0000
0001
0000
0010
0000
0001
0000
,
0000
0000
0001
0000
0100
0000
0010
0000
0000
0000
0010
0000
0100
0000
0000
0100
,
0001
0000
0000
0000
1000
0000
0000
1000
0001
0000
1000
0000
0010
0000
0000
0000
,
0100
0000
0001
0000
1001
0000
0000
0000
1000
0000
0010
1000
0010
0000
1000
0000
,
0002
0000
0010
0000
1000
1000
1000
1000
,
1000
0000
0103
0000
1001
0001
0110
0000
,
2001
0001
0010
0000
0010
0010
3001
0000
,
0120
0100
1030
0000
2010
0100
3001
0000
,
0012
0000
0000
0000
0103
0000
0001
1000
0100
0000
1000
0000
0001
0000
0000
0000
,
1001
0000
0001
0010
0001
0100
0010
0000
,
1000
0000
0010
0000
0100
0000
0010
0000
1000
0000
0001
0000
1000
0000
0001
0010
,
0001
0000
1000
0001
1000
0000
0000
0000
0010
0000
0100
0000
0010
0100
0010
0100
,
0001
0010
0100
1000
0001
0010
1000
0010
,
0001
0010
0100
1000
0001
0010
1000
0010
,
0001
0100
0010
1000
0001
0100
1000
0100
,
0001
0100
0010
1000
0001
0100
1000
0100
,
0001
0001
0001
0001
0001
0001
1000
1000
,
1000
1000
1000
1000
0010
0010
0010
0010
,
0100
0100
0100
0100
0001
0001
0001
0001
,
0010
0000
0010
0000
0010
0100
0010
0100
0010
0000
0100
0000
1000
0001
1000
0001
,
1000
0100
0010
0100
1000
0001
0010
0010
,
0001
0100
0010
0100
0001
0010
0001
0001
,
1000
0100
0010
0100
1000
0010
0100
0100
,
0010
0000
1000
0010
1000
0000
0001
0100
0001
0000
1000
0000
0001
1000
0001
1000
,
0001
0010
0110
0000
0001
1000
0010
0100
,
0010
1000
1001
0000
1000
0100
0010
0100
,
1000
0001
0101
0000
0001
0010
0100
1000
,
0001
0000
0010
0001
0010
0000
0001
0000
1000
0000
0010
1000
0010
0000
0100
0002
,
2000
0000
0000
0000
,
0000
0000
0000
0000
,
3003
0000
0000
0000
,
0000
0000
0000
0000
,
0000
0110
0000
0000
0000
0000
0000
0000
;

//---------------dance-single - t7r----------------
#NOTES:
     dance-single:
     t7r:
     Challenge:
     18:
     :
0000
0000
0000
0000
,
0000
0000
0000
0000
,
0000
0000
0000
0000
,
0000
0000
0000
0000
,
0000
0000
0000
0000
,
1001
0000
0100
0010
2000
0000
3010
1100
,
0000
0000
0101
0000
1010
0000
0001
0010
,
0100
0010
0001
0000
0011
0000
0000
1000
,
0100
0000
1000
0000
0001
0000
0000
0000
1001
0000
0000
0000
0010
1000
0001
0100
,
0010
0000
0000
0000
0110
0000
0000
0000
0010
1000
0010
1000
0100
0000
1000
0000
,
0001
1000
0001
1000
0100
0000
0000
0000
0101
0000
0001
0000
1001
0000
0000
0000
,
1010
0000
0000
0000
0110
0000
0010
0000
0100
0001
1000
0001
0100
0000
0001
0000
,
1000
0000
0001
0000
0010
0000
0001
0000
1000
0000
0000
0000
0001
0000
0000
0000
1000
0000
0000
0000
0100
0000
0000
0000
0110
0000
0000
0000
0000
0000
0100
0010
,
0001
0000
0000
0000
0101
0000
0000
0000
0001
1000
0010
1000
0001
0000
1000
0000
,
0001
0010
0100
0010
0001
0000
1000
0000
0100
0000
1000
0000
1100
0000
0000
0000
,
1010
0000
0000
0000
0110
0000
0000
0000
0010
1000
0100
1000
0010
0000
0100
0000
,
0001
0010
0100
0010
0001
0000
1000
0000
1001
0000
0000
0000
0010
1000
0001
0100
,
0010
0000
0100
0000
0101
0000
0000
0000
0011
0000
0000
0000
1001
0000
0001
1000
,
0100
0000
1000
0010
0100
0000
0000
0000
1010
0000
0100
0000
0001
0000
0100
0000
,
0101
0000
0001
0000
0010
0000
0000
0000
0001
1000
0100
1000
0001
0000
1000
0000
,
0001
1000
0010
1000
0001
0000
1000
0000
0001
0000
1000
0001
0100
0000
0001
1000
,
0010
0000
0100
0000
0101
0000
0000
0000
0011
0000
0000
0000
1000
0000
0100
1000
,
0010
0000
0100
0000
0101
0000
0000
0000
1001
0000
1000
0000
0100
0000
1000
0001
,
0100
0000
0010
0000
0100
0000
0000
0000
0110
0000
0000
0000
0000
0000
0010
1000
,
0100
0000
1000
0000
0001
0000
0000
0000
1001
0000
0100
0000
0001
1000
0001
1000
,
0001
0000
0010
0001
0010
0001
0010
0001
0100
0000
0010
1000
0100
0000
0010
0001
,
1000
0000
0010
1000
0010
1000
0010
1000
0100
0000
0010
0100
1000
0000
0001
1000
,
0010
0000
0100
0010
0100
0010
0100
0010
1000
0000
0001
1000
0010
0000
1000
0001
,
0010
0000
0100
0010
0100
0010
0100
0010
0001
0000
0100
0001
1000
0000
0010
1000
,
0100
0000
1000
0010
1000
0010
1000
0010
0100
0000
0001
0010
0100
0000
0010
0001
,
2000
3200
0302
0203
2300
3020
0032
0023
,
1030
0000
0001
0100
1000
0100
0001
0000
1000
0100
0001
0100
1000
0000
0000
0000
,
0001
0000
1000
0000
1001
0000
1001
0000
0001
1000
0000
1000
0001
1000
0010
0100
,
0001
0000
0010
0000
0001
0000
1000
0100
0010
0100
1000
0000
0001
0000
0100
0001
,
0010
0000
0001
0000
0100
0000
0001
0010
0100
0010
0001
0000
1000
0000
0100
1000
,
0010
0000
1000
0000
0100
0000
1000
0001
0100
0001
1000
0000
0001
0000
1000
0001
,
0010
0001
0010
0001
1000
0100
1000
0100
1000
0010
1000
0010
0100
0001
0100
0001
,
1000
0000
0100
1000
0100
0001
0100
1000
0010
0100
0001
0010
,
0002
0000
1003
0010
0100
0001
0100
1000
0100
0001
0010
1000
,
0020
0000
0031
0010
0100
1000
0100
0001
0100
1000
0010
0100
,
0001
1000
0001
1000
0010
0100
0010
0100
0001
0010
0001
0010
0100
1000
0100
1000
,
0010
1000
0101
0010
0101
0010
1100
0001
,
1100
0010
0101
0010
1100
0001
0011
0001
,
0101
0010
1100
0010
1001
0010
0101
0001
,
1001
0000
0001
1000
0100
0000
1000
0001
0010
0000
0001
1000
0010
0100
0001
1000
,
0100
1000
1100
0010
0101
0010
1001
0010
,
1100
0000
0001
0000
0101
0000
1000
0000
0001
1000
0001
1000
0100
0010
0001
1000
,
0100
0000
0100
0000
0110
0000
0100
0010
0100
0010
0100
0000
1001
0000
0000
0000
,
0001
0100
0001
0100
1000
0100
1000
0100
0001
0010
0001
0010
1000
0010
0001
0010
,
1000
0000
0010
0000
1010
0000
0001
0100
0001
1000
0001
0000
1001
0000
0001
0010
,
0100
0000
0010
0000
0011
0000
0001
0010
0001
1000
0001
0000
1001
0000
1000
0010
,
0100
0000
0010
0000
0110
0000
0010
1000
0100
1000
0010
0000
1001
0000
0000
0000
,
1000
0100
1000
0100
0001
0100
0001
0100
1000
0010
1000
0010
0001
0010
0001
0010
,
1000
0000
0001
0000
1001
0000
0001
1000
0100
1000
0001
0000
1001
0000
1000
0001
,
0010
0000
0001
0000
0110
0000
0010
0100
0001
0100
0010
0000
0110
0000
0010
1000
,
0100
0000
1000
0000
1100
0000
1000
0100
0010
0100
1000
0000
1001
0000
0000
0000
,
0101
0000
0000
0000
1100
0000
0000
0000
0001
0010
0100
1000
0001
0010
0100
1000
,
0001
0000
1000
0010
1000
0001
0001
1000
,
0100
0000
1000
0001
1001
0001
0110
0000
,
1001
0100
1100
0000
1000
0100
0010
0001
,
0101
0000
0000
0000
0000
0000
0000
0000
0001
0000
0000
0000
1000
0000
0000
0000
0010
1000
0000
0000
0100
0000
0000
0000
1000
0000
0000
0000
0000
0000
0000
0000
,
0110
0000
0001
0000
0100
0000
0010
0100
0001
0000
1000
0000
0100
0000
1000
0000
,
1001
0000
1000
0100
0110
0100
1000
0000
,
0110
0000
0100
0000
0001
0000
1000
0001
0010
0000
0001
1000
0100
0000
1000
0001
,
1000
0000
0010
0100
0001
0000
0100
0010
1000
0001
1000
0001
1000
0100
1000
0100
,
0010
0100
0010
0100
1000
0100
1000
0100
0010
0001
0010
0001
1000
0010
1000
0010
,
0100
0001
0100
0001
1000
0010
1000
0010
1000
0001
1000
0001
0100
0010
0100
0010
,
1000
0100
1000
0100
0010
0100
0010
0100
0010
0001
0010
0001
0100
0010
0100
0010
,
1000
0010
1000
0010
0100
0001
0100
0001
0100
0010
0100
0010
1000
0001
1000
0001
,
1000
0100
1000
0100
1000
0100
1000
0100
1000
0100
1000
0100
0010
0001
0010
0001
,
0010
0001
0010
0001
0010
0001
0010
0001
1000
0001
1000
0001
1000
0001
1000
0001
,
0100
0010
1000
0100
0010
0100
1000
0001
0010
1000
0010
0001
1000
0100
0001
0100
,
1000
0000
0101
0000
1100
0000
0101
0000
0001
1000
0000
1000
0001
0100
0001
1000
,
0100
0000
1000
0100
1000
0000
1000
0001
0010
0000
0001
0000
0101
0000
0001
0000
,
0100
0000
0001
0100
0001
0000
1000
0001
0010
0000
0001
0000
1001
0000
1000
0000
,
0100
0000
1000
0010
0100
0000
0010
1000
0100
0000
0010
0000
0011
0000
0001
0000
,
1000
0000
0001
1000
0010
0000
0100
0001
1000
0100
0001
0100
1000
0010
0001
0010
,
1000
0000
0100
1000
0100
0000
1000
0010
0100
0000
0001
1000
0010
0000
0100
0000
,
0001
0000
0010
0001
0100
0000
0001
1000
0010
0000
0100
1000
0001
0000
1000
0000
,
0010
0000
0100
0010
1000
0000
0001
0010
1000
0000
0010
0001
0100
0000
0001
0000
,
1000
0100
1000
0100
1000
0100
0001
0000
0001
0100
0001
0100
1000
0010
0001
0020
,
2000
0000
0000
0000
,
0000
0000
0000
0000
,
3030
0000
0000
0000
,
0000
0000
0000
0000
,
0000
0011
0000
0000
0000
0000
0000
0000
;
