#TITLE:スイマーズ;
#ARTIST:亜熱帯マジ-SKA爆弾 feat.MAKI;
#TITLETRANSLIT:SWIMMERS;
#ARTISTTRANSLIT:ANETTAI MAJI-SKA BAKUDAN feat.MAKI;
#BANNER:SWIMMERS.png;
#BACKGROUND:SWIMMERS-bg.png;
#JACKET:SWIMMERS-jacket.png;
#CDTITLE:./CDTITLES/GUITAR FREAKS & DRUMMANIA.PNG;
#MUSIC:SWIMMERS.ogg;
#SAMPLESTART:43.5;
#SAMPLELENGTH:15;
#BPMS:0=160;

//---------------dance-single - t7r----------------
#NOTES:
     dance-single:
     t7r:
     Beginner:
     1:
     :
0000
0000
0000
0000
,
0000
0000
0000
0000
,
0000
0000
0000
0000
,
1000
0000
0000
0000
,
0001
0000
0000
0000
,
0100
0000
0010
0000
,
1000
0000
0001
0000
,
0001
0000
0000
0000
,
1000
0000
0000
0000
,
0010
0000
0100
0000
,
0001
0000
1000
0000
,
0000
0100
0000
0010
,
0000
1000
0000
0001
,
0001
0000
0010
0000
,
0100
0000
0010
0010
,
0010
0000
1000
0000
,
0001
0000
1000
0000
,
0100
0000
0010
0000
,
0100
0000
0001
0001
,
0000
1000
0000
0001
,
0000
1000
0000
0100
,
0100
0000
0010
0000
,
0100
0000
0001
0000
,
1000
1000
0000
0001
,
0000
1000
0000
0010
,
0010
0000
0100
0100
,
0000
0010
0000
1000
,
0000
0001
0000
0010
,
0000
0100
0000
1000
,
1000
0000
0001
0000
,
0010
0000
0001
0000
,
0010
0000
0010
0000
,
0100
0000
0100
0000
,
0000
1000
0000
0001
,
0000
1000
0000
0100
,
0100
0000
0010
0000
,
1000
0000
0001
0000
,
0000
1000
0000
0001
,
0000
0010
0000
0100
,
0100
0000
0010
0000
,
1000
0000
0001
0000
,
0000
0001
0000
0010
,
0000
0100
0000
0010
,
0010
0000
0000
0000
,
0001
0000
0000
0000
,
0100
0000
0000
0000
,
1000
0000
0100
0000
,
0000
1000
0000
0001
,
0000
0010
0000
0001
,
0000
1000
0000
0100
,
0000
1000
0000
0001
,
0000
0100
0000
0010
,
0000
0100
0000
0001
,
0001
0000
1000
0000
,
0001
0000
1000
0000
,
0000
0100
0000
0010
,
0000
1000
0000
0100
,
0000
0010
0000
0001
,
0000
1000
0000
0001
,
0000
0010
0000
0100
,
0000
0010
0000
0100
,
0100
0000
0000
0000
,
0000
0000
0000
1001
0000
0000
0000
0000
,
0000
0000
0000
0000
,
0000
0000
0000
0000
0000
0000
0000
0000
0000
0000
0000
0010
0000
0000
0000
0000
;

//---------------dance-single - t7r----------------
#NOTES:
     dance-single:
     t7r:
     Easy:
     5:
     :
0000
0000
0000
0000
,
0000
0000
0000
0000
,
0000
0000
0000
0000
,
0000
0001
0000
1000
,
0000
0001
0000
0100
,
0100
0010
1000
0001
,
1000
0000
0001
0000
,
0000
1000
0000
0100
,
0000
0010
0000
0001
,
0001
0010
0100
1000
,
0100
0000
0010
0000
,
1001
0000
0001
0000
,
1000
0001
1000
0001
,
0100
0100
0010
0010
,
1000
0000
0001
0000
,
0100
0001
0000
1000
,
0000
0100
0000
0010
,
0001
0000
0010
0000
,
0100
0010
0001
1000
,
0010
0200
0000
0300
,
0010
1000
0001
0100
,
0001
0010
0100
1000
,
0100
0010
0001
1000
,
0001
1001
0000
0010
,
0000
0100
0000
0010
,
1000
0000
0100
0000
,
0010
0001
0010
0100
,
1000
0000
0000
0100
0000
0000
0000
0000
,
1000
0000
0000
0001
0000
0000
0000
0000
,
0010
0100
0001
1000
,
0010
0100
0001
1000
,
0001
0001
1000
1000
,
0001
0001
0100
0100
,
0010
1000
0100
0010
,
0001
0010
0100
1000
,
0100
0000
0110
0000
,
1001
0000
0110
0000
,
0010
1001
1000
0001
,
0100
0010
1000
0001
,
1000
0100
0010
0001
,
1000
0100
0010
0001
,
1000
0010
0001
0010
,
1000
0100
0001
0100
,
2000
0000
0000
3000
,
0002
0000
0000
0003
,
0200
0000
0000
0300
,
0020
0000
0000
0030
,
1000
0001
0100
0010
,
1000
0010
0100
0001
,
1000
1000
0001
0001
,
0200
0000
0000
0300
,
0010
1000
0001
0100
,
0010
1000
0100
0010
,
0002
0003
0020
0030
,
0200
0300
2000
3000
,
0001
0001
1000
1000
,
0001
0100
0010
1000
,
0001
0100
0010
0100
,
0010
1000
0100
0010
,
0002
0000
0000
0003
,
0020
0000
0000
0030
,
0100
0000
0000
0010
0000
0000
0000
0110
,
0000
0000
0000
2002
0000
0000
0000
0000
,
0000
0000
0000
0000
,
0000
0000
0000
0000
3003
0000
0000
0000
0000
0000
0000
0110
0000
0000
0000
0000
;

//---------------dance-single - t7r----------------
#NOTES:
     dance-single:
     t7r:
     Medium:
     8:
     :
0000
0000
0000
0000
,
0000
0000
0000
0000
,
0000
0000
0000
0000
,
2000
0000
0000
0000
0000
0000
0000
3001
,
0000
0000
0000
0000
0000
0001
0100
0000
,
0010
0000
1000
0000
0001
0000
1000
0200
,
0000
0000
0300
0000
,
0020
0000
0000
0000
0000
0000
0000
0031
,
0000
0000
0000
1000
,
0001
0000
0100
0000
0010
1000
0000
0001
,
0000
1000
0000
0100
0010
0000
1001
0000
,
0001
0100
0010
1000
,
0001
0100
0010
1000
,
0100
0010
0001
1000
,
0100
0000
0010
0000
0001
0100
0001
0000
,
1000
0010
1000
0001
,
1000
0100
0010
0001
,
0010
0100
1000
0100
,
0010
0001
0100
0010
,
1000
1001
0001
0100
,
0001
1000
0001
0100
,
0010
0000
1000
0000
0100
0000
0010
0001
,
0000
1001
0000
0001
0100
0000
0110
0000
,
1001
1000
0100
1000
,
0001
0100
0010
1000
,
0001
1000
0100
0010
,
0001
0010
0100
0000
1000
0100
0010
0000
,
1010
0000
0000
0101
0000
0000
0000
0000
,
0011
0000
0000
1001
0000
0000
0000
0000
,
0001
1000
0001
0100
,
0010
1000
0100
0010
,
0001
0010
0100
0000
0001
0010
0100
0000
,
1000
0010
0100
0000
1000
0010
0100
0000
,
1001
0001
0100
0001
,
1000
0010
0100
0001
,
1000
0000
0100
0010
0000
0000
0001
0100
,
0000
0010
0000
1000
0001
0000
1001
0000
,
0010
0110
0010
1000
,
0001
0100
0001
1000
,
0100
0010
0001
0000
0100
0010
0001
0000
,
1000
0100
0010
0000
1000
0100
0010
0000
,
1001
0010
1000
0001
,
0100
0001
1000
0010
,
0100
0000
0000
0110
0000
0000
1000
0000
,
0001
0000
0000
1001
0000
0000
0001
0000
,
0100
0000
0000
0110
0000
0000
0010
0000
,
2000
0000
0000
3000
,
0001
0000
0010
0100
0000
0010
0001
0010
,
0000
0001
0010
0001
0000
1000
0100
1000
,
0020
0000
0230
0000
0302
0000
1003
0001
,
0100
0000
0001
1000
0000
0001
0000
1000
,
0100
0000
0010
0001
0200
0000
0310
1000
,
0200
0000
0310
0001
2000
0000
3001
1000
,
0001
0000
0100
0001
0000
0000
1000
0010
,
0000
0100
0000
0010
1000
0000
1001
0000
,
0001
0220
0000
0330
,
0010
0000
0000
0010
0000
0000
0010
0000
0001
0000
0000
0001
0000
0000
0001
0000
,
1000
0000
0000
1000
0000
0000
1000
0000
0010
0000
0000
0010
0000
0000
0010
0000
,
0100
0000
0000
0100
0000
0000
0100
0000
0010
0000
0000
0010
0000
0000
1000
0000
,
0001
0000
1000
0100
0000
0010
0001
0010
,
0000
0001
0010
0100
0000
1000
0100
0010
,
0001
0000
0000
1001
0000
0000
0000
0101
,
0000
0000
0000
2002
0000
0000
0000
0000
,
0000
0000
0000
0000
,
0000
0000
0000
0000
3003
0000
0000
0000
0000
0000
0000
0110
0000
0000
0000
0000
;

//---------------dance-single - t7r----------------
#NOTES:
     dance-single:
     t7r:
     Hard:
     11:
     :
0000
0000
0000
0000
,
0000
0000
0000
0000
,
0000
0000
0000
0000
,
0020
0000
0000
0000
0000
0000
0000
0130
,
0000
0000
0000
0000
0000
0000
0001
0100
,
0002
0000
0013
0100
1000
0100
0010
0002
,
0000
1000
0000
1003
0100
0000
0110
0000
,
2000
0000
0000
0000
0000
0000
0000
3010
,
0000
0000
0000
0000
0000
0000
0100
0001
,
0200
0000
0301
1000
0100
1000
0000
0110
,
0000
2001
0000
0000
3010
0100
0001
0000
,
1010
0000
0001
0100
0000
0001
0010
0001
,
0000
1000
0010
1000
0000
0010
0100
0001
,
0000
0010
0100
0010
0000
0100
1000
0001
,
0000
1000
0010
1000
0010
0100
0001
1000
,
0001
0100
0001
1000
0000
1000
0100
0010
,
0000
0100
1000
0001
0000
0100
0001
0010
,
0001
0100
0010
1000
0000
1000
0001
0100
,
0000
0001
0010
0100
1000
0100
0010
0001
,
0100
0000
1001
0000
0000
0010
1000
0010
,
0000
0100
0001
1000
0000
0001
0010
0001
,
0000
1000
0100
0010
0000
0100
1000
0010
,
0100
0000
0100
0100
0010
0010
1000
0001
,
1000
0000
0011
0000
1000
0100
0010
0000
,
0100
0000
1001
0000
0010
0100
0001
0000
,
1000
0000
1010
0000
0001
0100
0010
0000
,
0001
0100
0100
0010
0100
0100
1000
0100
,
0010
0000
0000
1000
0001
0000
2001
0000
0000
0000
3100
0000
0010
0000
0001
0000
,
1000
0000
0000
0001
1000
0000
1002
0000
0000
0000
1003
0000
0010
0000
0100
0000
,
0010
0000
1010
0000
0001
0100
0001
0000
,
0010
0000
0011
0000
1000
0100
1000
0000
,
0010
0100
0100
0001
0010
0100
1000
0000
,
0100
0010
0010
0001
0100
0010
1000
0000
,
0100
0000
1010
0000
0001
0010
0001
0000
,
0100
0000
0011
0000
1000
0100
1000
0000
,
1001
0010
0100
1001
0000
0100
0010
1001
,
0000
0001
0100
1010
0000
0100
0011
0000
,
1100
0000
1001
0000
1000
0100
0001
0000
,
0100
0000
0101
0000
0001
0100
1000
0000
,
0010
1000
0010
0100
0001
0010
0100
0000
,
0010
0000
0001
0000
0100
0000
0010
0000
1000
0010
0000
0000
0100
0000
0100
0000
,
0001
0000
1001
0000
1000
0001
1000
0000
,
0100
0000
0110
0000
0010
1000
0100
0000
,
1000
0100
0000
0000
0000
0000
0010
0001
0000
0000
0000
0000
0100
0000
0100
0000
,
0010
1000
0000
0000
0000
0000
0001
0100
0000
0000
0000
0000
0001
0000
0001
0000
,
1000
0001
0000
0000
0000
0000
0100
0010
0000
0000
0000
0000
1000
0000
0100
0000
,
0022
0000
0033
0101
,
0010
1000
0001
0100
0000
0001
0010
0100
,
0000
1000
0020
0000
1030
0100
0001
0100
,
0010
0000
2010
0000
3001
0100
0001
1000
,
0200
0000
1300
0100
0000
0100
2000
0000
,
3010
1000
0001
0100
0001
0010
0200
0000
,
0310
0001
1000
0100
2000
0000
3020
0000
,
1030
0000
0001
1100
0000
0100
0010
1001
,
0000
0010
0100
0001
1001
0000
0101
0000
,
0010
0000
0100
2020
0000
0000
3030
0000
,
0010
0000
0000
0010
1000
0000
0100
0000
1000
0000
0000
1000
0100
0000
0010
0000
,
0001
0000
0000
0001
0100
0000
0001
0000
1000
0000
0000
1000
0010
0000
0100
0000
,
0010
0000
1000
0001
0000
0100
0001
0000
2000
0000
0000
0000
3001
0000
0000
0000
,
0010
0210
0001
0310
,
2001
0000
3100
0000
0010
0001
0100
0010
,
1000
0001
0000
0000
0000
0000
0100
0010
0000
0000
0000
0000
0000
1000
0001
0000
,
0000
0000
0000
0220
0000
0000
0000
0000
,
0000
0000
0000
0000
,
0000
0000
0000
0000
0330
0000
0000
0000
0000
0000
0000
1001
0000
0000
0000
0000
;

//---------------dance-single - t7r----------------
#NOTES:
     dance-single:
     t7r:
     Challenge:
     15:
     :
0000
0000
0000
0000
,
0000
0000
0000
0000
,
0000
0000
0000
0000
,
0002
0000
1000
0000
0100
0000
1003
0020
,
0100
0000
0001
0000
1030
0001
0010
0001
,
0200
0000
0301
0010
0100
1000
0010
0100
,
0002
0010
0000
1000
1000
0000
1003
0000
,
2001
0000
0010
0000
0100
0000
3001
0020
,
0000
0000
0001
0000
1000
0000
0130
0010
,
0002
0000
0103
0010
1000
0010
0000
0110
,
0000
0000
2001
0000
0000
0000
3010
0000
0100
0000
0001
1000
0001
1000
0001
0000
,
0201
0000
0310
0100
0000
0001
0101
0001
,
0000
1000
1100
1000
0000
0010
0110
0010
,
0000
0100
0110
0100
0000
0001
0101
0001
,
0000
0000
1000
0000
1100
0000
1000
0001
0000
0001
1000
0000
0010
0000
0100
0000
,
0001
0010
0011
0010
0000
1000
1100
1000
,
0000
0001
0101
0001
0000
0100
0110
0010
,
0000
1000
1010
0010
0000
1000
1001
0001
,
0000
0000
0010
0000
0110
0000
0100
0010
0000
0010
0001
0000
1000
0001
1000
0001
,
0000
1001
0010
1000
0000
0010
0101
1000
,
0000
0010
1100
0001
0000
0100
1010
0001
,
0000
0010
1100
0001
0000
0010
0101
1000
,
0001
0000
0100
0000
0001
0010
0001
0010
0001
0000
1000
0000
0001
1000
0010
0000
,
0110
0001
0101
0010
0000
1000
1100
0010
,
0000
0001
1001
0010
0000
0100
0110
0001
,
0100
0010
1010
0001
0000
0010
0011
1000
,
0001
1000
0100
1000
0001
0000
1000
0001
0010
0001
1000
0000
0001
0010
0100
1000
,
0001
0000
0000
0000
0000
0000
0100
0000
0010
0100
0000
0000
0120
0000
0000
0000
0000
0000
0000
0000
1030
0000
0000
0000
0010
0000
1000
0000
0100
0000
0000
0000
,
0011
0000
0000
0000
0000
0000
1000
0000
0001
1000
0000
0000
1001
0000
0000
0000
0000
0000
0000
0000
0010
0000
0100
0000
0001
0000
0100
0000
0001
0000
0010
0000
,
0001
1000
1010
0010
1000
0100
1100
0100
,
1000
0001
0011
0001
1000
0010
0110
0010
,
1000
0100
1100
0100
0010
0100
0110
0010
,
0001
0000
0010
0000
0011
0000
0001
0000
1000
0000
0001
0000
1000
0001
0100
0001
,
1000
0010
0110
0010
1000
0100
1100
0100
,
1000
0000
0001
0000
0011
0000
0001
0000
1000
0000
0010
0000
1000
0001
0100
0000
,
0110
0000
1000
0100
0010
0000
0011
0000
0001
0100
0010
1000
0010
0000
1001
0000
,
0000
0000
0000
0000
1000
0000
0100
0000
0010
0000
0100
0000
1000
0000
0000
0000
0001
0000
0100
0000
0010
0000
0100
0000
0001
0000
0010
0000
0100
0000
1000
0001
,
0000
0000
0110
0000
0010
1000
0101
1000
,
0010
1000
0110
0001
1000
0100
0011
1000
,
0001
0100
1010
0001
1000
0001
0110
1000
,
0001
0000
0100
0000
0011
0000
1000
0000
0100
1000
0000
1000
0001
0100
0001
1000
,
0010
0100
0110
0100
0001
0010
1100
0001
,
1000
0000
0010
0000
0110
0000
0010
0000
1000
0000
0010
0000
1000
0100
1000
0001
,
1000
0010
0000
0000
0000
0000
0100
0001
0000
0000
1000
0001
0100
0001
1000
0100
,
0010
0100
0000
0000
0000
0000
0010
0001
0000
0001
0100
0010
1000
0001
0100
0010
,
1000
0001
0000
0000
0000
0000
0010
0100
0000
0000
0010
0000
0001
0100
0010
1000
,
0001
0000
0010
0000
0010
0100
0010
0000
0001
0000
0100
0000
0001
1000
0001
0000
,
1001
0000
1000
0000
1100
0000
1000
0000
0000
0001
0100
0000
0101
0000
0001
0000
,
0000
0010
0001
0000
0011
0000
0001
0000
0000
1000
0100
0000
1100
0000
1000
0000
,
0010
0000
0100
0010
1000
0000
0010
1000
0001
0000
0010
0001
1000
0000
0001
0000
,
0010
0000
0001
0000
0011
0000
0001
0100
0000
0100
0001
0000
1000
0010
0100
0001
,
1000
0000
0001
0000
1001
0000
1000
0000
0000
0001
0010
0000
0110
0000
0001
0000
,
1000
0000
0010
0000
0110
0000
1000
0000
0000
0001
0100
0000
0010
1000
0001
0000
,
1000
0100
0010
0100
1000
0000
0001
0100
0010
0100
0001
1000
0100
0000
2100
0000
,
0000
0000
3010
0100
0001
0100
0010
0000
1000
0001
0100
0001
1000
0100
0010
0001
,
1000
0000
0010
0220
0000
0000
0330
0000
,
0010
0000
1000
0010
0000
0001
0010
0000
1000
0000
0100
0001
0000
0100
1000
0000
,
0001
0000
0010
0100
0000
1000
0010
0000
1000
0000
0010
0100
0000
0001
0100
0000
,
0001
0000
0010
0001
0000
1000
0010
0000
0100
0000
0001
1000
0100
0000
1000
0001
,
0010
0000
0001
0000
0011
0000
1000
0000
0000
0001
0100
0000
1010
0000
0001
0000
,
1000
0000
0100
0000
0011
0000
1000
0000
0000
0001
0100
0000
0010
0100
0001
0000
,
0010
0100
0000
0000
0000
0000
1000
0001
0000
0000
0000
0000
0000
0100
0010
0000
,
0000
0000
0000
0220
0000
0000
0000
0000
,
0000
0000
0000
0000
,
0000
0000
0000
0000
0330
0000
0000
0000
0000
0001
1000
0100
0000
0000
0000
0000
;
