#TITLE:STEEL NEEDLE;
#ARTIST:Scorpion;
#BANNER:STEEL NEEDLE.png;
#BACKGROUND:STEEL NEEDLE-bg.png;
#JACKET:STEEL NEEDLE-jacket.png;
#CDTITLE:./CDTITLES/BEATMANIA IIDX.PNG;
#MUSIC:STEEL NEEDLE.ogg;
#SAMPLESTART:38.634;
#SAMPLELENGTH:15;
#BPMS:0=205;

//---------------dance-single - t7r----------------
#NOTES:
     dance-single:
     t7r:
     Beginner:
     3:
     :
0000
0000
0000
0000
,
0000
0000
0000
0000
,
0000
0000
0000
0000
,
0000
0000
0000
0000
,
0000
0000
0000
0000
,
1000
0000
0000
0000
,
0000
0000
0000
0000
,
0001
0000
0000
0000
,
0000
0000
0000
0000
,
1000
0000
0000
0000
,
0001
0000
0000
0000
,
0100
0000
0000
0000
,
0010
0000
0000
0000
,
1000
0000
0001
0000
,
0100
0000
0010
0000
,
1000
0000
0100
0000
,
0010
0000
0001
0000
,
1000
0000
0000
0000
,
0001
0000
0001
0000
,
0001
0000
0100
0000
,
0100
0000
0010
0000
,
1000
0000
0001
0000
,
1000
0000
0100
0000
,
1000
0000
0010
0000
,
0100
0000
0000
0000
,
0010
0000
0010
0000
,
1000
0000
1000
0000
,
0001
0000
0001
0000
,
0100
0000
0001
0000
,
1000
0000
1000
0000
,
0001
0000
0001
0000
,
0010
0000
0010
0000
,
0100
0000
0010
0000
,
0001
0000
0001
0000
,
0010
0000
0010
0000
,
0001
0000
0001
0000
,
0100
0000
0100
0000
,
0010
0000
0010
0000
,
1000
0000
1000
0000
,
0010
0000
0010
0000
,
0100
0000
0100
0000
,
0010
0000
1000
0000
,
0001
0000
0100
0000
,
0010
0000
1000
0000
,
0001
0000
0001
0000
,
1000
0000
0001
0000
,
0100
0000
0010
0000
,
1000
0000
0010
0000
,
0100
0000
0001
0000
,
1000
0000
0100
0000
,
0010
0000
0001
0000
,
0010
0000
0100
0000
,
1000
0000
0100
0000
,
1000
0000
0010
0000
,
1000
0000
0001
0000
,
0100
0000
0001
0000
,
1000
0000
0001
0000
,
0100
0000
0000
0000
,
0000
0000
0000
0000
,
0000
0000
0000
0000
,
0000
0000
0000
0000
,
0010
0000
0000
0000
,
0000
0000
0000
0000
,
0000
0000
0000
0000
,
0000
0000
0000
0000
,
0000
1000
0000
1000
,
0000
0001
0000
0001
,
0000
0100
0000
0100
,
0000
0010
0000
0010
,
0000
1000
0000
1000
,
0000
0001
0000
0001
,
0000
1000
0000
0100
,
0000
0010
0000
0001
,
0001
0000
0000
0000
,
0010
0000
0100
0000
,
1000
0000
0000
0000
,
0010
0000
0100
0000
,
0001
0000
0000
0000
,
1000
0000
0001
0000
,
0100
0000
0000
0000
,
0001
0000
1000
0000
,
0100
0000
0000
0000
,
1000
0000
0100
0000
,
0010
0000
0000
0000
,
0001
0000
0010
0000
,
0100
0000
0000
0000
,
0010
0000
0001
0000
,
0100
0000
0000
0000
,
0010
0000
1000
0000
,
0001
0000
1000
0000
,
0001
0001
0001
0000
,
1000
0000
0001
0000
,
1000
1000
1000
0000
,
0001
0000
0100
0000
,
0010
0010
0010
0000
,
0100
0000
0001
0000
,
1000
1000
1000
0000
,
0100
0000
0010
0000
,
1001
0000
0000
0000
;

//---------------dance-single - t7r----------------
#NOTES:
     dance-single:
     t7r:
     Easy:
     8:
     :
0000
0000
0000
0000
,
0000
0000
0000
0000
,
0000
0000
0000
0000
,
0000
0000
0000
0000
,
0000
0000
0000
0000
,
0020
0000
0000
0000
,
0000
0000
0000
0030
,
0200
0000
0000
0000
,
0000
0000
0300
0010
,
1000
0001
0100
0001
,
1000
0100
0010
0001
,
1000
1000
0001
0100
,
0010
1000
0010
0100
,
0001
0100
1000
0100
,
0001
0100
1000
0100
,
0001
0010
1000
0010
,
0001
0100
1000
1001
,
0010
0100
0001
0100
,
0010
0010
1000
0100
,
0010
0001
0010
0100
,
1000
0100
0010
1001
,
0010
0100
0001
0100
,
0010
1000
0001
0110
,
0010
1000
0100
0010
,
0022
0000
0000
0033
,
0001
0010
0100
0010
,
0001
0010
0100
0010
,
0001
0010
0100
0010
,
0001
0001
1000
1000
,
0010
1000
0010
0100
,
0010
1000
0010
0100
,
0010
1000
0010
0100
,
0010
1000
0001
1001
,
1000
0100
0001
0101
,
0001
0100
1000
1100
,
1000
0010
0001
0011
,
0001
0010
0100
1000
,
0100
0010
0001
0101
,
0100
0010
1000
1010
,
0010
1000
0001
1001
,
0001
0100
0001
1000
,
0100
0010
0001
0100
,
0110
0010
1000
0001
,
1000
0100
0010
0001
,
0101
0001
1000
0200
,
1300
0001
0100
0010
,
1000
0010
0100
0101
,
0001
1000
0001
0010
,
0100
0010
0011
1001
,
1010
0100
0010
1000
,
0010
0100
0001
1001
,
0001
0010
0100
0010
,
0001
0100
1010
1001
,
1000
0001
0100
0010
,
0100
0010
1000
1001
,
0001
0100
0001
1000
,
0010
0100
0010
1000
,
2002
0000
0000
0000
,
0000
0000
0000
0000
,
0000
0000
0000
0000
,
0000
0000
0000
3003
,
0010
0000
0000
0000
,
0000
0000
0000
0000
,
0000
0000
0000
0000
,
0000
0000
0000
0000
,
1000
0100
0001
0100
,
1000
0100
1000
0100
,
1000
0100
0001
0100
,
1000
0010
0001
0010
,
1000
0100
0001
0100
,
1000
0100
1000
0001
,
1000
0100
0001
0100
,
1000
0010
0001
0010
,
1000
1001
1001
0001
,
0101
0000
1001
0000
,
0001
1001
1001
1000
,
1100
0000
0110
0000
,
1000
1010
1010
0100
,
0110
0000
1001
0000
,
0001
0101
0101
0001
,
0011
0000
0110
0000
,
1001
0001
0100
0010
,
1000
0010
0110
0110
,
0010
1000
0100
0010
,
0001
0010
1100
1100
,
1000
0001
0100
0010
,
1000
0010
0101
0101
,
0001
1000
0001
0100
,
0010
1000
0110
1001
,
0102
0000
1003
0000
,
0001
0010
0100
1000
,
0100
0010
0001
0100
,
0010
1000
0010
0100
,
0001
1001
0110
1001
,
1000
0100
0010
0001
,
0010
0100
1000
0100
,
1000
0010
0100
0001
,
1000
0001
1001
0110
,
2002
0000
0000
0000
,
0000
0000
0000
0000
,
3003
0000
0000
0000
;

//---------------dance-single - t7r----------------
#NOTES:
     dance-single:
     t7r:
     Medium:
     10:
     :
0000
0000
0000
0000
,
0000
0000
0000
0000
,
0000
0000
0000
0000
,
0000
0000
0000
0000
,
0000
0000
0000
0000
,
0002
0000
0000
0000
,
0000
0000
0000
0003
,
2000
0000
0000
0000
,
0000
0000
3000
0001
,
1000
0001
1000
0001
,
0100
0010
1000
0100
,
0011
0011
0001
0100
,
0010
1000
0110
1001
,
1000
0100
0010
0001
,
0100
0010
1000
0001
,
1000
0001
1000
0000
0001
1000
0001
0000
,
1000
0100
0210
0301
,
1000
0000
0100
1000
0000
1001
0000
0000
,
0001
0100
0001
0000
1000
0001
0100
0000
,
0010
1000
0001
0100
,
0010
0000
1000
0000
0001
0100
0002
0000
,
1003
0100
0010
0100
,
1000
0000
0100
0000
1000
0001
2000
0000
,
3001
0100
0010
1000
,
0010
0100
0010
1001
,
0001
0010
0110
0110
,
1000
0100
0110
0110
,
0001
0100
0110
0110
,
1000
0001
0100
0000
0001
1000
0001
0000
,
1000
0100
0110
0110
,
0001
0100
0110
0110
,
1000
0010
1010
1010
,
0001
0100
0001
1001
,
1000
0100
1100
0110
,
1000
0100
1100
1001
,
0001
0100
0101
0110
,
0001
0100
0010
1000
,
0100
1000
1001
0101
,
0001
0100
1001
1010
,
1000
0100
0011
0101
,
0010
1000
0001
0200
,
0310
0000
1000
0010
1000
0000
0001
0000
,
0100
0000
0001
0000
1000
0100
0010
0000
,
0001
0000
0010
0100
0010
0000
0001
0000
,
1000
0000
0001
0000
1000
0010
2000
0000
,
3001
0000
0100
0001
1000
0000
0001
0000
,
0100
0000
0001
0000
1000
0100
0020
0000
,
0130
0000
0010
0001
0100
0000
0010
0000
,
1000
0001
1000
1001
,
0001
0000
0100
0001
0100
0000
0010
0000
,
1000
0000
0010
0000
1000
0001
0200
0000
,
0310
0000
1000
0010
1000
0000
0010
0000
,
0100
0000
0001
0000
1000
1000
0001
0001
,
0100
0000
0001
1000
0001
0000
1000
0000
,
0010
0000
0100
0000
0001
1000
0020
0000
,
0130
0000
0010
1000
0100
0000
0010
0000
,
0001
0011
0110
1100
,
2002
0000
0000
0000
,
0000
0000
0000
0000
,
0000
0000
0000
0000
,
0000
0000
0000
3003
,
0010
0000
0000
0000
,
0000
0000
0000
0000
,
0000
0000
0000
0000
,
0000
0000
0000
0000
,
1000
0001
1000
0000
0001
0100
0000
0001
,
0000
1000
0000
0010
0000
0100
0000
0010
,
0000
1000
0100
0000
0010
0001
0000
0010
,
0100
0000
1000
0100
0000
0010
0000
0001
,
0000
1000
0001
0000
0100
0001
0000
1000
,
0000
0010
0000
0100
0000
0010
0000
1000
,
0000
0100
0010
0000
0001
1000
0000
0001
,
1000
0000
1000
0001
0000
0100
0000
0001
,
0100
0010
0100
0000
0110
0000
0010
0000
,
1000
0001
1000
0001
,
0100
0001
1000
0010
,
0110
1001
0110
1001
,
1000
0100
0010
0001
,
0010
0100
1000
0100
,
1000
0001
0100
0001
,
1010
0101
1100
1001
,
0001
0000
0010
0000
0100
0000
1000
0100
,
0010
0000
0000
1000
0001
0000
0000
0000
,
0001
0000
0100
0000
0010
0000
1000
0010
,
0100
0000
0000
0001
0100
0000
0000
0000
,
0001
0000
0010
0000
0001
0000
1000
0100
,
1000
0000
0000
0001
1000
0000
0000
0000
,
0010
0000
1000
0000
0001
0000
1000
0001
,
0100
0000
0000
0001
1000
0000
0010
0000
,
0100
0010
0100
0000
2002
0000
3003
0000
,
0001
0100
0001
0101
,
1010
1100
1001
1000
,
0100
0010
0001
0101
,
0011
0101
1001
0010
,
0100
0010
1000
0110
,
1001
0101
1100
0010
,
0101
1010
0101
1001
,
1100
1010
0110
1001
,
2002
0000
0000
0000
,
0000
0000
0000
0000
,
3003
0000
0000
0000
;

//---------------dance-single - t7r----------------
#NOTES:
     dance-single:
     t7r:
     Hard:
     15:
     :
0000
0000
0000
0000
,
0000
0000
0000
0000
,
0000
0000
0000
0000
,
0000
0000
0000
0000
,
0000
0000
0000
0000
,
2002
0000
0000
0000
,
0000
0000
0000
3003
,
0020
0000
0000
0000
,
0000
0000
0030
1010
,
0101
0000
0001
1000
0000
0001
0100
0000
,
0110
0000
0010
1000
0000
0001
1000
0000
,
1000
0001
0100
0000
1001
0000
0100
0000
,
0110
0000
0010
1000
0000
0001
0100
0001
,
1000
0000
0100
0010
0000
0001
0010
0000
,
0110
0000
0010
0001
0000
0100
0001
0000
,
1000
0001
0100
0000
0001
0100
0000
1000
,
0100
0001
0010
0001
1000
0000
1001
0000
,
0001
0010
1000
0010
0000
1001
0000
0000
,
1000
0100
0001
0000
0001
0100
1000
0000
,
1000
0010
0001
0100
0000
0100
0001
0001
,
0010
1000
0100
0010
0001
0010
1001
0000
,
0001
0100
1000
0100
0000
1001
0100
0010
,
0001
0100
1000
0100
0001
0010
0011
0000
,
0001
0010
1000
0100
0000
1010
0000
0010
,
0100
0001
0010
1000
0100
0000
1100
0000
,
1010
0010
0100
0001
0100
0010
1000
0000
,
0010
0100
0001
0100
1000
0100
0001
0000
,
0010
0100
0001
0010
1000
0010
0001
0000
,
1000
0100
0001
0100
1000
0001
1000
0000
,
1000
0010
0001
0010
1000
0100
1000
0000
,
0001
0010
1000
0010
0001
0100
0001
0000
,
1000
0100
0010
0100
0001
0100
0010
0000
,
1000
0100
0001
0100
1000
0000
0101
0000
,
1001
0001
0100
1000
0010
0001
0010
0000
,
0110
0010
0100
0001
0100
1000
0100
0000
,
1001
0100
0001
0100
1000
0010
0001
0000
,
0010
0001
0010
0001
0100
1000
0100
0000
,
1000
0100
0001
0000
0001
0100
1000
0000
,
1000
0010
0001
0000
0001
0010
1000
0000
,
1000
0100
0001
0000
0001
0100
1000
0100
,
0001
0010
1000
0010
0001
0100
1010
0000
,
1001
0000
0001
0010
0100
1000
0100
0010
,
0011
0000
0101
0000
0001
0100
1000
0100
,
0011
0000
0001
0010
1000
0010
0001
1001
,
0100
0010
1000
0010
0100
0100
0020
0000
,
1030
0000
0010
0100
0010
1000
0100
0001
,
0100
1000
0010
0001
0010
1000
0100
1000
,
0001
0001
0001
0001
1000
0000
1001
0000
,
0101
0010
1000
0010
0001
0100
1000
0000
,
1100
0000
0010
0001
0100
0010
1000
0001
,
1000
0100
0001
0100
1000
0010
0001
0001
,
0010
0010
0100
0000
0010
1000
0001
0010
,
1000
0010
0001
0100
1000
0001
0100
0001
,
0110
0000
0010
0100
1000
0010
0001
0010
,
1000
0100
0001
0100
1000
1000
0100
0100
,
0011
0100
0001
0000
1010
0100
0010
0000
,
1000
0010
0100
0001
1000
0100
0001
0000
,
2002
0000
0000
0000
,
0000
0000
0000
0000
,
0000
0000
0000
0000
,
0000
0000
0000
3003
,
0020
0000
0000
0000
,
0000
0000
0000
0000
,
0000
0000
0000
0000
,
0000
0000
0000
0030
,
1000
0010
0001
0000
0100
0001
0000
0101
,
0000
1010
0000
1001
0000
0110
0000
0010
,
0100
0001
1000
0000
0100
0001
0000
0001
,
0100
0000
1000
0010
0000
1010
0000
1100
,
0000
1000
0010
0000
0001
0100
0000
1001
,
0000
0110
0000
0101
0000
1001
0000
0110
,
0000
0010
1000
0000
0001
0010
0000
0100
,
0010
0001
0100
0000
1000
0100
0001
0100
,
1001
0100
0010
0000
1000
0010
0001
0010
,
1000
0100
0001
0100
1000
0100
0010
0100
,
1100
0010
0100
0000
0010
0100
0001
0100
,
0001
0010
0001
0100
0001
0010
0100
1000
,
1010
0100
0001
0000
0010
0001
0100
0001
,
0010
0001
0100
0001
0010
1000
0100
1000
,
0110
0001
0100
0000
0010
1000
0010
0001
,
0010
0100
0010
1000
0100
0010
0011
0000
,
1001
0000
0001
0100
1000
0000
1000
0100
,
0001
0010
1000
0100
0001
0010
1000
0100
,
1000
0010
0100
0000
0110
0000
0001
0100
,
1000
0010
0001
0100
1000
0010
0001
0100
,
1000
0100
0001
0000
1100
0000
0010
0100
,
1000
0010
0001
0100
1000
0100
0001
0010
,
0100
0010
1000
0000
0011
0000
1000
0001
,
0100
0010
1000
0010
0100
0001
1000
0000
,
1001
0100
0010
0000
2002
0000
3003
0000
,
0001
1000
0100
1000
0001
1000
0100
1000
,
0001
0010
1000
0010
0001
0100
1000
0100
,
1001
0100
0010
0100
1000
0100
0010
0100
,
1000
0100
0001
0100
1000
0010
0001
0010
,
0110
0001
0100
0010
1000
0010
0100
0001
,
0010
0001
0100
0001
0010
1000
0100
1000
,
0110
1000
0100
0000
1000
0010
0100
0001
,
1000
0100
0001
0010
1000
0100
0010
0001
,
2002
0000
0000
0000
,
0000
0000
0000
0000
,
3003
0000
0000
0000
;

//---------------dance-single - t7r----------------
#NOTES:
     dance-single:
     t7r:
     Challenge:
     16:
     :
0000
0000
0000
0000
,
0000
0000
0000
0000
,
0000
0000
0000
0000
,
0000
0000
0000
0000
,
0000
0000
0000
0000
,
0020
0000
0000
0000
,
0000
0000
0000
0030
,
0200
0000
0000
0000
,
0000
0000
0000
0300
,
1010
0000
0010
1000
0000
1000
0100
0000
,
0011
0000
0010
0001
0000
0001
0100
0000
,
0010
0010
0010
0000
0100
0000
0001
0000
,
1000
0000
0000
0000
0100
0000
0010
0000
0000
0000
0010
0000
0001
0000
0100
0001
,
0100
0000
0010
1000
0000
1000
0001
0000
,
0010
0000
0001
1000
0000
1000
0100
0000
,
0010
0010
0010
0100
0010
0010
0000
0001
,
0100
0000
0010
1000
0010
0000
1000
0000
0100
0000
0010
0000
0002
0000
0000
0000
,
1003
0000
0010
1000
0010
0000
0200
0000
0000
0000
0310
0000
0000
0000
0000
0000
,
0100
0000
0001
0100
0001
0000
0000
0000
0010
0001
0010
0001
0010
0000
0000
0000
,
0001
0000
1000
0100
1000
0000
0001
0000
0000
0000
1000
0000
0001
0000
0001
0000
,
0010
0000
0001
0010
0001
0000
1000
0000
0100
0000
0010
0000
0001
0000
0000
0000
,
0100
0000
0010
1000
0010
0000
1000
0000
0000
0000
1001
0000
0000
0000
1000
0000
,
0100
0010
0100
1000
0010
0010
0100
0000
,
0010
0000
1000
0010
1000
0000
0001
0000
0000
0000
1000
0000
0001
1000
0001
1000
,
0010
0000
0100
0010
0100
0000
0010
0000
1000
0000
0000
0000
0110
0000
0000
0000
,
0001
0100
0000
0100
0001
0001
0001
1000
,
0001
0010
0001
0000
1000
0000
0010
0000
1000
0000
1000
0000
1000
0000
0001
0000
,
1000
0100
1000
0100
1000
0000
0100
0000
1000
0000
1000
0000
1000
0000
0010
0000
,
0100
0000
0010
0100
0010
0000
0100
0000
0001
0000
1000
0001
1000
0000
0001
0000
,
0010
0001
0000
0001
0100
0100
0100
0010
,
1000
0000
0100
1000
0100
0000
1000
0000
0001
0000
0100
0001
0100
0000
0010
0000
,
1000
0010
1000
0010
1000
0000
0100
1000
0001
0000
0001
0000
0001
0000
0001
0000
,
0010
0000
0001
1000
0100
0000
0000
0000
2001
0000
0000
0000
3010
0000
0000
0000
,
0100
0000
0010
0100
0010
0000
0100
0000
0001
0000
0100
0001
0100
0000
0001
0000
,
0010
0000
0001
0010
0001
0000
1000
0000
0100
0000
1000
0100
1000
0000
0001
0000
,
1000
0000
0010
1000
0010
0000
0100
0000
0001
0000
0100
0001
0100
0000
0001
0000
,
1000
0100
1000
0100
1000
0000
0001
0000
1000
0001
1000
0001
1000
0000
0001
0000
,
0100
0000
0100
0010
0100
0000
0100
0000
0010
0000
0010
1000
0010
0000
0010
0000
,
1000
0000
1000
0001
1000
0000
1000
0000
0001
0010
0001
0010
0001
0000
1000
0000
,
0001
0000
0001
0010
0001
0000
0001
0000
0010
0000
0010
0001
0010
0000
0010
0000
,
0100
1000
0100
1000
0100
0000
1000
0000
0001
0010
0100
0010
0001
0000
0000
0000
,
0011
0000
0000
0000
1000
0000
0010
1000
0010
0000
1000
0000
0010
0000
0100
0000
,
0001
0000
0010
0001
0010
0000
0100
0000
1000
0000
0001
0000
1000
0000
1000
0000
,
0001
0000
0000
0000
0010
0000
0001
0000
0100
0000
0001
0100
0001
0000
1000
0000
,
0010
0000
0100
0010
0100
0000
0010
0000
1000
0000
0001
0000
1000
0000
0000
0000
,
0100
0000
0000
0000
1000
0000
0100
1000
0100
0000
1000
0000
0001
0000
0100
0000
,
0010
0000
0100
0001
0100
0000
0001
0000
0010
0000
0001
0000
1000
0000
1000
0000
,
0010
0000
0010
0000
0010
0000
0010
0000
0100
0000
0010
0100
0010
0000
1000
0000
,
0001
0000
1000
0000
0100
0000
1000
0000
0001
0010
0100
1000
0002
0000
0000
0000
,
1003
0000
0000
0000
0010
0000
0100
0010
0100
0000
0010
0000
1000
0000
0001
0000
,
0010
0100
0010
0100
0010
0000
0001
0000
1000
0100
1000
0000
0100
0000
0100
0000
,
1000
0000
0000
0000
0001
0000
1000
0010
1000
0000
0100
0000
1000
0000
0001
0000
,
0010
0000
0100
0010
0100
0000
1000
0000
0001
0000
0001
0000
0001
0000
0001
0000
,
1000
0000
0000
0000
0010
0000
0100
0001
0100
0000
0001
0000
0010
0000
0100
0000
,
1000
0100
1000
0100
1000
0000
0001
0000
1000
0000
0100
0000
0010
0100
1000
0100
,
0010
0000
0001
0010
0001
0000
1000
0000
0001
0000
0100
0001
0100
0000
0001
0000
,
0010
0001
0010
0001
0010
0000
0001
0000
0100
0000
0010
0000
1000
0001
0100
0000
,
2002
0000
0000
0000
,
0000
0000
0000
0000
,
0000
0000
0000
0000
,
0000
0000
0000
3003
,
0020
0000
0000
0000
,
0000
0000
0000
0000
,
0030
0000
0000
0000
,
0000
0000
0000
0000
,
1000
0100
0010
0000
0100
1000
0000
0001
,
0010
0001
1000
0010
1000
0001
0100
0001
,
1000
0100
0010
0000
0100
1000
0000
0010
,
0100
0001
0100
0010
1000
0010
0100
0001
,
0100
0001
0010
0000
0100
1000
0000
0001
,
0010
0001
1000
0100
1000
0001
0100
0001
,
1000
0010
0100
0000
0010
1000
0000
0001
,
0010
1000
0010
0001
1000
0100
0001
0100
,
1100
0000
0000
0000
0110
0000
0000
0000
1100
0000
0100
1000
0100
0000
1000
0000
,
0001
0000
0100
0001
0100
0000
0001
0000
0010
0000
0001
1000
0001
0000
1000
0000
,
1001
0000
0000
0000
0100
0001
0100
0000
0011
0000
0001
0010
0001
0000
1000
0000
,
0001
0000
0100
0010
0100
0000
0010
0000
1000
0000
0001
0010
0001
0000
1000
0000
,
1100
0000
0000
0000
0101
0000
0000
0000
1100
0000
0100
0010
0100
0000
1000
0000
,
0010
0000
0100
0010
0100
0000
0010
0000
1000
0000
0001
0100
0001
0000
1000
0000
,
1001
0000
0000
0000
0010
0001
0010
0000
1001
0000
0001
0100
0010
0000
0100
0000
,
0001
0000
1000
0100
1000
0000
0001
0000
0010
0000
0100
0000
1000
0000
0000
0000
,
0001
0010
0010
0001
0100
0100
0100
0100
,
0010
1000
1000
0100
0010
0010
0010
0010
,
0100
1000
1000
0100
1000
1000
1000
1000
,
0001
0001
0001
0001
0100
0100
0100
0100
,
0010
1000
0010
1000
0001
0001
0001
0001
,
0010
0010
0010
0010
0001
0001
0001
0001
,
1000
0100
0010
0100
1000
1000
1000
1000
,
0010
0000
0100
0010
0100
0000
0001
0000
1000
0000
0001
1000
0100
0000
1000
0000
,
0001
0010
0100
0000
2002
0000
3003
0000
,
1100
0000
0000
0000
0101
0000
0000
0000
1100
0000
0000
0000
1010
0000
0010
1000
,
0010
1000
0100
0010
0001
0100
0010
0100
,
0101
0000
0000
0000
0110
0000
0000
0000
0101
0000
0001
0010
0001
0000
1000
0001
,
1000
0010
0100
0001
1000
0100
0001
0100
,
0101
0000
0000
0000
1100
0000
0000
0000
1010
0000
0000
0000
0110
0000
0010
1000
,
0010
1000
0001
0100
0010
1000
0100
1000
,
0010
0000
0100
0000
0100
0000
0100
0000
0010
0000
1000
0001
1000
0000
0001
0100
,
0001
0010
1000
0010
0001
0010
1000
0010
0001
0100
1000
0100
0001
0100
1000
0100
,
0020
0000
0000
0000
,
0000
0000
0000
0000
,
0030
0000
0000
0000
;
