#TITLE:流氷の去りて;
#ARTIST:あさき;
#TITLETRANSLIT:Ryuuhyou no sarite;
#ARTISTTRANSLIT:Asaki;
#BANNER:Ryuuhyou no sarite.png;
#BACKGROUND:Ryuuhyou no sarite-bg.png;
#JACKET:Ryuuhyou no sarite-jacket.png;
#CDTITLE:./CDTITLES/GUITAR FREAKS & DRUMMANIA.PNG;
#MUSIC:Ryuuhyou no sarite.ogg;
#OFFSET:0.006;
#SAMPLESTART:84.164;
#SAMPLELENGTH:15;
#DISPLAYBPM:150:159;
#BPMS:0=155,17=159,32=152,40=159,104=150,108=159;
#STOPS:186.750=0.37735849056603773584905660377358
;

//---------------dance-single - t7r----------------
#NOTES:
     dance-single:
     t7r:
     Beginner:
     2:
     :
0000
0000
0000
0000
,
0000
0000
0000
0000
,
0000
0000
0000
0000
,
0000
0000
0000
0000
,
0000
0000
0001
0001
,
0000
0000
0000
0000
,
0000
0000
0000
0000
,
0000
0000
0000
0000
,
1001
0000
0000
0000
,
0000
0000
0000
0000
,
0100
0000
0000
0100
,
0000
0000
0000
0010
,
0000
0000
0010
0000
,
0000
0000
1000
0000
,
0000
1000
1000
1000
,
0000
0001
0000
0000
,
0001
0001
0001
0000
,
0010
0000
0010
0010
,
0010
0000
0100
0000
,
0100
0100
0100
0000
,
0100
0100
0000
1000
,
0000
0001
0000
0010
,
0000
0001
0000
1000
,
0000
0100
0000
1000
,
0000
0000
0001
0000
,
0000
0000
0000
0000
,
1001
0000
0000
0000
,
0100
0000
0000
0000
,
0010
0000
1000
0000
,
0000
0000
0001
0000
,
0100
0000
0000
0000
,
0001
0000
0010
0000
,
0000
0000
0100
0000
,
1000
1000
1000
0000
,
0000
0000
0001
0000
,
0100
0000
0000
0000
,
0001
0000
0010
0000
,
0100
0000
1000
0000
,
0100
0000
0000
0000
,
1000
0000
0010
0000
,
0000
0000
0100
0100
,
0000
0000
0010
0010
,
0000
0000
0000
1000
,
1000
0000
0000
0000
,
0001
0001
0000
1000
,
0000
0001
0000
1000
,
0000
0100
0100
0000
,
1000
1000
1000
0000
,
0000
0000
0001
0001
,
0001
0001
0000
0000
,
0000
0010
0010
0010
,
0010
0000
0000
0000
,
0100
0100
0100
0100
,
0000
0000
0000
1000
,
0000
0001
0000
1000
,
1000
1000
0000
0001
,
0000
0000
0000
0010
,
0000
0000
0000
0100
,
0000
0000
0000
1000
,
0000
0000
0000
0100
,
0000
1000
0000
0010
,
0000
0100
0000
0001
,
0000
0000
0000
1000
,
0000
0000
0000
0000
,
0001
0000
0000
0000
,
0010
0000
0000
0000
,
0100
0000
0100
0100
,
0000
1000
0000
0001
,
0000
0001
0000
0010
,
0000
0010
0000
1000
,
0000
1000
0000
0010
,
0000
0001
0000
0100
,
0000
0100
0000
0010
,
0000
0010
0000
1000
,
1000
1000
0000
0001
,
0000
1000
0000
1001
,
0000
0000
0010
0000
,
0000
0100
0100
0000
,
0000
0000
0000
0000
,
0000
0100
0000
0010
,
0000
0000
0010
0000
,
0000
1001
0000
0000
,
0000
0000
0110
0000
;

//---------------dance-single - t7r----------------
#NOTES:
     dance-single:
     t7r:
     Easy:
     9:
     :
0000
0000
0000
0000
,
0000
0000
0000
0000
,
0000
0000
0000
0000
,
0000
0000
0000
0000
,
0001
0000
0001
1000
0000
1000
0000
0000
,
0010
0100
0000
0010
0000
1000
0000
0001
,
0000
0000
1000
0000
0000
0000
0001
0000
0000
0000
0000
0000
0100
0000
0000
0100
,
0000
0100
0100
0000
0010
1000
0001
0000
,
2002
0000
0000
0000
,
3003
0000
0000
0000
,
1010
0000
0000
0000
0000
0100
0001
0000
,
0000
0000
0000
0001
0010
0000
0110
0000
,
0000
0000
0000
0010
0001
0000
0000
0000
,
0000
0001
1000
0000
1000
0000
0010
0000
,
0100
0001
0100
0010
,
1000
1001
0010
0100
,
1000
1100
0011
1001
,
0001
0100
0110
0010
,
1000
0001
1001
0010
,
1000
0101
1000
0100
,
0010
0011
0100
0100
,
0110
1000
0001
1000
,
0001
1000
0100
0010
,
0001
1000
0100
0110
,
0010
1000
0001
0100
,
0001
1000
0010
0100
,
0002
0000
0000
0003
,
1000
0100
0010
0100
,
1000
1000
0001
0100
,
0010
0100
0001
0001
,
2000
3000
0002
0003
,
2000
3000
0020
0030
,
0100
0001
0100
0010
,
1010
1100
1000
0010
,
1000
0001
0100
0100
,
0001
1000
0001
0010
,
0001
0001
0200
0300
,
0020
0030
2000
3000
,
0001
0010
0100
1000
,
0100
0010
1001
0001
,
1000
0001
0001
1000
,
0001
1000
1000
0010
,
0100
0001
0100
0010
,
0010
1000
0100
0010
,
0001
1000
1000
0100
,
1000
0001
1000
0001
,
1000
0010
0100
0000
,
0100
0100
0010
1000
,
1000
0001
0010
0001
,
0001
1000
0001
0001
,
0100
0010
0010
1000
,
0100
0100
0010
0100
,
1000
1000
0010
1000
,
0010
0001
0010
1000
,
0000
0001
0000
0000
1001
0000
0010
0000
,
0100
0220
0330
1000
,
0100
0010
0001
1000
,
0001
0100
0010
1001
,
0010
1000
0001
0101
,
0001
0010
0100
0010
,
0001
0010
0001
1000
,
0100
1000
0100
1001
,
0010
1000
0001
0100
,
0010
0220
0330
0000
,
1001
0010
0200
0300
,
1001
0100
0020
0030
,
0001
1000
0001
1000
,
0010
0000
0100
0000
0001
1000
0100
0000
,
1000
0100
0010
0001
,
0010
0100
1000
0100
,
1000
0010
0001
0010
,
1001
0100
0110
0010
,
0001
1000
0100
0010
,
0001
1000
0100
1001
,
0000
0110
0000
0000
1001
0000
0001
0000
,
1000
0010
1000
0001
,
0100
0010
1000
0001
,
0100
0000
0010
0000
1000
0000
0000
1001
,
0000
0001
0001
0000
0000
0110
0000
0010
,
0010
1000
0002
0000
0000
0000
1003
0000
,
0000
0000
0000
0000
0100
0000
0000
0000
0010
0000
0000
1000
0000
0000
0001
0000
,
0000
0100
0000
0000
2002
0000
0000
0000
0000
0000
0000
0000
0000
0000
0000
0000
,
0000
3003
0110
0000
;

//---------------dance-single - t7r----------------
#NOTES:
     dance-single:
     t7r:
     Medium:
     10:
     :
0000
0000
0000
0000
,
0000
0000
0000
0000
,
0000
0000
0000
0000
,
0000
0000
0000
0000
0000
0000
0000
0001
,
0100
0001
0000
0100
0010
1000
0010
0000
,
1000
0100
0010
0001
1000
0100
1000
0010
,
0000
0000
0100
0000
0001
0000
0100
0000
0010
0000
0000
0000
0100
0000
0000
0100
,
0000
0100
0100
0000
0010
1000
0001
0100
,
0002
0000
0000
0000
,
0003
0000
0000
0000
,
1001
0000
0000
0000
0000
0001
0100
0000
,
0000
0000
0000
0010
1000
0010
0100
0000
,
0000
0000
0000
0010
1000
0000
0000
0000
,
0000
0000
0100
0000
0010
0000
0001
0000
1000
0000
0000
1000
0000
0000
1000
0000
,
0100
1000
0001
0000
0001
0000
0100
0010
,
1000
0000
0010
0000
0100
0000
0000
0001
0000
0000
0001
0000
0100
0000
0000
0000
,
0001
0000
1000
0000
0000
0000
1000
0000
0001
0000
1000
0000
0010
0000
0000
0100
,
0000
0100
0010
1000
0001
0100
0010
0000
,
1000
0000
0001
0000
0010
0000
0001
0000
0100
0000
0000
0100
0000
0000
0001
0000
,
0100
0010
1000
0100
0000
0100
1000
0000
,
1001
0001
0100
0101
,
1010
1001
1100
1001
,
1010
0101
0011
1001
,
0101
0000
0110
0000
1000
0001
0100
0000
,
0001
0001
1000
0010
,
0100
1001
0010
1000
,
0002
0000
0000
0003
,
1000
0000
0000
1000
0000
0000
0000
0000
0100
0000
0000
0000
0010
0000
0000
0000
,
0001
0000
0000
0001
0000
0000
0000
0000
0010
0000
0000
0010
0000
0000
0000
0000
,
0100
0000
0000
0000
0010
0000
0000
0000
0100
0000
0000
0100
0000
0000
0000
0000
,
1000
0000
0000
1000
0000
0000
0000
0000
0020
0000
0000
0000
0030
0000
0000
0000
,
0200
0000
0000
0000
0300
0000
0000
0000
0001
0000
0000
1000
0000
0000
0000
0000
,
1001
0000
0000
0000
0001
1000
0001
1000
,
0010
0000
0000
0000
0110
0000
0000
0000
0101
0000
0000
0001
0000
0000
0000
0000
,
1000
0000
0000
0000
0010
0000
0000
0000
1000
0000
0000
1000
0000
0000
0000
0000
,
0100
0000
0000
0100
0000
0000
0000
0000
0010
0000
0000
0000
0100
0000
0000
0000
,
1000
0000
0000
0001
0000
0000
0000
0000
0200
0000
0000
0000
0300
0000
0000
0000
,
0020
0030
2000
3000
,
0002
0003
1000
1001
,
0001
0000
0010
0000
0100
0010
0100
0010
,
0100
0000
0010
0001
0010
0000
0001
1000
,
0001
1000
0001
0000
1000
0001
1000
0000
,
0010
1000
0010
1000
0010
0000
1000
0100
,
1000
0000
0001
0100
0001
0100
0001
0000
,
0100
0010
0100
0000
1010
0000
1001
0000
,
0101
0011
1100
0011
,
1001
0000
0110
0000
1000
0001
2000
0100
,
0100
0100
3100
0010
0010
0000
0000
0000
,
0000
0001
0100
0001
0200
0001
0001
0001
,
0301
1000
1000
0000
0000
0000
0000
0001
,
1000
0001
0020
1000
1000
1000
1030
0001
,
0001
0000
0000
0000
0000
1000
0100
0010
,
0200
1000
1000
1000
1300
0001
0000
1001
,
0000
0110
0000
0010
0100
0010
1000
0000
,
0000
1001
0000
0000
0101
0000
0001
0010
,
0100
0000
1000
0000
0100
0000
0000
0011
0000
0000
0000
0000
1000
0000
0000
1000
,
0000
0000
1000
0000
0000
0000
0100
0000
1000
0000
0001
0100
0000
0000
0000
0000
,
0000
0000
0001
0000
0000
0000
0001
0000
0010
0000
0100
1000
0000
0000
0000
0000
,
0000
0000
0100
0000
0000
0000
0100
0000
0010
0000
0001
1000
0000
0000
0000
0000
,
0000
1001
0000
0100
0001
1000
0020
0000
,
2030
3200
0302
0203
,
2300
0000
0000
0000
3020
0000
0000
0000
0032
0000
0000
0000
1003
0000
0000
1001
,
0000
0000
0110
0000
0000
0000
0010
0000
1000
0000
0010
0000
0100
0000
0000
0101
,
0000
0010
1000
0001
0100
0001
0000
1001
,
0000
0010
0100
0000
0110
0000
0000
1100
,
0000
0010
0001
0000
0011
0000
0000
0101
,
0000
0001
1000
0000
0010
1000
0100
0000
,
0010
0001
1000
0001
0100
0000
0010
1000
,
0000
0001
0000
1000
0000
0010
0001
0100
,
0000
0001
0000
1000
0000
0010
1000
0001
,
0000
0000
0100
0000
0000
0000
0010
0000
0100
0000
0000
0000
0001
0000
0000
0101
,
0000
1100
0000
0001
0100
0001
2000
0000
,
3100
0000
0010
0001
0100
0001
0020
0000
,
0130
0000
0000
0000
0010
0000
0001
0000
1000
0000
0001
0000
1000
0000
0000
0001
,
0000
1001
0000
1000
0010
0100
0002
0000
,
0023
0000
0230
0000
2300
0000
3001
0100
,
0000
0010
1000
0100
0010
0100
0000
1000
,
0001
0100
0010
1000
1000
0000
0000
1001
,
0000
0110
0110
0000
0000
0010
0000
0100
,
0010
1000
0002
0000
0000
0000
1003
0000
,
0000
0000
0000
0000
0001
0000
0000
0000
0110
0000
0000
0110
0000
0000
1001
0000
,
0000
0110
0000
0000
2002
0000
0000
0000
0000
0000
0000
0000
0000
0000
0000
0000
,
0000
3003
0110
0000
;

//---------------dance-single - t7r----------------
#NOTES:
     dance-single:
     t7r:
     Hard:
     15:
     :
0000
0000
0000
0000
,
0000
0000
0000
0000
,
0000
0000
0000
0000
,
0000
0000
0000
0000
0000
0000
0000
0001
,
1000
0001
0000
0010
0100
1000
0001
0000
,
1000
0001
0010
0001
1000
0100
1000
0001
,
0000
0000
0001
0000
0010
0000
0100
0000
1000
0000
0000
0000
0011
0000
0000
0110
,
0000
1001
1100
0000
1000
0010
0100
0001
,
2000
0000
0000
0000
,
3000
0000
0000
0000
,
1001
0000
0000
0000
0000
0010
0110
0000
,
0000
0000
0000
0010
1000
0001
0101
0000
,
0000
0000
0000
0001
0011
0000
0000
0000
,
0000
0000
0001
0000
0010
0000
0100
0000
1000
0000
1000
0100
0000
0000
1000
0000
,
0001
1000
0010
1000
0001
0100
0001
0010
,
0001
0000
0100
0000
0001
0000
0001
0010
0000
0000
0001
0000
0100
0000
0010
0000
,
1000
0000
0002
0000
0000
0000
1003
0000
0001
0000
1000
0000
0001
0000
1000
0100
,
0000
1000
0010
0100
0001
1000
0010
1000
,
0001
0000
0100
0000
0001
0000
0010
0000
0100
0000
1000
0001
0000
0000
1000
0000
,
0010
0001
0010
1000
0100
0010
0100
1000
,
0001
0100
0001
0000
1001
0000
1001
0000
,
0110
1001
1010
0101
,
1100
0011
1001
1010
,
0110
0000
0000
0000
1001
0000
0000
0000
0100
0001
0100
0001
1000
0000
0000
0000
,
0010
0100
0001
1000
0001
0000
1000
0100
,
0010
0000
0000
0001
0000
0000
1001
0000
0000
0000
0001
0000
0100
0000
0000
0000
1000
0000
0100
0000
0000
0000
0001
0000
,
2000
0000
0000
3000
,
0001
0000
0000
0011
0000
0000
0001
0000
0100
0000
0001
0000
0010
0000
0100
0000
,
1000
0000
0000
1000
0100
0000
1000
0000
0001
0000
0000
1001
0000
0000
0001
0000
,
1000
0000
0010
0000
1000
0000
0001
0000
0100
0000
0000
0100
0010
0000
1000
0000
,
0010
0000
0000
0101
0000
0000
0001
0000
0010
0000
0001
0000
0200
0000
0000
0000
,
0310
0000
1000
0000
0002
0000
0000
0000
1003
0000
0000
1001
0000
0000
1000
0000
,
0100
0000
1000
0000
0001
0000
0100
0000
0010
1000
0010
1000
0001
0100
0001
0100
,
0001
0000
0000
0000
1001
0000
0000
0000
0110
0000
0000
1001
0000
0000
1000
0000
,
0100
0000
1000
0000
0001
0000
0100
0000
0001
0000
0000
0001
0010
0000
0100
0000
,
0001
0000
0000
1100
0000
0000
1000
0000
0010
0000
0100
0000
0010
0000
1000
0000
,
0001
0000
0000
0001
0100
0000
0001
0000
2000
0000
0000
3010
0100
0000
0001
0000
,
0020
0000
0000
0031
0010
0000
0100
0000
2000
0000
0000
3100
1000
0000
0001
0000
,
1001
0000
0000
1001
0000
0000
0010
0000
0100
0000
0001
0000
1000
0000
0001
0000
,
0010
0100
0010
0100
1000
0100
1000
0100
1000
0000
0000
1000
0100
0000
0010
0000
,
0100
0000
1000
0000
0001
0000
0000
0001
0100
0000
0001
0000
0010
0000
0000
0010
,
0001
0000
0010
0000
0100
0000
1000
0000
0100
0000
0000
0100
1000
0000
0010
0000
,
0100
0000
0000
0010
1000
0000
0001
0000
0100
0000
0001
0000
0010
0000
0000
0001
,
0010
0000
0100
0000
1000
0000
0000
0100
1000
0000
0010
0000
1000
0000
0001
0000
,
0100
0000
0000
0001
1000
0001
1000
0001
0100
0000
0000
0010
1000
0000
0100
0000
,
0001
0000
0000
1000
0001
0000
0010
0000
1000
0000
0000
0010
0001
0000
0100
0000
,
1000
0100
0000
0001
1000
0000
0010
0000
1000
0001
1000
0001
0020
0000
0100
0000
,
0100
0100
0130
0010
0010
0001
0100
1000
,
0100
0001
1000
0001
2000
0001
0001
0001
,
3001
1000
1000
0100
0010
0001
0100
0010
,
1000
0100
0002
0100
0100
0100
0103
0001
,
1001
0010
0100
0010
1000
0100
0010
0001
,
0020
0000
1000
0000
1000
0000
1000
0000
1030
0000
0010
0000
0011
0000
0000
0101
,
0000
0000
0001
0000
1000
0000
0001
0000
0010
0000
0100
0000
1000
0001
1000
0001
,
0000
0000
0100
0010
0100
0000
0001
1000
0002
0000
0000
0000
0013
0001
0010
0100
,
0010
0001
1000
0001
1000
0001
0000
2002
0000
0000
3003
0000
0001
0000
0010
0100
,
0000
0100
0010
0000
0001
0000
1000
0000
0100
0000
1000
0002
0000
0000
1003
0000
,
0010
0000
0100
0000
0001
0000
1000
0000
0001
0000
0010
0200
0000
0000
1300
0000
,
0100
0000
1000
0000
0010
0000
0001
0000
0010
0000
1000
0020
0000
0000
0130
0000
,
0001
0000
1000
0000
0001
0000
0010
0000
0100
1000
0100
0000
0001
0000
0100
0000
,
1000
0100
0001
0100
1000
0100
1000
0010
,
0001
0000
0010
0000
1000
0000
0010
0000
1001
0000
0000
0000
0110
0000
1000
0100
,
0000
0100
1000
0000
0001
0000
0100
0001
0000
0001
1000
0000
0001
0000
0010
0100
,
0000
0000
0000
0100
0000
0000
1000
0000
0000
0000
0000
0000
0001
0000
0000
0000
0100
0000
0000
0000
0010
0000
0000
0000
1000
0000
0000
0000
0100
0000
0000
0000
0010
0000
0000
0000
0000
0000
0000
0000
0000
0000
0101
0000
0000
0000
0000
0000
,
0010
0000
0100
0000
1000
0000
0100
0000
0010
0001
0010
0001
0000
0000
1100
0000
,
0010
0000
1000
0000
0001
0000
0100
0000
0010
1000
0001
1000
0000
0000
1001
0000
,
0010
0000
1000
0000
0001
0000
0100
0000
0001
0000
0010
0000
0100
0000
1000
0100
,
0000
0010
0001
0000
1000
0000
0001
0000
1000
0010
0100
0001
1000
0000
0001
0000
,
0010
0000
0100
0010
0000
0010
0100
0000
1000
0000
0001
0000
0100
0000
0001
0000
,
1000
0000
0001
0010
0000
0010
0001
0000
1000
0000
0010
0000
1000
0000
0100
1000
,
0000
1000
0001
0000
0100
0000
0010
0100
0000
0100
0001
0000
1001
0000
0000
0110
,
0000
0000
0000
1001
0000
0000
0100
0000
0001
0000
0010
0000
0100
0000
1000
0000
0010
0000
1000
0000
0000
0001
0000
0000
,
1000
0001
0100
0000
0001
0000
0010
0000
0100
0000
0010
0000
0001
0000
1000
0000
,
0001
1000
0100
0000
1000
0000
0100
0000
0010
0000
0100
0000
1010
0000
0100
0001
,
0000
1000
0001
0000
0000
0000
1000
0000
0010
0000
1000
0000
0001
0000
0100
0000
,
0010
0000
1000
0000
0001
1000
0001
1000
0010
0100
0010
0100
0001
0000
0100
0000
,
0001
1000
0010
1000
0100
0001
0100
1000
,
0010
0001
0010
0100
1001
0010
0010
0110
,
1000
0011
0011
0100
0001
1001
0100
0110
,
0110
0110
2001
0000
0000
0000
3001
0000
,
0000
0000
0000
0000
0000
0000
0000
0000
0000
0000
0000
0000
0001
0000
0000
0000
1000
0000
0000
0000
0001
0000
0000
0000
0100
0000
0000
0000
0000
0000
0000
0000
0000
0110
0000
0000
0000
0000
0000
0000
0000
0000
0011
0000
0000
0000
0000
0000
,
0000
1010
0000
0000
2002
0000
0000
0000
0000
0000
0000
0000
0000
0000
0000
0000
,
0000
0000
0000
0000
3003
0000
0000
1000
0001
0000
0000
0000
0000
0000
0000
0000
;

//---------------dance-single - t7r----------------
#NOTES:
     dance-single:
     t7r:
     Challenge:
     18:
     :
0000
0000
0000
0000
,
0000
0000
0000
0000
,
0000
0000
0000
0000
,
0000
0000
0000
0000
0000
0000
0000
0010
,
0100
1000
0000
0100
0010
0001
1000
0000
,
0001
0100
0001
1000
0010
0001
0010
1000
,
0000
0000
0001
0000
0100
0000
0010
0000
0100
0000
0000
0000
0011
0000
0000
1100
,
0000
0101
1100
0000
1001
0010
0100
0001
,
2002
0000
0000
0000
0000
0000
3003
1000
,
0010
0000
0100
0000
0001
0000
0100
0000
0001
0000
0000
0001
1000
0000
0000
0000
,
1001
0100
0100
0100
0100
1010
1010
0001
,
0001
0000
0001
0000
0001
0000
1000
0001
1000
0001
0100
0010
1000
0000
0001
0000
,
0001
0001
0001
0110
0110
1000
1000
1000
,
1000
0000
0001
1000
0001
1000
0001
1000
0001
0000
0001
0100
0000
0100
0010
0000
,
1000
0010
1001
1000
0100
0010
0001
0100
,
0010
1000
0010
1000
0100
0000
0100
1000
0000
1000
0001
0000
1000
0000
0010
0000
,
0100
0001
0010
0000
0100
1000
0010
0000
1000
0001
1000
0000
1001
0000
0001
1000
,
0000
1000
0001
0000
0010
0000
0100
0000
0011
0000
1000
0000
0100
0000
0001
0000
,
0100
0000
1000
0000
0010
1000
0010
0100
0001
0000
0001
0010
0000
0010
0001
0000
,
1000
0010
1100
0010
0001
0100
0010
1000
,
0001
1000
0001
1000
0001
0000
0000
0001
0100
0000
0000
0100
0010
0000
0000
0010
,
1000
0000
0000
1000
0100
0000
0000
0100
0001
0000
0000
0001
0010
0000
0000
0010
,
1000
0000
0000
1000
0010
0000
0000
0010
0001
0000
0000
0001
0100
0000
0000
0100
,
1000
0000
0000
1000
0001
0000
0000
0001
1000
0001
1000
0001
0100
0000
0000
0000
,
0110
0010
2000
0100
3001
0000
0001
0010
,
1000
0000
0000
0010
0000
0000
1001
0000
0000
0000
0001
0000
0010
0000
0001
0000
1000
0000
0100
0000
0001
0000
0100
0000
,
2000
0000
0000
3000
,
1100
0000
0000
0100
1000
0000
0010
0000
1000
0000
0001
0100
0001
0000
0100
0000
,
0101
0000
0000
0001
0010
0000
0100
0000
0110
0000
0000
0010
0001
0000
1000
0000
,
0001
0000
0100
0001
1000
0000
0001
0000
1001
0000
0000
0001
1000
0000
0010
0000
,
1020
0000
0000
0130
0010
0000
1000
0000
0002
0000
0000
1003
0100
0000
0010
0000
,
0200
0000
0000
1300
0100
0000
0010
0000
0001
0000
0000
0011
0000
0000
0100
0000
,
0001
0000
0100
0000
1000
0000
0010
0000
0100
0010
0100
0010
1000
0001
1000
0001
,
1000
0100
0010
0001
1000
0100
0010
0001
0010
0000
0000
0001
0010
0000
0100
0000
,
0010
0000
0001
1000
0010
0000
0100
0000
0110
0000
0000
0010
0100
0000
0001
0000
,
1001
0000
0000
1000
0001
0000
1000
0000
0100
0000
1000
0010
0100
0000
0010
0000
,
0110
0000
0000
0001
1000
0000
0001
0000
0021
0000
0000
0031
0010
0000
0100
0000
,
2000
0000
0000
3100
1000
0000
0010
0000
0200
0000
0000
0301
1000
0000
0001
0000
,
1001
0000
0000
0110
0000
0000
0010
0000
1000
0000
0100
0000
0001
0000
0100
0000
,
1000
0001
1000
0001
0100
0010
0100
0010
1000
0000
0010
1000
0010
0000
1000
0000
,
0100
0000
0010
0000
0100
0000
1000
0001
1000
0000
0001
0000
0100
0000
0001
0010
,
0001
0000
0010
0000
0001
0000
0100
0000
0010
0000
1000
0001
1000
0000
0010
0000
,
0100
0000
0001
0010
0001
0000
1000
0000
0100
0000
1000
0000
0010
0000
1000
0001
,
1000
0000
0001
0000
0100
0000
0010
0100
0010
0000
1000
0000
0100
0000
0010
0000
,
0001
0000
1000
0001
1000
0001
1000
0001
1000
0000
0000
0010
0100
0000
0001
0000
,
0011
0000
0000
0001
0100
0000
0010
0000
1000
0010
0000
0001
0100
0000
0001
0000
,
1000
0000
0001
0100
0010
0000
1000
0001
1000
0100
1000
0001
1000
0010
1000
0010
,
1000
0010
1000
0010
1000
0010
0100
0001
0100
0001
1000
0001
1000
0001
1000
0001
,
1000
0001
0100
0010
0100
0010
0100
0010
1000
0001
1000
0100
1000
0100
1000
0100
,
1000
0100
0010
0001
0010
0001
1000
0010
1000
0010
1000
0010
1000
0010
0100
0010
,
0100
0010
0100
0010
0001
0010
0001
0010
0001
0010
0001
0010
0001
0010
0100
0010
,
0100
0010
1000
0001
1000
0001
1000
0001
1000
0001
1000
0100
1000
0100
1000
0100
,
0010
0100
0001
0100
0001
0100
0001
0100
0001
0100
0001
0100
1000
0100
1000
0100
,
1000
0100
1000
0100
1000
0010
1000
0010
0100
0001
0100
0001
1000
0001
0100
0010
,
0000
0000
1000
0010
0100
0000
0001
1000
0002
0000
0000
0000
1003
0100
0010
0001
,
1000
0100
0010
0100
1001
1001
0000
2002
0000
0000
3003
0000
0001
0000
0100
0001
,
0000
1000
0001
0000
1000
0000
0100
0000
0010
0000
0001
1000
0000
1000
0001
0000
,
0100
0000
0001
0010
0000
0010
0001
0000
0100
0000
0001
1000
0000
1000
0010
0000
,
1000
0000
0010
0100
0000
0100
0010
0000
1000
0000
0001
0010
0000
0010
0100
0000
,
0010
0000
0001
0000
1000
0001
1000
0001
0100
0010
0100
0010
1000
0000
0001
0000
,
0100
0001
1000
0000
0001
0000
1000
0000
0100
1000
0001
0000
1000
0000
0010
0000
,
0100
0010
1000
0000
0010
0000
0100
0000
0001
0010
0001
0000
1000
0000
0100
0010
,
0000
0010
0001
0000
1000
0000
0001
0100
0000
0001
1000
0000
0010
0000
0100
0010
,
0000
1000
0001
0000
0010
0001
1000
0010
0100
0001
1000
0000
0100
0100
1010
0000
,
0100
0000
0001
0000
0010
0000
1000
0000
0010
0001
0010
0001
0100
0100
0011
0000
,
0010
0000
1000
0000
0100
0000
0001
0000
0100
1000
0100
1000
0100
0100
1001
0000
,
0100
0000
0010
0000
1000
0000
0001
1000
0000
1000
0001
0000
1000
0000
0010
0100
,
0000
0100
0010
0000
1001
0000
0010
0000
0100
1000
0001
1000
0001
0000
0010
0000
,
0001
0000
0100
0010
0000
1000
0010
0000
1000
0100
0010
0000
0001
0000
0010
0000
,
0100
0000
0010
0001
0000
1000
0001
0000
0100
0001
1000
0000
0001
0000
0100
0010
,
0000
1000
0001
0000
1000
0000
0010
1000
0000
0001
0100
0000
0001
0000
0010
0100
,
0000
0000
0000
0010
0000
0000
0001
0000
0000
0000
0000
0000
1000
0000
0000
0000
0100
0000
0000
0000
0010
0000
0000
0000
0001
0000
0000
0000
1000
0000
0000
0000
0001
0000
0000
0000
0100
0000
0000
0000
0000
0000
0001
0000
0000
0000
0000
0000
,
1000
0010
1000
0000
0001
0000
0100
0000
0010
0100
0001
0000
1000
0000
0100
0000
,
0010
0100
0010
0000
0001
0000
0010
0000
0100
1000
0001
0000
1001
0000
0001
0100
,
0000
1000
0010
0000
0001
0000
0010
0000
0100
0010
0001
0000
0010
0000
0100
0000
,
1000
0001
0100
0000
0001
1000
0001
1000
0010
0100
0010
0100
0001
0010
0001
0010
,
0001
0010
1000
0010
0001
0010
0001
0010
0001
0010
0001
0100
0001
0010
0001
0010
,
0001
0010
0100
1000
0010
0100
0001
1000
1100
0000
0100
1000
0100
1000
1010
0000
,
0100
0001
0011
0000
1001
0000
0100
1000
0100
1000
1001
0000
0010
0100
0101
0000
,
1001
0000
0110
0000
1010
0000
0100
0010
0100
0010
0100
0010
2002
0000
0000
0000
,
3003
0000
0000
0000
0000
0000
0000
0000
0000
0000
1000
0000
0001
0000
0000
0000
1000
0000
0000
0000
0001
0000
0000
0000
0011
0000
0000
0000
0000
0000
0000
0000
0000
0101
0000
0000
0000
0000
0000
0000
0000
0000
1100
0000
0000
0000
0000
0000
,
0000
1010
0000
0000
2002
0000
0000
0000
0000
0000
0000
0000
0000
0000
0000
0000
,
0000
0000
0000
0000
0000
0000
0000
0000
3003
0000
0000
0000
0000
0000
0100
0010
1000
0000
0000
0000
0000
0000
0000
0000
0000
0000
0000
0000
0000
0000
0000
0000
;
