#TITLE:凛として咲く花の如く;
#ARTIST:紅色リトマス;
#TITLETRANSLIT:Rin to shite saku hana no gotoku;
#ARTISTTRANSLIT:BENIIRO LITMUS;
#BANNER:Rin to shite saku hana no gotoku.png;
#BACKGROUND:Rin to shite saku hana no gotoku-bg.png;
#JACKET:Rin to shite saku hana no gotoku-jacket.png;
#CDTITLE:./CDTITLES/POP'N MUSIC.PNG;
#MUSIC:Rin to shite saku hana no gotoku.ogg;
#SAMPLESTART:40.399;
#SAMPLELENGTH:15;
#BPMS:0=163;

//---------------dance-single - t7r----------------
#NOTES:
     dance-single:
     t7r:
     Beginner:
     2:
     :
0000
0000
0000
0000
,
0000
0000
0000
0000
,
0000
0000
0000
0000
,
0000
0000
0000
0000
,
1000
0000
0000
0000
,
0001
0000
0000
0000
,
0100
0000
0000
0000
,
0010
0000
0000
0000
,
1000
0000
0000
0000
,
0001
0000
0000
0000
,
0100
0000
0000
0000
,
0010
0000
0000
0000
,
1000
0000
0000
0000
,
0100
0000
0000
0000
,
1000
0000
0000
0000
,
0100
0000
0100
0000
,
1000
0000
0000
0000
,
0001
0000
0000
0000
,
0100
0000
0001
0000
,
0010
0000
0000
0000
,
1001
0000
0000
0000
,
0010
0000
0000
0000
,
0100
0000
0000
0000
,
0010
0000
0000
0000
,
1001
0000
0000
0000
,
0100
0000
0000
0000
,
0010
0000
0010
0010
,
0010
0000
0000
0000
,
0100
0000
0000
0000
,
0010
0000
0000
0000
,
1000
0000
0001
0000
,
1000
0000
0000
0000
,
0001
0000
0000
0000
,
0100
0000
0000
0000
,
0001
0000
0100
0000
,
0001
0000
0000
0000
,
1000
0000
0000
0000
,
0100
0000
0000
0000
,
1000
0000
0000
0000
,
0001
0000
1000
0000
,
0010
0000
0100
0000
,
0000
0000
0000
0000
,
0001
0000
0001
0000
,
0001
0000
0001
0000
,
1000
0000
1000
0000
,
1000
0000
1000
0000
,
0010
0000
0010
0000
,
0010
0000
0010
0000
,
0100
0000
0100
0000
,
0100
0000
0100
0000
,
0010
0000
0000
0000
,
0000
0000
0000
0000
,
1000
0000
0000
0000
,
0000
0000
0000
0000
,
0001
0000
1000
0000
,
0001
0000
0001
0000
,
1000
0000
0001
0000
,
1000
0000
1000
0000
,
0010
0000
0000
0000
,
0100
0000
0000
0000
,
0001
0000
0100
0000
,
1000
0000
0100
0000
,
1000
0000
0000
0000
,
0010
0000
0000
0000
,
0100
0000
0010
0000
,
1000
0000
0000
0000
,
0001
0000
0001
0000
,
0001
0000
0010
0000
,
0100
0000
0100
0000
,
1000
0000
0100
0000
,
1000
0000
1000
0000
,
0010
0000
0100
0000
,
0001
0000
0001
0000
,
1000
0000
0000
0000
,
0010
0000
0010
0000
,
0100
0000
0001
0000
,
1000
0000
0001
0000
,
1000
0000
0100
0000
,
1000
0000
0001
0000
,
1000
0000
0010
0000
,
0100
0000
0010
0000
,
1000
0000
0000
0000
,
0001
0000
0000
0100
,
0100
0000
0000
0000
;

//---------------dance-single - t7r----------------
#NOTES:
     dance-single:
     t7r:
     Easy:
     5:
     :
0000
0000
0000
0000
,
0000
0000
0000
0000
,
0000
0000
0000
0000
,
0000
0000
0000
0000
,
0010
0000
0010
0000
,
0100
0010
0100
0100
,
0001
0000
1000
0000
,
0001
1000
0001
0001
,
1000
0000
0100
0000
,
1000
0100
0010
0010
,
0100
0000
1000
0000
,
0010
0100
2002
3003
,
0002
0000
0000
0003
,
2000
0000
0000
3000
,
0020
0000
0000
0030
,
0200
0000
0020
0330
,
2000
0000
0000
3000
,
0002
0000
0000
0003
,
2000
3000
0200
0300
,
0020
0000
0000
0030
,
1001
0000
0010
0000
,
1001
0000
0100
0000
,
0010
0100
0010
0000
,
0100
0010
0100
0000
,
1001
0000
0001
0000
,
1001
0000
1000
0000
,
1000
0010
0100
0001
,
2000
0000
3000
0001
,
0001
0000
1000
0000
,
0010
1000
0100
0000
,
1000
0000
0001
0000
,
0010
0001
0100
0000
,
0001
0000
1000
0000
,
0010
0100
0001
0000
,
1000
0000
0001
0000
,
0020
0000
0000
0030
,
0200
0000
0000
0300
,
0010
0000
0000
0000
,
0100
0000
0000
0000
,
0010
1000
0001
0100
,
0001
1000
0002
2000
,
0000
0000
0000
3003
,
1000
0000
0100
0000
,
1000
0100
1000
0000
,
0001
0000
0100
0000
,
0001
0100
0002
0003
,
0010
0000
0100
0000
,
0010
0100
0010
0000
,
0100
0000
0010
0000
,
0001
1000
0002
0003
,
1000
0000
0000
0000
,
0010
0000
0000
0100
,
0100
0000
0000
0000
,
0001
0000
1000
0000
,
0001
0000
0000
0010
,
0010
0000
0000
0000
,
0100
0000
1000
0000
,
0010
0100
0002
0003
,
2000
0000
0000
3000
,
0020
0000
0000
0030
,
0100
0010
0100
0010
,
1000
0001
2000
3000
,
0001
0010
0002
0003
,
1000
0100
2000
3000
,
0010
0010
0100
0010
,
0200
0000
0300
0010
,
1000
0000
1000
0000
,
0001
0100
0001
0000
,
1000
0000
0100
0000
,
0010
0001
0100
0000
,
0010
0000
1000
0000
,
0001
1000
0010
0000
,
1000
0000
0001
0000
,
2000
3000
0002
0003
,
1000
0000
1001
0000
,
0001
0000
1001
0000
,
0010
0000
0110
0000
,
0100
0000
0110
0000
,
0001
0000
0101
0000
,
1000
0000
1100
0000
,
0010
0000
1010
0000
,
0001
0001
0001
0001
,
1000
1000
1000
0010
,
2002
0000
0000
3003
;

//---------------dance-single - t7r----------------
#NOTES:
     dance-single:
     t7r:
     Medium:
     8:
     :
0000
0000
0000
0000
,
0000
0000
0000
0000
,
0000
0000
0000
0000
,
0000
0000
0000
0000
,
0010
0100
0001
0001
,
1000
0100
0010
0100
,
1000
0100
1000
1000
,
0010
1000
2002
3003
,
0001
0100
0001
0001
,
1000
0010
0100
0010
,
1000
0100
0010
0010
,
0001
0010
2200
3300
,
0002
0000
0000
0003
,
0200
0000
0000
0300
,
0020
0000
0000
0030
,
2000
0000
0002
3003
,
2000
0000
0000
3000
,
0200
0000
0000
0300
,
0020
0030
0002
0003
,
2000
0000
0000
3000
,
1001
0001
2200
3300
,
1001
1000
0202
0303
,
0010
0100
1001
0100
,
0010
0100
2020
3030
,
0100
0010
0022
0033
,
1010
0100
0202
0303
,
0110
0110
1001
0110
,
2002
0000
3003
0100
,
1001
0010
1000
0001
,
0100
0001
0010
0010
,
0100
1000
0100
1000
,
0010
0100
0001
0001
,
1000
0001
0010
0001
,
1000
0100
0020
0031
,
0010
0001
0100
0010
,
2000
0000
0000
3000
,
0020
0000
0030
0100
,
1001
0001
0200
0300
,
1001
1000
0200
0300
,
0010
0001
1000
0100
,
1000
0000
0010
0000
0100
0002
2000
0000
,
0000
0000
0000
3003
,
1001
0110
1001
0110
,
0002
0000
0103
0000
0001
0100
0001
0000
,
0110
1001
0110
1001
,
0010
1000
0100
0000
2002
0000
3003
0000
,
1001
0110
1001
0110
,
2000
0000
3100
0000
1000
0001
0100
0000
,
0110
1001
0110
1001
,
0001
0010
0100
0000
0022
0000
0033
0000
,
2000
0100
0010
3001
,
0002
0100
0010
1003
,
0020
1000
0001
0130
,
0200
0310
2002
3003
,
0002
0013
0002
1003
,
2000
3010
2000
3001
,
0200
0310
0200
0301
,
2000
3100
2002
3003
,
0110
0000
1000
0001
0200
0000
0300
0000
,
0001
0000
0010
0001
2000
0000
3000
0000
,
0010
0000
1010
0000
0101
0000
1000
0100
,
2000
3002
2003
3000
,
0110
1001
0220
0330
,
1010
1010
2200
3300
,
0011
0000
0011
0000
0101
0000
0001
1000
,
0200
0000
0300
0010
,
1001
0000
1000
0100
1000
0000
1000
0100
,
1000
0000
0001
0010
0001
0000
1000
0000
,
0100
0000
1000
0010
1000
0000
0001
0100
,
0001
0000
0010
0001
0010
0000
1000
0000
,
0001
0000
0010
0100
0010
0000
0100
0010
,
0100
0000
0001
1000
0001
0000
1000
0000
,
0100
0000
0010
0001
1000
0000
0001
1000
,
0200
0000
0000
0310
,
1001
0000
0010
1000
0100
0000
1000
0000
,
0001
0000
0010
0001
0100
0000
0001
0000
,
1000
0000
0010
0100
1000
0000
0100
0000
,
0010
0000
0001
1000
0100
0000
0010
0000
,
1000
0000
0010
0001
0100
0000
0001
0000
,
1000
0000
0001
1000
0020
0000
0130
0000
,
1000
0000
0010
1000
0010
0000
1000
0000
,
0001
0001
1000
1000
,
0010
0010
0100
0010
,
2002
0000
0000
3003
;

//---------------dance-single - t7r----------------
#NOTES:
     dance-single:
     t7r:
     Hard:
     11:
     :
0000
0000
0000
0000
,
0000
0000
0000
0000
,
0000
0000
0000
0000
,
0000
0000
0000
0000
,
0010
0100
0001
0101
,
0001
0000
0010
0000
0100
1000
0001
0000
,
1000
0010
0100
0110
,
0010
0000
1000
0000
0100
1000
0001
0000
,
1000
0000
1001
0000
0001
0010
0100
0000
,
1000
0010
1000
0010
0100
0001
0010
0000
,
0001
0000
1001
0000
1000
0010
0100
0000
,
0001
0010
0001
1000
0020
0000
0030
0000
,
2010
0100
0001
3010
,
0002
0100
0010
1003
,
0200
0310
2000
3001
,
0020
0100
2000
3030
,
0002
0100
0010
1003
,
0200
0010
1000
0301
,
2000
0010
0001
3100
,
0020
0130
2002
3003
,
0110
0000
0001
0100
0020
0000
0030
0000
,
1100
0000
1000
0100
0020
0000
0030
0000
,
0001
0000
0011
0000
1001
0000
0001
0100
,
0020
0000
0230
0000
0301
1000
0100
0000
,
1100
0000
0110
0000
1000
0100
0020
0000
,
0031
0000
0011
0000
0001
0100
0020
0000
,
0130
0000
0110
0000
1001
0000
0001
1000
,
0010
0100
0010
0100
0002
0000
0003
0000
,
1000
0000
0100
1000
0010
0000
0100
0001
,
0010
0001
0100
0010
1000
0000
0010
1000
,
0001
0000
0010
0100
1000
0000
0100
0010
,
0001
0000
0100
0010
1000
0000
0010
1000
,
0001
0000
0100
0001
1000
0000
0001
0010
,
0100
0010
0001
1000
0100
0000
1000
0010
,
0100
0010
0100
0000
0010
1000
0010
0000
,
2000
0000
3100
1000
0100
0010
0001
0100
,
0002
0000
0103
0001
0100
0010
1000
0001
,
0010
0000
0000
0000
0011
0000
0000
2001
0000
0000
0000
0000
3010
0000
0000
0000
,
0100
0000
0000
0000
1100
0000
0000
1002
0000
0000
0000
0000
0013
0000
0000
0000
,
0100
0000
0110
0000
0001
1000
0100
1000
,
0010
0000
0110
0000
0001
1000
0020
0000
,
1000
0000
0100
0000
1030
0001
1000
0000
,
0001
0000
0101
0000
0001
0100
0010
0000
,
0100
0001
0100
0001
0010
0100
1000
0000
,
0100
0000
1100
0000
1000
0100
0010
0000
,
0100
1000
0100
1000
0020
0000
0130
0000
,
0010
0000
0110
0000
0010
0100
0001
0000
,
1000
0010
1000
0010
0001
0010
1000
0000
,
0100
0000
0110
0000
0100
0010
0001
0000
,
0100
0001
0010
1000
0020
0000
0030
0000
,
0012
0100
0010
1003
,
0200
0000
1000
0000
0310
0200
0000
0000
,
0302
1000
0010
1003
,
0200
0010
2000
3300
,
2001
0010
0001
3100
,
0002
0000
0010
0000
0103
0010
1000
0000
,
0002
0010
1000
0103
,
1000
0100
0010
0001
2000
0000
3001
0000
,
0110
0000
1000
0001
0200
0000
0301
0000
,
0110
0000
0001
1000
0020
0000
1030
0000
,
0001
0000
0101
0000
1100
0000
0001
0010
,
0100
0000
0110
0000
0001
1000
0020
0000
,
1030
0100
1000
0100
0010
0100
1000
0000
,
0001
0100
0001
0100
0010
0100
0001
0000
,
1000
0000
0001
0000
1001
0000
0010
0100
,
0001
0010
0100
1000
0002
0000
0003
0000
,
1000
0000
0000
0100
1000
0000
0100
0000
0010
0000
0000
0100
1000
0000
0100
0000
,
0010
0001
0100
0010
0100
0000
0001
0100
,
0010
0000
0000
0100
0001
0000
0100
0000
0010
0000
0000
0100
0001
0000
0100
0000
,
0010
1000
0001
1000
0100
0000
0010
0001
,
0100
0000
0000
0010
1000
0000
0010
0000
0100
0000
0000
0010
1000
0000
0010
0000
,
1000
0100
0010
0001
1000
0000
0001
0010
,
0100
0000
0000
0010
0001
0000
1000
0000
0001
0000
0000
0100
0010
0000
1000
0000
,
0001
0100
0010
1000
0002
0000
1003
0000
,
1001
0000
0000
1000
0100
0000
1000
0000
0001
0000
0000
0001
0100
0000
0001
0000
,
1000
0000
0010
0000
0100
0000
0001
0000
1000
0000
0000
0001
1000
0000
0001
0000
,
0010
0000
0000
0010
0100
0000
0010
0000
0001
0000
0000
0001
0100
0000
0010
0000
,
0100
0001
1000
0100
0010
0100
1000
0000
,
1010
0000
0000
0010
1000
0000
0010
0000
0100
0010
0000
0010
0100
0000
0001
0000
,
1000
0000
0000
1000
0001
0000
0010
0000
0001
1000
0000
1000
0001
0000
1000
0000
,
0001
0010
0001
0010
1000
0010
1000
0010
,
0001
0100
0001
0100
1000
0100
1000
0100
,
0002
0000
0010
0000
0100
0000
1003
0001
,
0220
0000
0000
0330
;

//---------------dance-single - t7r----------------
#NOTES:
     dance-single:
     t7r:
     Challenge:
     16:
     :
0000
0000
0000
0000
,
0000
0000
0000
0000
,
0000
0000
0000
0000
,
0000
0000
0000
0000
,
0010
0000
0100
0000
0010
0000
0100
0000
0001
0100
0000
0100
0001
0000
0100
0000
,
0001
0000
0010
0001
0010
0000
0001
1000
0001
0000
1000
0000
0100
0000
1000
0000
,
0010
0000
0100
0000
0010
0000
1000
0000
0010
1000
0000
1000
0001
0000
1000
0000
,
0010
0000
0100
0010
0100
0000
0001
0100
0001
0000
1000
0000
0001
0000
1000
0000
,
0100
0000
0010
0000
0100
0000
1000
0000
0010
1000
0000
1000
0010
0000
1000
0000
,
0001
0000
0100
0001
0100
0000
0001
0010
0001
0000
1000
0000
0001
0000
0100
0000
,
0010
0000
1000
0000
0010
0000
0100
0000
0001
0010
0000
0010
0001
0000
1000
0000
,
0100
1000
0100
1000
0100
0000
1000
0001
2000
0000
0000
0000
3010
0000
0010
0100
,
0010
0100
0001
0100
0002
0000
0013
0001
,
1000
0100
0010
0100
2000
0000
3010
1000
,
0001
0100
0010
0100
0002
0000
0013
0100
,
1000
0100
0002
0000
0103
1000
0020
0000
,
0130
0010
1000
0010
0200
0000
0301
1000
,
0010
1000
0001
0010
0002
0000
1003
0100
,
0010
0100
2000
0000
3010
0100
0002
0000
,
1003
0000
0010
0000
0100
0000
0001
0000
1000
0000
0000
0001
1000
0000
0001
0000
,
0010
0000
0001
0010
0100
0000
1000
0000
0020
0000
0000
0000
0130
0000
0000
0000
,
0010
0000
1000
0010
0100
0000
0001
0000
0020
0000
0000
0000
0130
0000
0000
0000
,
0010
0000
0001
0000
0010
0000
0001
0000
0100
0000
0010
1000
0001
0000
1000
0000
,
0100
0000
0010
0000
0100
0000
1000
0000
0010
0000
0100
0000
0001
0000
1000
0001
,
0010
0001
0100
1000
0100
0001
0020
0000
,
0031
0100
1000
0100
0001
1000
0002
0000
,
1003
0100
0010
0100
1000
0010
0100
0001
,
1000
0000
0001
0100
0001
0000
1000
0001
2000
0000
0000
0000
0000
0000
0000
0000
,
3001
0000
0010
0000
0100
0010
0000
0010
0001
0000
0100
0000
0010
0100
0000
0100
,
0001
0000
1000
0000
0010
1000
0000
1000
0001
0000
1000
0000
0100
1000
0000
1000
,
0010
0000
0100
0000
0010
1000
0000
1000
0100
0000
0010
0000
0001
0010
0000
0010
,
0100
0000
0010
0000
0001
0100
0000
0100
0001
0000
1000
0000
0001
0000
1000
0001
,
0010
0000
0001
0000
0100
0010
0000
0010
1000
0000
0010
0000
0100
0001
0000
0001
,
0010
0000
0001
0000
1000
0100
0000
0100
0010
0000
0100
0000
1000
0000
0010
0100
,
0001
0000
0010
0000
0001
1000
0000
1000
0001
0000
1000
0000
0010
0100
0000
0100
,
0001
0000
1000
0000
0100
0010
0000
0010
0001
0000
1000
0000
0010
0100
0000
0100
,
0001
0010
0011
0001
1001
0001
0101
0001
,
1001
0000
0000
0000
1100
0000
0000
0012
0000
0000
1003
0010
1000
0000
0010
0000
,
0100
0000
0000
0000
0110
0000
0000
2001
0000
0000
3010
1000
0010
0000
0100
0000
,
0001
0000
0000
0001
1000
0000
0000
1000
0001
0000
0010
0100
1000
0000
0100
0000
,
0010
0000
0000
0000
0120
0000
0000
0000
0031
0000
1000
0000
0001
0000
1000
0001
,
0100
0000
0001
1000
0100
0000
1000
0001
1000
0000
0001
1000
0001
1000
0001
0000
,
0110
0000
0000
0100
0001
0000
0000
0001
0010
0001
0010
0001
0010
0000
0001
0000
,
1000
0100
1000
0100
1000
0000
0010
0000
0100
0000
0001
0000
1000
0000
0001
0000
,
0010
0000
0000
0010
0001
0000
0000
0001
0100
0010
0100
0010
0100
0000
0010
0000
,
1000
0001
1000
0001
0100
0010
0100
0010
2000
0000
0000
0000
3001
0000
0000
0000
,
0011
0000
0000
0001
0010
0000
0000
0010
0100
1000
0100
1000
0100
0000
1000
0000
,
0010
1000
0010
1000
0010
0000
0100
0001
0100
0000
0001
0000
1000
0000
0001
0000
,
0010
0000
0000
0010
0100
0000
0000
0100
1000
0010
1000
0010
1000
0000
0001
0000
,
0100
0001
0100
0001
1000
0010
0100
0010
1000
0000
0001
0000
0010
0000
0001
0100
,
0001
0100
0010
1000
0100
0010
0100
1000
,
0001
0010
1000
0010
0001
0100
1000
0100
,
0001
0010
0100
1000
0010
0100
0001
1000
,
0010
1000
0100
1000
0020
0000
1030
0000
,
0001
0000
0100
0001
0100
0000
0001
0000
1001
0000
0001
1000
0001
0000
1000
0000
,
1100
0000
0100
1000
0100
0000
1000
0000
1001
0000
1000
0010
1000
0000
0010
0000
,
0110
0000
0010
0100
0001
0000
0100
0000
0101
0000
0001
1000
0001
0000
1000
0000
,
0001
0010
0001
0010
0100
1000
0100
1000
0020
0000
0000
0130
0001
0000
0100
0000
,
0120
0000
1030
0000
,
0210
0000
0000
0000
0010
0000
0000
0000
0301
0000
0000
0001
1000
0000
0001
0000
,
1000
0000
0000
0100
1000
0000
0000
1000
0010
0000
0000
0010
0100
0000
0001
0000
,
0010
0000
0001
0000
0100
0000
1000
0000
0100
0000
0001
0010
0100
0000
0010
0000
,
0110
0010
0011
0001
1001
1000
1010
0000
,
0110
0010
1010
1000
1001
1000
1100
0000
,
0110
0010
0110
0010
0011
0001
1001
0001
,
0101
0000
0001
0100
0001
1000
0001
1000
0002
0000
0000
0000
0003
0000
0000
0000
,
1100
0000
0100
0000
0010
0100
0000
0100
1000
0000
0100
0000
0010
0001
0000
0001
,
0100
0000
0001
0010
0001
0000
1000
0000
0010
0000
0100
0000
0010
0000
1000
0000
,
0001
0000
1000
0000
0001
0010
0000
0010
0100
0000
0010
0000
0001
0100
0000
0100
,
0010
0000
0100
0001
0100
0000
0001
0000
1000
0000
0010
1000
0010
0000
1000
0000
,
0100
0000
0010
0000
0100
1000
0000
1000
0010
0000
0100
0000
0001
0010
0000
0010
,
0001
0000
1000
0001
1000
0000
0001
0000
0100
0000
0010
0000
0100
0000
0001
0000
,
0010
0000
0001
0000
0100
1000
0000
1000
0100
0000
0001
0000
0010
1000
0000
1000
,
0010
0000
0001
1000
0001
0000
0100
0010
1000
0010
0000
0010
1000
0000
0001
0000
,
1001
0000
0101
0001
0110
0000
1100
1000
,
0110
0001
0101
0010
2010
0000
3002
0000
,
0013
0000
0011
0001
1001
0000
1010
1000
,
1001
0000
0100
0010
1000
0000
0010
0000
0100
0000
0001
0000
2000
0000
0000
0000
,
3001
0000
0010
0000
0001
0100
0000
0100
0001
0000
1000
0000
0010
1000
0000
1000
,
0001
0000
1000
0100
0010
0000
0001
0000
0010
0000
0100
1000
0001
0000
1000
0000
,
0010
0000
0100
0000
0001
0100
0000
0100
1000
0000
0100
0000
0001
0010
0000
0010
,
1000
0000
0010
0001
0010
0000
0001
0000
1000
0000
0001
0100
0001
0000
1000
0000
,
0010
0000
0100
0010
0100
0010
0000
0010
1000
0000
0001
1000
0100
0000
1000
0000
,
2002
0000
0000
3003
;
