#TITLE:RЁVOLUTIΦN;
#ARTIST:TËЯRA;
#TITLETRANSLIT:REVOLUTION;
#ARTISTTRANSLIT:TERRA;
#BANNER:REVOLUTION.png;
#BACKGROUND:REVOLUTION-bg.png;
#JACKET:REVOLUTION-jacket.png;
#CDTITLE:./CDTITLES/GUITAR FREAKS & DRUMMANIA.PNG;
#MUSIC:REVOLUTION.ogg;
#SAMPLESTART:79.01;
#SAMPLELENGTH:15;
#DISPLAYBPM:202;
#BPMS:0=202;

//---------------dance-single - t7r----------------
#NOTES:
     dance-single:
     t7r:
     Beginner:
     3:
     :
0000
0000
0000
0000
,
0000
0000
0000
0000
,
0000
0000
0000
0000
,
0000
0000
0000
0000
,
0000
0000
0000
0000
,
0000
0000
0001
0000
,
0000
0000
1000
0000
,
0000
0000
0001
0000
,
1000
0000
0001
0000
,
1000
0000
0100
0000
,
0000
0000
0010
0000
,
0000
0000
0001
0000
,
0000
0000
0010
0000
,
0100
0000
0010
0000
,
0000
0000
1000
0000
,
0000
0000
0001
0000
,
0100
0000
0010
0000
,
0000
0000
0000
1000
,
0000
0001
0000
1000
,
0000
0100
0000
0010
,
0000
0001
0000
0010
,
0000
0100
0100
0000
,
0000
0000
0010
0000
,
0000
0000
0100
0000
,
0010
0000
1001
0000
,
0000
0000
0001
0000
,
1000
0000
0001
0000
,
0000
0000
1000
0000
,
0001
0000
1000
0000
,
0000
0000
0001
0000
,
1000
0000
0001
0000
,
0000
0000
1000
0000
,
0010
0000
1000
0000
,
0000
0000
0001
0000
,
0100
0000
0100
0000
,
0000
0000
0010
0000
,
1000
0000
1000
0000
,
0000
0000
0001
0000
,
1000
0000
1000
0000
,
0000
0000
1000
0000
,
0001
0000
0001
0000
,
0000
0000
1000
0000
,
0000
0000
0001
0000
,
0000
0000
1000
0000
,
0000
0000
0100
0000
,
0000
0000
0010
0000
,
0000
0000
0001
0000
,
0000
0000
0010
0000
,
0000
0000
0100
0000
,
0010
0000
0000
0000
,
0000
0000
0000
0100
,
0000
0010
0000
1000
,
0000
0001
0000
1000
,
0000
0001
0000
0100
,
0000
0010
0010
0000
,
0000
0100
0100
0000
,
0000
0000
0010
0000
,
1000
0000
0001
0000
,
0100
0000
0010
0000
,
0000
0000
0100
0000
,
0000
0000
0010
0000
,
0000
0000
0100
0000
,
0010
0000
1001
0000
,
0000
0000
1000
0000
,
0000
0000
0001
0000
,
0000
0000
0000
0000
,
0000
0000
0100
0000
,
0010
0000
0100
0000
,
0000
0000
0010
0000
,
0100
0000
0010
0000
,
0000
0000
1000
0000
,
0100
0000
0010
0000
,
0000
0000
0001
0000
,
0010
0000
0100
0000
,
0000
0000
1000
0000
,
0001
0000
1000
0000
,
0000
0000
0001
0000
,
1000
0000
0001
0000
,
0000
0000
1000
0000
,
0100
0000
0010
0000
,
0000
0000
0001
0000
,
0010
0000
0001
0000
,
0100
0000
0010
0000
,
0010
0000
0010
0000
,
0010
0000
0010
0000
,
0010
0000
0010
0000
,
0010
0000
0100
0000
,
0100
0000
0100
0000
,
0100
0000
0100
0000
,
0100
0000
0100
0000
,
0010
0000
0100
0000
,
0010
0000
1000
0000
,
1000
0000
0100
0000
,
0010
0000
0001
0000
,
0001
0000
0010
0000
,
0000
0000
0100
0000
,
0000
0000
0010
0000
,
1000
0000
0001
0000
,
0000
0000
1000
0000
,
0000
0000
0001
0000
,
0000
1000
0000
0000
;

//---------------dance-single - t7r----------------
#NOTES:
     dance-single:
     t7r:
     Easy:
     6:
     :
0000
0000
0000
0000
,
0000
0000
0000
0000
,
0000
0000
0000
0000
,
0000
0000
0000
0000
,
0000
0000
0000
0000
,
0000
0000
0010
0000
,
0010
0000
0010
0000
,
0010
0000
0100
0000
,
0100
0000
0010
0000
,
1001
0000
0000
0001
,
0000
1000
0000
0001
,
0000
1000
0000
0001
,
0000
0100
0000
0010
,
0000
1000
0010
0000
,
1000
0000
0100
0000
,
0010
0000
0001
0000
,
0010
0000
0100
0000
,
1000
0100
0010
0000
,
0001
0000
0010
0000
,
0100
0000
1000
0000
,
0100
0000
1000
0000
,
0001
0100
1001
0000
,
1000
0000
0001
0000
,
1000
0000
0010
0000
,
0100
0001
0100
0000
,
0010
1000
0020
0030
,
0200
0300
0020
0030
,
0200
0300
0010
1000
,
0001
0000
1001
0000
,
0001
0100
0002
0003
,
2000
3000
0200
0300
,
0020
0030
0001
0010
,
0100
0000
0110
0000
,
0010
0000
2000
3000
,
0002
0003
2000
3000
,
0002
0003
0100
0001
,
1000
0000
1001
0000
,
0001
0001
2000
3000
,
0020
0030
0200
0300
,
0002
0003
0100
0010
,
0100
0000
0220
0000
,
0000
0330
0020
0000
,
0000
0030
2000
0000
,
0000
3000
0002
0000
,
0000
0003
0200
0000
,
0000
0300
0001
0000
,
1000
0000
0001
0000
,
1001
0000
1000
0000
,
0001
0000
1000
0000
,
1001
0000
0220
0000
,
0000
0330
0010
0000
,
1000
0000
0001
0000
,
0100
0000
0001
0000
,
1000
0000
0001
1000
,
0000
1000
0001
1000
,
0000
0001
0000
1000
,
0000
0001
0000
0100
,
0000
0010
0000
0100
,
0000
0010
0200
0300
,
0200
0300
0200
0300
,
0200
0300
0020
0030
,
0020
0030
0020
0030
,
0020
0030
1001
0000
,
2000
3000
0002
0003
,
2000
3000
0002
0000
,
0000
0003
1000
0000
,
0001
0000
2000
3000
,
0002
0003
2000
3000
,
0002
0003
1000
0100
,
0010
0000
1001
0000
,
0010
0100
0002
0003
,
0200
0300
0020
0030
,
2000
3000
0010
1000
,
0100
0000
0110
0000
,
0010
0001
2000
3000
,
0002
0003
2000
3000
,
0002
0003
1000
0001
,
0100
0000
1001
0000
,
0001
0010
0002
0003
,
0020
0030
0002
0003
,
0200
0300
0010
1000
,
0100
0000
1100
0000
,
1000
0100
2000
3000
,
0002
0003
0200
0300
,
0010
0100
0010
1000
,
0100
0000
1001
0000
,
1000
0100
2000
3000
,
0200
0300
0020
0030
,
0001
0010
0100
1000
,
0100
0000
1100
0000
,
1000
0100
0020
0030
,
0002
0003
0020
0030
,
0100
1000
0100
1000
,
0001
0100
0001
0000
,
1001
0000
0002
0003
,
0200
0300
0002
0003
,
1000
0010
1000
0001
,
0100
0001
1000
0000
,
0001
0000
1000
0000
,
0001
0000
1000
0000
,
0110
0000
0000
0000
;

//---------------dance-single - t7r----------------
#NOTES:
     dance-single:
     t7r:
     Medium:
     9:
     :
0000
0000
0000
0000
,
0000
0000
0000
0000
,
0000
0000
0000
0000
,
0000
0000
0000
0000
,
0000
0000
0000
0000
,
0000
0000
0100
0010
,
0100
0010
1000
0010
,
0100
0001
1000
0001
,
1000
0001
0100
0010
,
0100
0010
1000
0010
,
1000
0100
0001
0100
,
1000
0001
0100
0001
,
1000
0100
1000
0010
,
0100
0001
1000
0100
,
1000
0010
1000
0100
,
0001
0100
1000
0010
,
0100
0010
0100
1001
,
0100
1001
0010
0100
,
0001
0100
0010
0100
,
1000
0100
0010
0100
,
0001
1000
0100
0010
,
2002
3003
0001
0100
,
0002
0003
1000
0010
,
2000
3000
0001
0100
,
0010
1000
1001
0000
,
0120
0000
2030
3000
,
2020
3030
0202
0303
,
1010
0100
0010
0100
,
0011
0100
1001
0000
,
0010
0100
0002
0003
,
0202
0303
2020
3030
,
0101
0010
0100
0010
,
1100
0010
1001
0000
,
1000
0100
0220
0330
,
2002
3003
0220
0330
,
1001
0100
0010
0001
,
0011
0100
1001
0000
,
1000
0100
2200
3300
,
0022
0033
2200
3300
,
0010
0100
0101
0001
,
1000
0100
0020
0000
,
0000
0030
0100
0000
,
0110
0000
0010
1000
,
0001
0000
0010
0000
,
1001
0000
1000
0001
,
0100
0001
1000
0001
,
0010
0100
1000
0100
,
0010
0010
0001
0010
,
0100
1000
0100
0010
,
0001
0001
2000
0000
,
0000
3000
0001
0100
,
1000
0100
0001
0100
,
1000
0100
0001
0010
,
1000
0010
0001
0010
,
1000
0010
1001
0000
,
0001
0100
0110
0000
,
0010
1000
1001
0100
,
0010
0001
1001
0000
,
0001
0101
2020
3030
,
2200
3300
2020
3030
,
2200
3300
0022
0033
,
0202
0303
0022
0033
,
0202
0303
2020
3030
,
2002
3003
0220
0330
,
2002
3003
0200
0000
,
0000
0300
0010
0100
,
0110
1001
0002
1003
,
2002
3003
0220
0330
,
1000
0100
0010
0001
,
0011
0100
1001
0000
,
1000
0010
0200
0310
,
0220
0330
2002
3003
,
0100
0010
1001
0100
,
0010
0001
1001
0000
,
0001
0100
2010
3100
,
0022
0033
2002
3003
,
0101
0010
1001
0100
,
0010
0100
1001
0010
,
0100
0010
2010
3100
,
2020
3030
0202
0303
,
0110
0010
1001
0100
,
0010
0001
0011
0001
,
1001
1001
2200
3300
,
0202
0303
2200
3300
,
0101
0010
1001
0100
,
1000
0100
1001
0000
,
0010
0100
0220
0330
,
0202
0303
0220
0330
,
1100
0010
0110
0001
,
1000
0001
0220
0330
,
0010
1000
0001
0101
,
2002
3003
1000
1100
,
2002
3003
1000
0010
,
0100
0001
0220
0330
,
0010
0100
0001
0100
,
2002
3003
1000
0100
,
2002
3003
1000
0010
,
1010
0100
0220
0000
,
0000
0000
0330
0000
0010
0000
0000
0100
,
0000
0000
0010
0000
0000
0100
0000
0000
,
0001
1000
0100
0000
0000
0000
0000
0000
;

//---------------dance-single - t7r----------------
#NOTES:
     dance-single:
     t7r:
     Hard:
     13:
     :
0000
0000
0000
0000
,
0000
0000
0000
0000
,
0000
0000
0000
0000
,
0000
0000
0000
0000
,
0000
0000
0000
0000
,
0000
0000
0000
0000
1000
0010
1000
0010
,
0100
0001
0100
0001
1000
0100
1000
0100
,
0010
0001
0010
0001
1000
0100
0010
0001
,
1000
0100
0010
0001
1000
0100
0001
0100
,
1000
0010
0001
0010
2000
0000
3010
0100
,
0001
0000
1000
0001
0000
0001
1000
0010
,
0200
0000
0310
0000
1000
0100
0010
0001
,
1000
0100
1000
0001
0100
0002
0000
1003
,
0000
0000
0110
0000
1010
0000
0001
0100
,
2000
0000
3100
0001
0000
1000
0010
0100
,
0002
0000
1003
0000
1000
0100
0020
0000
,
0031
0010
0200
0000
1300
0001
0100
0001
,
1000
0000
1001
0000
0001
0100
0020
0000
,
0230
0000
0301
0000
1000
0100
0020
0000
,
0230
0000
1300
0000
0001
1000
0200
0000
,
2300
0000
3001
0000
1000
0001
0100
0001
,
1000
0010
0100
0001
0010
0001
2000
0000
,
3020
0000
0130
0000
0001
0100
0020
0000
,
0230
0000
0301
0000
1000
0010
0100
0001
,
1000
0001
0100
0010
0100
0001
1000
0010
,
1000
0100
0001
0100
2000
0000
3000
0000
,
2020
3030
0202
0303
,
1100
0010
1000
1001
,
0110
1001
0202
0303
,
1000
0010
0100
0001
0200
0000
0300
0000
,
0022
0033
2200
3300
,
0110
0001
1000
0101
,
1100
0101
0022
0033
,
1000
0100
0010
0100
2000
0000
3000
0000
,
0220
0330
2020
3030
,
0101
1000
0001
0100
,
0110
1001
0220
0330
,
0001
1000
0100
0010
0200
0000
0300
0000
,
0022
0033
2200
3300
,
1001
0100
0110
1001
,
0101
1100
2002
0000
,
0000
0000
3003
0000
1010
0000
0000
1001
,
0000
0000
0101
0000
0000
1001
0000
0000
,
1000
0100
0000
0100
1000
0000
0000
0011
,
0000
0000
1010
0000
0000
0101
0000
0001
,
0100
0001
0000
0001
1000
0010
1000
0010
,
1000
0100
1000
0100
1000
0001
1000
0001
,
0100
0100
0010
0010
1000
0100
0010
0001
,
1000
0100
0010
0001
0100
0010
1000
0001
,
0100
0001
1000
0002
0000
0000
0000
0000
,
1000
1000
1000
1003
0010
0100
0002
0000
,
2003
0000
3010
0000
1000
0100
0020
0000
,
0230
0000
1300
0000
0001
0100
0001
0100
,
0001
0010
0001
0010
0001
1000
0001
1000
,
0010
0100
0010
1000
0010
0100
0001
1000
,
0002
0000
1003
0000
1000
0100
0010
0100
,
2000
0000
3100
0000
0010
0100
1000
0100
,
0010
0001
0100
0010
1000
0001
0100
0010
,
1000
0100
0001
0100
2000
0000
3000
0000
,
0022
0033
2200
3300
,
0202
0303
0220
0330
,
2002
3003
0202
0303
,
2200
3300
0022
0033
,
2020
3030
0202
0303
,
2200
3300
2002
0000
,
0000
0000
3003
0000
0010
0100
0000
0100
,
0010
0000
1001
0000
0010
0001
0200
0000
,
0310
1000
0200
0000
1300
0001
0100
0010
,
0000
0010
1000
0001
0100
0000
0101
0000
,
1100
0011
2020
3030
,
0001
0000
1100
0000
0010
0100
0002
0000
,
0103
0010
2000
0000
3010
1000
0001
0100
,
0000
0001
1000
0010
1000
0000
0101
0000
,
1010
1100
0022
0033
,
1000
0100
0010
0001
1000
0001
0100
0000
,
0110
1001
0101
1010
,
1100
0011
2100
0001
,
0010
0001
0100
3010
,
0001
1000
0100
1000
0010
0100
0001
0000
,
1001
0011
1100
1010
,
0101
1001
0012
0100
,
0010
0000
1003
0000
0001
0100
1000
0100
,
0001
0010
1000
0010
0001
1000
0001
1000
,
0001
1000
0001
1000
0010
0100
0010
0100
,
0010
0100
0010
1000
0001
0100
0010
1000
,
0001
0100
0010
1000
0100
0001
0100
1000
,
0010
0001
0010
1000
0100
1000
0010
0100
,
0001
1000
0010
1000
0001
0100
0010
1000
,
0100
0010
0001
1000
0010
0100
0001
1000
,
0100
0001
0100
1000
0010
0100
0001
1000
,
0001
0000
1001
0000
1000
0100
0001
0100
,
1000
0010
0001
0010
1000
0100
0001
0100
,
1000
0100
0001
0100
1000
0001
0100
0010
,
1000
0001
0100
0010
1000
0100
1000
0100
,
0010
0001
0010
0001
0200
0000
0310
0000
,
1000
0010
0100
0001
1000
0001
1000
0001
,
0010
0100
0010
0001
1000
0100
0010
0001
,
1000
0010
0100
0001
1000
1000
0001
0001
,
0001
0000
1001
0000
0010
0100
0000
0001
,
1000
0000
0010
0100
0000
0001
1000
0000
,
1000
0001
1001
0000
0000
0000
0000
0000
;

//---------------dance-single - t7r----------------
#NOTES:
     dance-single:
     t7r:
     Challenge:
     15:
     :
0000
0000
0000
0000
,
0000
0000
0000
0000
,
0000
0000
0000
0000
,
0000
0000
0000
0000
,
0000
0000
0000
0000
,
0010
1000
0000
1000
0001
1000
0010
0100
,
0001
1000
0010
0100
0001
0100
0010
1000
,
0001
0100
0010
1000
0001
0010
0100
1000
,
0001
0010
0100
1000
0001
0001
0100
0100
,
0010
0010
1000
1000
0001
1000
0100
1000
,
0010
0000
0000
0000
0100
0000
0000
0100
0001
0000
1000
0000
0100
0000
0010
0000
,
0100
0000
0000
0000
1000
0000
0000
1000
0100
0000
1000
0000
0010
0000
1000
0000
,
0001
0000
0000
0000
0010
0000
0000
0010
0001
0000
0010
0000
0100
0000
1000
0000
,
0001
0100
0010
1000
0010
0100
0001
1000
,
0001
0000
0000
0000
1000
0000
0000
1000
0010
0000
1000
0000
0100
0000
0010
0000
,
0001
0000
0000
0000
0100
0000
0000
0100
0010
0000
1000
0000
0100
0000
0000
0000
,
0010
0001
0100
0000
0001
1000
0100
0010
,
0001
0000
1001
0000
0010
0100
0001
1000
,
0010
1000
0100
0000
1000
0001
0100
0010
,
1000
0001
0100
0000
0001
0100
0001
0100
,
0010
1000
0010
1000
0001
0010
0100
1000
,
0001
0010
0100
1000
0100
0010
0001
1000
,
0010
0000
1000
0010
1000
0100
0010
0001
,
0100
0000
0001
0100
0010
1000
0001
0100
,
0001
1000
0010
0100
0001
1000
0001
1000
,
0010
0100
0010
0100
0010
1000
0010
0000
,
0100
0001
0100
0000
0001
1000
0100
1000
,
0000
0000
0001
0000
0010
0000
0000
0010
0001
0000
1000
0000
0100
0000
0000
0000
,
1000
0010
0100
0000
0010
1000
0010
1000
,
0000
0000
0001
0000
0100
0000
0000
0100
0001
0000
1000
0000
0010
0000
0000
0000
,
1000
0100
0010
0000
0001
0100
0010
0100
,
0000
0000
0001
0000
1000
0000
0000
1000
0001
0000
1000
0000
0100
0000
0000
0000
,
1000
0001
0100
0000
0010
1000
0010
1000
,
0001
0100
0001
0100
0010
0100
0001
0000
,
1000
0100
0010
0000
0001
0100
0010
0100
,
0000
0000
0001
0000
0010
0000
0000
0010
0001
0000
1000
0000
0100
0000
0000
0000
,
1000
0010
0100
0000
0010
1000
0001
0100
,
0000
0000
0001
0000
1000
0000
0000
0010
1000
0000
0010
0000
0100
0000
0000
0000
,
0001
1000
0100
0000
1000
0100
0001
0100
,
0000
0000
1000
0000
0010
0000
0000
1000
0010
0000
0100
0000
0001
0000
0000
0000
,
1000
0001
0100
0000
0001
0100
0010
1000
,
0001
0100
0010
1000
0011
0000
1000
1100
,
0000
0001
0011
0000
1000
1001
0000
0010
,
0100
0010
1000
0001
0101
0000
0001
1010
,
0000
0001
1100
0000
1000
0011
0100
0010
,
1000
0001
1000
0100
1000
1000
0100
0100
,
0010
0010
0001
0001
1000
1000
0010
0010
,
0100
0100
0100
0100
0001
0001
0100
0100
,
0010
0010
1000
1000
0001
0001
0010
0010
,
1000
1000
1000
2000
0000
0000
0000
0000
,
0001
0001
0001
3001
1000
0010
0100
0010
,
1000
0000
0001
0100
0010
0100
1000
0001
,
1000
0000
0001
0100
0010
1000
0010
1000
,
0001
0100
0001
0100
0010
0100
0001
1000
,
0100
0010
0001
1000
0100
1000
0010
0100
,
0001
0000
1000
0001
0100
0010
1000
0010
,
1000
0000
0001
0100
0001
0010
0100
1000
,
0001
0010
0100
1000
0001
0100
0010
1000
,
0001
1000
0100
1000
0010
1000
0100
0000
,
1000
0001
0100
0000
0001
0010
0100
1000
,
0010
0000
1000
0000
0001
0000
0000
0001
0100
0000
0001
0000
1000
0000
0000
0000
,
0010
0100
0001
0000
1000
0100
0010
0100
,
1000
0000
0001
0000
1000
0000
0000
1000
0001
0000
0010
0000
0001
0000
0000
0000
,
1000
0010
1000
0000
0001
0100
0010
0100
,
0001
0001
1000
1000
2002
0000
0000
0000
,
0000
0000
3003
0000
0110
0110
0000
1001
,
1001
0000
0101
0000
1000
0010
0100
0000
,
0001
1000
0100
0000
0010
0001
0100
0001
,
0000
0000
1000
0000
0010
0000
0000
1000
0100
0000
1000
0000
0010
0000
0000
0000
,
0100
0001
1000
0000
0001
0010
0100
0010
,
0000
0000
0001
0000
0100
0000
0000
0001
1000
0000
0010
0000
1000
0000
0000
0000
,
0001
0100
1000
0000
0100
0001
0100
0010
,
0000
0000
1000
0000
0001
0000
0000
0100
0010
0000
1000
0000
0010
0000
0000
0000
,
0100
0001
0100
0000
1000
0100
0010
0001
,
1000
0001
0100
0010
1000
0010
0101
0000
,
0001
1000
0100
1000
0010
0100
0010
0100
,
0010
1000
0001
0100
0001
0010
0100
1000
,
0001
0010
0100
1000
0100
0010
0001
1000
,
0010
1000
0001
0100
0001
0100
0011
0000
,
1000
0100
1000
0010
0100
0001
1000
0010
,
1000
0001
0100
0010
1000
0100
0001
0100
,
1000
0010
0001
0010
1000
0100
1000
0001
,
1000
0000
0001
0000
1000
0001
1000
0001
1000
0000
0010
0000
0000
1000
0100
0000
,
1000
0010
0100
0001
1000
0010
1000
0001
,
0100
0000
0001
0000
1000
0000
0001
0000
0010
0000
0100
0000
0000
0010
0001
0000
,
1000
0100
0010
0001
1000
0100
1000
0010
,
0100
0000
0001
0000
1000
0000
0001
0000
1000
0000
0010
0000
0000
0100
0001
0000
,
0100
0010
1000
0001
0010
0100
1000
0100
,
0010
0000
0001
0000
1000
0000
0100
0000
1000
0000
0001
0000
0000
0100
0010
0000
,
1000
0001
0100
0010
1000
0100
0001
0100
,
1000
0000
0010
0000
0001
0000
0010
0000
1000
0000
0100
0000
0000
1000
0010
0000
,
1000
0000
0001
0000
0100
0000
0010
0000
1000
0000
0010
0000
0000
0100
0001
0000
,
1000
0000
0100
0000
0010
0000
0001
0000
0100
0000
0001
0000
0000
1000
0010
0000
,
1000
0000
0100
0000
0010
0000
0001
0000
0010
0000
0100
0000
0000
0010
0001
0000
,
1000
0100
1000
0010
0200
0000
0310
0000
,
1000
0000
0100
0000
0001
0000
0100
0000
0010
0000
1000
0000
0000
0010
0001
0000
,
1000
0100
0010
0001
1000
0010
0100
0001
,
1000
0010
0100
0001
1000
0001
1001
1001
,
1001
0000
0010
0000
1010
1010
0000
0101
,
0101
0000
1100
1100
0000
0011
0011
0000
,
1100
0101
1001
0000
0000
0000
0000
0000
;
