#TITLE:PRIME LIGHT;
#ARTIST:TAG;
#BANNER:PRIME LIGHT.png;
#BACKGROUND:PRIME LIGHT-bg.png;
#JACKET:PRIME LIGHT-jacket.png;
#CDTITLE:./CDTITLES/GUITAR FREAKS & DRUMMANIA.PNG;
#MUSIC:PRIME LIGHT.ogg;
#SAMPLESTART:14.891;
#SAMPLELENGTH:15;
#BPMS:0=138;

//---------------dance-single - t7r----------------
#NOTES:
     dance-single:
     t7r:
     Beginner:
     3:
     :
0000
0000
0000
0000
,
0000
0000
0000
0000
,
0000
0000
0000
0000
,
0000
0000
0000
0000
,
0000
0000
0000
0000
,
0000
0001
0000
1000
,
1000
0000
0000
0100
,
0000
0000
2002
0000
,
3003
0000
0000
0000
,
0010
0010
0010
0000
,
1000
1000
1000
0000
,
0001
0001
0001
0000
,
0100
0100
0100
0000
,
0010
0010
0010
0000
,
1000
1000
1000
0000
,
0001
0001
0001
0000
,
0100
0100
0100
0000
,
0010
0010
0010
0000
,
0000
0000
0000
0000
,
2000
3000
0000
0000
,
0010
0000
0100
0000
,
0001
0000
1000
0000
,
0001
0000
1000
0000
,
0100
0000
0001
0000
,
0100
0000
1000
0000
,
0001
0000
0010
0000
,
0100
0000
1000
0000
,
0200
0300
0000
0000
,
0000
0000
0000
0000
,
0000
0000
0000
0000
,
1000
0000
0010
0000
,
0110
0000
0000
0000
,
1000
0000
0000
0000
,
0110
0000
0000
0000
,
0010
0000
0001
0000
,
1000
0000
0000
0000
,
0001
0000
1000
1000
,
1000
0000
0000
0000
,
0001
0000
0100
0100
,
0100
0000
0000
0010
,
0000
0000
1000
0000
,
0100
0000
1000
0000
,
0001
0000
1001
0000
,
0001
0000
1000
0000
,
0010
0000
0001
0000
,
0000
0000
0001
0000
,
0010
0010
0010
0000
,
0100
0000
0000
1000
,
0000
0000
0000
0000
,
0010
0000
0000
1000
,
1000
1000
0000
0000
,
0110
0000
0001
0000
,
0100
0100
0100
0000
;

//---------------dance-single - t7r----------------
#NOTES:
     dance-single:
     t7r:
     Easy:
     7:
     :
0000
0000
0000
0000
,
0000
0000
0000
0000
,
0000
0000
0000
0000
,
0000
0000
0000
0000
,
0000
0000
0000
0000
,
0000
0020
0030
0100
,
0100
0010
1000
0001
,
0100
0000
0220
0000
,
0330
0000
0000
1000
,
1001
0001
0100
0001
,
0010
0100
1000
0100
,
0110
0010
0001
0100
,
0001
0101
1000
1100
,
1001
0001
0100
0001
,
0011
0001
1001
1000
,
1010
0010
0100
0001
,
1001
1000
0100
0010
,
0110
0010
0100
1000
,
0000
0000
0001
0000
0000
0001
0000
0000
0000
0000
0000
0000
2000
0000
0000
0000
,
3001
0100
0010
1000
,
0001
1000
0001
0100
,
0110
0010
1000
0100
,
0020
0032
2003
3100
,
1001
0010
1000
0001
,
0100
0001
1000
0010
,
0110
0000
1001
0000
,
1000
1000
0001
0100
,
0002
0000
0000
0000
0000
0000
1003
0000
0000
0000
0000
0000
0000
0000
0000
0001
,
0000
0001
0000
0000
0000
0000
0000
0000
0000
0000
0000
0000
1001
0000
0000
0010
,
0000
0010
0000
0000
0000
0000
0000
0000
0000
0000
0000
0000
0000
0000
0000
0000
,
0100
0010
1000
0001
,
1001
0001
0001
0001
,
0100
0100
0010
1000
,
1001
1000
1000
0100
,
1000
0010
0100
0001
,
2000
0000
0000
3000
,
0020
0030
0100
0100
,
0020
0000
0000
0030
,
0200
0300
0001
1000
,
0002
0000
0003
1000
,
0200
0300
0020
0030
,
0001
0010
0100
1000
,
0100
0010
2002
3003
,
0010
0010
0100
0010
,
1000
0000
0000
0000
0001
0000
0000
0000
0100
0000
0000
0100
0000
0000
0100
0000
,
0000
0000
0020
0030
,
1000
1000
0001
0100
,
0001
0000
0000
0001
0000
0000
0001
0000
0000
0000
0000
0000
0100
0000
0000
0000
,
0010
1000
0001
0100
,
1000
0000
0000
1000
0000
0000
1000
0000
0000
0000
0000
0000
0100
0000
0000
0000
,
0001
0010
0100
1000
,
1001
0000
0020
0030
,
0100
0100
0110
0000
;

//---------------dance-single - t7r----------------
#NOTES:
     dance-single:
     t7r:
     Medium:
     9:
     :
0000
0000
0000
0000
,
0000
0000
0000
0000
,
0000
0000
0000
0000
,
0000
0000
0000
0000
,
0000
0000
0000
0000
,
0000
0000
2002
0000
3003
0000
0010
0100
,
1000
0000
0100
0000
0010
0000
0001
0100
,
0001
0000
0000
1000
0000
0000
0002
0000
0000
0000
0000
0000
0000
0000
0000
0000
,
0003
0000
1000
0000
1000
0000
0000
0110
0000
0000
0010
0000
0100
0000
0001
0000
,
1000
0000
0000
0000
0001
0000
0000
0000
0010
0000
0100
0000
1000
0000
0000
0100
,
0000
0000
1000
0000
0100
0000
0000
1000
0000
0000
0010
0000
1000
0000
0000
0001
,
0000
0100
0001
0100
0010
0000
0100
0000
,
0000
0010
0000
0000
0010
0000
0000
0000
1000
0000
0001
0000
0100
0000
0010
0000
,
1000
0000
0000
0000
0001
0000
0000
0000
0010
0000
0001
0000
1000
0000
0000
0100
,
0000
0000
1000
0000
0010
0000
0000
1000
0000
0000
0001
0000
0100
0000
0000
1001
,
0000
0000
0010
0000
0100
0000
0000
0001
0000
0000
0100
0000
0010
0000
0000
0100
,
0000
0000
0010
0000
1000
0000
0000
0100
0000
0000
1000
0000
0001
0000
0000
1001
,
0000
0000
0001
0000
0100
0000
0000
0001
0000
0000
1000
0000
0100
0000
1000
0000
,
0000
0000
1001
0000
0000
0110
0000
0000
0000
0000
0000
0000
0000
0000
0000
0000
,
0000
0010
1000
0000
0100
0001
0100
0000
,
1000
0010
1000
0000
0001
1000
0100
0000
,
0010
0000
0000
0001
0000
0000
0002
0000
0000
0000
0003
0000
0000
0000
0100
0000
,
1000
0000
1001
0000
0010
1000
0100
0001
,
0100
0000
0010
0000
1000
0010
0001
0000
,
0100
0000
0010
0000
1000
0010
0100
0001
,
1000
0000
0000
0001
0000
0000
1000
0000
0000
0000
0010
0000
0100
0000
0010
0000
,
0001
0000
1000
0000
0001
0010
0100
0010
,
0001
0000
0000
0000
0000
0000
1001
0000
0000
0000
0000
0000
0010
0000
0000
0010
,
0000
0100
0000
0000
0000
0000
0000
0000
0000
0000
0000
0000
1001
0000
0000
1000
,
0000
0001
0000
0000
0000
0000
0000
0000
0000
0000
0000
0000
0000
0000
0000
0001
,
0000
0000
0001
0000
0100
0000
0000
1010
0000
0000
1000
0000
0100
0000
0000
0000
,
1001
0000
0000
0000
0001
0000
0000
0000
1000
0000
0000
0000
0001
0000
0000
0100
,
0000
0100
0000
0000
0010
0000
0000
0000
1000
0000
0000
0000
0100
0000
0000
0010
,
0000
0010
0000
0000
0001
0000
0000
0000
0010
0000
0000
0000
0100
0000
0000
1001
,
0000
0000
0010
0000
1000
0000
0000
0101
0000
0000
1000
0000
0100
0000
0000
0000
,
1001
0000
0000
0220
0000
0000
0000
0000
0000
0000
0000
0000
0000
0000
0000
0000
,
0330
0000
0000
0000
0000
0000
0000
0000
0101
0000
0000
1100
0000
0000
1010
0000
,
0011
0100
0010
1000
0001
0100
0001
1000
,
0001
0000
1000
0000
0001
0000
0100
0000
0010
0000
0000
1010
0000
0000
0100
0000
,
0101
0000
0000
1001
0000
0000
0101
0000
0000
0000
1000
0000
0100
0000
0010
0000
,
1001
0000
0000
0110
0000
0000
1001
0000
0000
0000
0000
0000
0001
0000
0000
0000
,
0000
1000
0010
0000
0110
0000
1001
0000
,
0001
0000
0100
0000
0001
0000
0000
2002
0000
0000
0000
0000
3003
0000
0000
0000
,
0110
0010
1000
0000
0001
0100
0001
0000
,
1000
0000
0100
0000
0010
0000
0100
0000
1100
0000
0000
0101
0000
0000
1100
0000
,
0000
0000
0220
0330
,
1001
0000
0000
0101
0000
0000
1100
0000
0010
0000
0001
0000
0100
0000
0010
0000
,
1000
0000
0000
0001
0000
0000
1001
0000
0000
0000
0001
0000
0100
0000
0000
0110
,
0000
0010
1000
0010
0100
0001
1000
0001
,
1000
0000
0000
0101
0000
0000
0101
0000
0000
0000
0010
0000
1000
0000
0000
0011
,
0000
1000
0100
0000
1001
0000
0110
0000
,
1001
0000
0000
0012
0000
0000
1000
1003
,
0000
0000
0110
0000
0000
1001
0000
0000
0110
0000
0000
0000
0000
0000
0000
0000
;

//---------------dance-single - t7r----------------
#NOTES:
     dance-single:
     t7r:
     Hard:
     14:
     :
0000
0000
0000
0000
,
0000
0000
0000
0000
,
0000
0000
0000
0000
,
0000
0000
0000
0000
,
0000
0000
0000
0000
,
0000
0000
2002
0000
3003
0000
0001
1000
,
0001
0100
0000
0010
0000
1000
0000
0100
0000
0000
1000
0000
0010
0000
1000
0000
,
0001
0000
0000
1100
0000
0000
0101
0000
0000
0000
1000
0000
0001
0000
0100
0000
,
0010
0000
0010
0000
1001
0000
0000
0101
0000
0000
1000
0000
0001
0000
0010
0000
,
1001
0000
0000
0000
0001
0000
1000
0000
0001
0000
1000
0000
0100
0010
0000
1001
,
0000
0000
0001
0000
1000
0000
0100
1000
0000
0000
0100
0000
0010
0001
0000
0110
,
0000
0000
0010
0000
0001
0000
0010
0000
0100
0000
1000
0000
0010
0000
1000
0001
,
0000
1001
0000
0000
0110
0000
0010
0000
1000
0001
1000
0100
0000
0000
1000
0000
,
1001
0000
0001
0000
1000
0000
0010
0000
1000
0000
0100
0000
0010
0001
0000
1100
,
0000
0000
1000
0000
0100
1000
0000
1100
0000
0000
0001
0000
0100
0001
0000
0101
,
0000
0000
0001
0000
0010
0100
1000
0100
0000
0000
1000
0000
0100
1000
0000
1001
,
0000
0000
1000
0000
0010
0100
0001
0100
0000
0000
0001
0000
1000
0001
0000
1001
,
0000
0000
0001
0000
0010
0001
1000
0100
0000
0000
1000
0000
0100
1000
0001
1000
,
0000
0000
1001
0000
0000
0210
0000
0000
0000
0000
0000
0000
0310
1000
0000
0000
,
1010
0001
0100
0001
1000
0100
0010
0001
,
1000
0000
0100
0010
0000
0001
0000
0010
0000
0000
0001
0000
0100
0000
0001
0000
,
1000
0000
0000
1001
0000
0000
2001
0000
0000
0000
0000
0000
0000
0000
3001
0000
,
0200
0000
0000
0000
0310
0000
0000
0000
1000
0000
0010
1000
0000
0000
0001
0000
,
1001
0001
0010
0100
1000
0100
0010
0001
,
1000
0000
0001
1000
0000
0001
0000
0110
0000
0000
0001
0000
0100
0000
0001
0000
,
1000
0000
0000
1100
0000
0000
0021
0000
0000
0000
0000
0000
0000
0000
0130
1000
,
0100
0000
0000
0000
1001
0000
0000
0000
1000
0000
0010
0000
0100
0001
0000
0000
,
0110
0000
0000
0000
0000
0000
1001
0000
0000
0000
0000
0000
0001
1000
0001
0100
,
0000
0001
0000
0000
0000
0000
1000
0000
0100
0000
0010
0000
0001
0010
0100
1000
,
0000
0110
0000
0000
0000
0000
0000
0000
0000
0000
0010
0000
1000
0010
1000
0001
,
0000
0001
1000
0000
0001
0010
0001
1000
0000
1000
0001
0000
1000
0100
1000
0000
,
1001
0000
0001
0000
0010
0000
0100
0000
1000
0000
0001
0000
1000
0010
0100
0010
,
0000
0110
0000
0000
1000
0000
0010
0000
0100
0000
0010
0000
1000
0001
1000
0100
,
0000
1100
0000
0000
0001
0000
0010
0000
0001
0000
1000
0000
0001
0100
0001
0010
,
0000
0010
0100
0000
1000
0100
1000
0010
0000
0010
0100
0000
0001
0000
1000
0000
,
0101
0000
0000
1001
0000
0000
0001
1000
0001
0100
0000
0001
0000
1000
0000
0100
,
0000
0000
0110
0000
0000
0000
1000
0000
0011
0000
0000
1100
0000
0000
1001
0000
,
0101
0000
0010
1000
0010
0000
1000
0000
0001
1000
0000
0100
0000
0000
0010
0001
,
0010
0000
0001
0000
1000
0001
0000
0100
0000
0000
0110
0000
0000
1010
0000
0000
,
1001
0000
0000
0101
0000
0000
2001
0000
0000
0000
3001
0000
1000
0100
0000
1001
,
0000
0000
0101
0000
0000
0000
2100
0000
0000
0000
3001
0000
0010
0200
0000
0000
,
0000
0000
1300
0000
0100
0000
1000
0000
0001
0000
0100
0001
0000
1000
0000
1001
,
0000
0000
0010
0000
0100
0000
1000
0200
0000
0000
0310
0000
0001
0000
1000
0000
,
1001
0001
0100
0001
1000
0010
0100
0001
,
0100
0000
0010
0000
1000
0000
0001
0000
1100
0000
0000
0011
0000
0000
1100
0000
,
0000
0000
0002
0000
0000
0000
0000
0103
0020
0000
0000
0000
0000
0000
0000
0000
,
1030
0000
0000
1100
0000
0000
1001
0000
0101
0000
0001
0000
0010
0100
0000
0000
,
1010
0000
0000
1001
0000
0000
0101
0000
0000
0000
0001
0000
0100
0000
0000
1001
,
0000
0000
0001
0000
0010
0000
0001
0000
1000
0000
0100
0000
0010
0001
1000
0001
,
0100
0000
0000
0110
0000
0000
1001
0000
0000
0000
1000
0000
1001
0000
0000
0102
,
0000
0000
0000
0000
0000
0000
0000
0000
0013
0100
0000
0000
1000
0001
0000
0000
,
0101
0000
0000
0000
0000
0000
1002
0000
0000
0000
0000
0000
1003
0001
1000
0001
,
0000
0000
0110
0000
0000
1001
0000
0000
0110
0000
0000
0000
0000
0000
0000
0000
;

//---------------dance-single - t7r----------------
#NOTES:
     dance-single:
     t7r:
     Challenge:
     16:
     :
0000
0000
0000
0000
,
0000
0000
0000
0000
,
0000
0000
0000
0000
,
0000
0000
0000
0000
,
0000
0000
0000
0000
,
0000
0000
2002
0000
3003
0000
0010
1000
,
0001
1000
0000
0100
0000
0001
0000
0100
0000
0000
1000
0000
0010
0000
0100
0001
,
1000
0000
0001
0000
0100
0000
0001
0010
0000
0001
1000
0001
0100
0010
1000
0010
,
0000
0100
0010
0000
0010
0000
0000
1010
0000
1000
0001
0100
0010
0000
1000
0001
,
1000
0000
0001
0000
0010
0000
0001
0100
0010
1000
0010
0100
0001
0010
0000
0011
,
0000
1000
0100
0010
0100
1000
0010
0100
0010
0000
1000
0000
0001
0010
0100
0010
,
0000
0010
0001
0100
0001
1000
0010
0100
0010
1000
0001
1000
0001
0010
0100
0010
,
0001
0100
0000
0000
1100
0000
0101
0000
1000
0010
0100
0001
0000
0001
1000
0001
,
0010
0000
0001
0000
1000
0100
0010
0100
1000
0010
0100
0001
1000
0001
0000
1001
,
0000
0001
0100
0010
0100
0001
0000
0011
0000
1000
0100
0010
0100
1000
0000
1100
,
0000
1000
0100
0001
0100
0010
0100
1000
0100
0010
0100
1000
0010
0100
0000
0110
,
0000
0001
0010
1000
0010
0100
0010
0001
0010
0100
0010
0001
0100
0010
1000
0010
,
0000
0010
1000
0001
0100
0001
0010
0001
0100
0010
1000
0100
0010
0100
1000
0001
,
0000
0000
1001
0000
0000
0210
0000
0000
0010
0000
0310
0000
1000
0001
0100
0000
,
0001
0000
0010
0000
0001
0000
1000
0100
0001
0100
1000
0000
0001
0000
1000
0000
,
0001
0000
0010
0000
0001
0000
1000
0010
0001
0010
1000
0000
0001
0000
1000
0000
,
0001
0000
0100
0000
0001
0000
1000
0100
0001
0100
1000
0000
0001
0000
1000
0000
,
0100
0000
1000
0000
0010
0000
0001
0000
0010
0000
1000
0100
1000
0001
0100
0000
,
1001
0000
0100
0000
1000
0000
0001
0010
1000
0010
0001
0000
1000
0000
0001
0000
,
1000
0000
0010
1000
0010
0100
0001
0010
0000
0001
0100
0010
1000
0001
1000
0001
,
0100
0000
0000
0100
0010
0000
0201
0000
0000
0000
0310
0000
1000
0000
0001
1000
,
0001
0010
0000
0000
0012
0000
0000
0000
1003
0001
1000
0000
0001
2000
0000
0000
,
3010
0000
0100
0010
0100
0010
0100
0010
0100
0001
0100
0001
0100
0001
0100
0010
,
0000
0110
0000
0010
0100
0010
0100
0010
0100
0010
1000
0010
1000
0010
0100
0001
,
0000
0011
0000
0001
1000
0001
1000
0001
0100
0010
0100
0010
0100
0010
0100
0010
,
0000
0010
1000
0100
0010
0100
1000
0010
0000
0100
0001
0010
0001
0100
0010
1000
,
0001
0000
1001
0000
1000
0100
1000
0100
0001
0100
0001
0100
1000
0100
0010
0100
,
0000
0110
0000
0010
0001
0100
0001
0100
1000
0100
1000
0100
0001
0010
0100
1000
,
0000
0110
0000
0010
1000
0010
1000
0010
0001
0010
0001
0010
1000
0100
0010
0001
,
0000
0001
0100
0000
0010
1000
0001
0010
0000
0010
0001
0000
1000
0100
0010
0001
,
1000
0000
0000
1100
0000
0000
0100
1000
0010
0100
0000
0001
0000
0010
0000
0001
,
0100
0000
0001
0000
1000
0001
0010
0000
0011
0000
0001
0100
0000
1000
0100
0000
,
0101
0000
1000
0100
0001
0000
0100
0000
1000
0010
0000
0100
0000
0010
1000
0001
,
1000
0000
0010
0000
0100
0001
0010
0000
0100
1000
0000
0100
0001
0000
0100
1000
,
0001
0000
0100
0010
0000
0100
1000
0000
0100
0010
1000
0001
0010
0001
0000
0011
,
0000
0000
1000
0100
0000
0001
0100
0000
0010
0100
1000
0000
0010
0100
0000
0100
,
0001
1000
0001
0100
0001
0010
0001
0010
0100
1000
0000
0010
0000
0100
0000
0110
,
0000
1000
0010
0100
0001
0010
0001
1000
0000
1001
0000
0000
0110
0000
0010
1000
,
0001
0000
0011
0000
0001
0000
1000
0001
0100
0000
0001
0100
0000
0001
0010
0000
,
0001
0000
1000
0001
0100
0000
0001
1000
0010
0000
1000
0010
0000
0001
0010
0000
,
1000
0000
0100
0010
0001
0000
1000
0010
0200
0000
0001
0000
0310
0000
0001
0010
,
0100
0000
1000
0100
0000
0001
0100
0000
0010
0100
1000
0000
0010
0100
0001
0000
,
0100
0000
0000
0100
0010
0000
0100
0001
1000
0000
0001
1000
0010
0100
0001
0020
,
0000
0000
0031
0000
1000
0100
0000
0000
1100
0000
0100
0010
0001
0100
0010
1000
,
0001
0000
0000
0010
0001
0000
0120
0000
0000
0000
0130
1000
0001
1000
0001
0020
,
0000
0000
1030
0000
0100
0010
1000
0000
0001
0010
0001
0000
1000
0001
0000
0001
,
2000
0000
0000
0100
0000
0000
3002
0000
0000
0010
0000
0000
1003
0010
0001
0010
,
0000
0000
0110
0000
0000
1001
0000
0000
0110
0000
0000
0000
0000
0000
0000
0000
;
