#TITLE:鬼姫;
#ARTIST:鬼の子合唱団;
#TITLETRANSLIT:ONIHIME;
#ARTISTTRANSLIT:ONI NO KO GASSHOUDAN;
#BANNER:ONIHIME.png;
#BACKGROUND:ONIHIME-bg.png;
#JACKET:ONIHIME-jacket.png;
#CDTITLE:./CDTITLES/GUITAR FREAKS & DRUMMANIA.PNG;
#MUSIC:ONIHIME.ogg;
#SAMPLESTART:70.164;
#SAMPLELENGTH:15;
#BPMS:0=190,52=155,64=190,69=95,71=190,169=188;
#BGCHANGES:4=ONIHIME.avi=1=0=0=1=====;

//---------------dance-single - t7r----------------
#NOTES:
     dance-single:
     t7r:
     Beginner:
     3:
     :
0000
0000
0000
0000
,
0000
0000
0000
0000
,
0000
0000
0000
0000
,
0000
0000
0000
0000
,
0000
0000
0000
0000
,
1000
0000
0000
0000
,
1000
0000
0000
0000
,
0001
0000
0000
0000
,
0001
0000
0000
0000
,
0100
0000
0000
0000
,
0100
0000
0000
0000
,
0010
0000
0000
0000
,
0010
0000
0000
0000
,
1000
0000
0000
0000
,
1000
0000
0000
0000
,
1000
0000
0000
0000
,
0010
0000
0000
0000
,
0000
0100
0000
0100
,
0000
0000
0000
0000
,
0010
0000
0000
0000
,
0000
1000
0000
0000
,
0000
0000
0001
0000
,
0000
0000
0000
0100
,
0000
0000
0000
0000
,
1000
0000
0000
0000
,
0000
0010
0000
0000
,
0000
0000
0001
0000
,
0000
0000
0000
0100
,
0000
0100
0000
0100
,
0000
0100
0000
0100
,
0000
0100
0000
0100
,
0000
0100
0000
0100
,
0000
0010
0000
1000
,
0000
1000
0000
1000
,
0000
1000
0000
1000
,
0000
1000
0000
0001
,
0000
0001
0000
0100
,
0000
0001
0000
1000
,
0000
0010
0000
0100
,
0000
0010
0000
0010
,
0000
1000
0000
0001
,
0000
1000
0000
0001
,
0001
0001
0000
0000
,
0000
0100
0000
0000
,
0000
0010
0000
0000
,
0000
1000
0000
0000
,
0000
0100
0000
0000
,
0000
0000
0010
0000
,
0000
0001
0000
0001
,
0000
0100
0000
0010
,
0000
1000
0000
1000
,
0000
0001
0000
0010
,
0000
0100
0000
1000
,
0000
0100
0000
0100
,
0000
1000
0000
0010
,
0000
0100
0000
0001
,
0000
1000
0000
0010
,
0000
0100
0000
0001
,
0000
1000
0000
0001
,
0000
0100
0000
0001
,
0000
1000
0000
0100
,
0000
1000
0000
0010
,
0000
0100
0000
0100
,
0000
0100
0000
0100
,
0000
0010
0000
0010
,
0000
0010
0000
0010
,
0000
1001
0000
0100
,
0000
0100
0000
0100
,
0000
0010
0000
0001
,
0000
0010
0000
0100
,
0000
1000
0000
0100
,
0000
1000
0000
0010
,
0000
1000
0000
0001
,
0000
0100
0000
0100
,
0000
0001
0000
1000
,
0000
0010
0000
1000
,
0000
0001
0000
0100
,
0000
0001
0000
0001
,
0000
1000
0000
0000
,
0000
0100
0000
0000
,
0000
0010
0000
0000
,
0000
0001
0000
0000
,
0000
0010
0000
0010
,
0000
0010
0000
0010
,
0000
0100
0000
0000
,
0000
0010
0000
0001
,
0000
1000
0000
0000
,
0000
0000
0000
0000
,
0000
0000
0000
0000
,
0000
0001
0001
0000
,
0000
0000
0000
0000
,
0000
0100
0000
0000
0000
0000
0000
0000
;

//---------------dance-single - t7r----------------
#NOTES:
     dance-single:
     t7r:
     Easy:
     8:
     :
0000
0000
0000
0000
,
0000
0000
0000
0000
,
0000
0000
0000
0000
,
0000
0000
0000
0000
,
0000
0000
0000
0000
,
0010
0010
0010
0010
,
0010
0010
0010
0110
,
0100
0100
0100
0100
,
0100
0100
0100
0110
,
1001
1000
1000
1000
,
1000
1000
1000
1001
,
0001
0001
0001
0001
,
0100
0100
0010
0010
,
1000
0100
0001
0100
,
1000
0010
0001
0010
,
1000
0100
0001
0100
,
1000
0001
1000
0001
,
1000
2002
3003
1000
,
1000
0001
0001
0100
,
0100
0010
1000
0100
,
0010
0002
0000
0013
,
0001
0100
0010
1000
,
0010
0100
0010
1000
,
1000
0001
0001
0100
,
0100
0001
1000
0001
,
0010
0200
0000
0310
,
0001
0010
0100
1000
,
0100
1000
0001
0110
,
1000
0100
0001
0000
1000
0000
0001
0000
,
1000
0100
0001
0000
1000
0000
0001
0000
,
0001
0100
1000
0000
0001
0000
1000
0000
,
0001
0100
1000
0000
0001
0000
1000
0000
,
1001
0001
0110
0010
,
1000
0010
0001
0000
0010
0000
1000
0000
,
0001
0010
1000
0000
0010
0000
0001
0000
,
1000
0010
0001
0000
0010
0000
1000
0000
,
0001
1000
1001
0001
,
1001
0010
0110
1001
,
0110
0000
0010
1000
0100
0000
0010
0001
,
1000
0001
0100
0010
,
1000
0000
0001
1000
0001
0000
1000
0100
,
0001
0000
0000
0000
1000
0000
0001
0000
1000
0000
0000
0000
0001
0000
0000
0001
,
0000
0001
0020
0000
0230
0000
2300
0000
,
3200
0320
0032
0023
,
0032
0203
0320
2030
,
3002
2003
3002
0203
,
0302
0023
0032
0023
,
0230
2300
3200
0302
,
0203
1300
1000
0001
,
0100
0010
1000
0010
,
0100
0001
1000
1001
,
0110
1001
1000
0001
,
0100
0001
0010
0001
,
0100
0010
1000
0001
,
1000
0001
0100
1000
,
0100
0001
1000
0000
0001
0000
1000
0000
,
0010
1000
0001
0000
1000
0000
0100
0000
,
0110
0010
0001
0100
,
0010
0000
1000
0000
0010
0100
0001
0000
,
1000
0000
0001
0000
1000
0001
0100
0000
,
0001
1000
1001
0000
,
0010
0000
0100
0000
0000
0110
0000
0000
,
0010
1001
1000
1000
,
1000
0001
0001
0100
,
0010
0110
0010
0010
,
0010
1000
0010
0100
,
0001
1001
0001
0001
,
0001
0010
0100
1000
,
0100
0110
0010
0001
,
1000
2002
3003
0220
,
0330
0010
1000
0001
,
0100
0010
1000
0001
,
0100
0001
0010
0100
,
1000
0100
0010
0001
,
1000
0010
0100
0001
,
1000
0010
1000
0001
,
0100
0010
0100
0010
,
1000
1001
0000
0101
,
0000
1010
0010
0010
,
0100
0010
1000
0000
1000
0000
1000
0000
,
1000
0001
0100
0000
0100
0000
0100
0000
,
0100
0010
0001
0000
0001
0000
0001
0000
,
0010
1000
0100
0000
1001
0000
0100
0000
,
1001
0010
0100
0010
,
1001
0100
0110
0010
,
0001
2200
3300
0202
,
0303
0000
1000
0000
1000
0000
1000
0001
,
0000
0001
0000
0100
0000
0100
0000
0010
,
0000
0100
0000
0010
0000
1000
0000
0001
,
0000
1000
0100
1000
0100
0000
0000
0001
,
0000
1001
0000
1000
0000
1001
0000
0110
,
0000
2002
0000
0000
0000
0000
0000
0000
,
0000
0000
0000
0000
,
0000
0000
3003
0000
;

//---------------dance-single - t7r----------------
#NOTES:
     dance-single:
     t7r:
     Medium:
     13:
     :
0000
0000
0000
0000
,
0000
0000
0000
0000
,
0000
0000
0000
0000
,
0000
0000
0000
0000
,
0000
0000
0000
0000
,
0001
0000
0001
0100
0000
0000
0010
0000
0000
1000
0000
0000
,
0001
0000
0001
1000
0000
0000
0100
0000
0000
0010
0000
0000
,
0100
0000
0100
1000
0000
0000
0010
0000
0000
0100
0000
0000
,
0010
0000
0010
1000
0000
0000
2002
0000
0000
3003
0000
0000
,
1000
0000
1000
0100
0000
0000
0010
0000
0010
0001
0000
0000
,
0100
0000
0100
0001
0000
0001
0010
0000
0010
1000
0000
0000
,
0010
0000
0010
0001
0000
0000
0100
0000
0100
0010
0000
0000
,
1000
0000
0010
0000
0100
0000
0001
0000
1000
0000
0001
0000
,
1000
0000
0100
0010
0100
0000
1000
0000
0001
0000
0100
0001
0200
0000
0000
0000
,
0310
0000
1000
0001
1000
0000
0001
0000
0100
0000
0010
1000
0020
0000
0000
0000
,
0130
0000
0010
1000
0001
0000
1000
0000
0001
0000
1000
0001
0200
0000
0000
0000
,
0310
1000
0100
0010
0001
0010
0001
0100
,
0010
1000
0020
0000
0030
0000
1000
0100
,
0010
0100
1000
0010
0100
0001
1000
0001
,
0100
0001
0010
0100
1000
0100
0010
0001
,
0100
0010
2000
0000
0000
0000
3010
0000
,
0101
1010
1100
0011
,
0101
0000
0110
0000
1001
0000
0010
0100
,
0001
1000
0010
0100
0001
1000
0100
0010
,
0001
0010
0100
1000
0010
1000
0001
0100
,
0010
0100
0002
0000
0000
0000
1003
0000
,
1010
1100
0011
0110
,
1001
0000
1010
0000
0110
0000
1001
0001
,
1000
0100
0010
0000
0001
1000
0100
0000
,
0010
0001
1000
0000
0010
0100
0000
0100
,
0001
0000
0010
0100
1000
0000
0001
0010
,
0100
1000
0010
0100
1000
0000
0100
0001
,
0010
0000
1001
0000
0010
0100
1001
0010
,
0100
0001
1000
0000
0001
0100
0001
0000
,
1000
0010
1000
0000
0010
1000
0000
1000
,
0001
0000
0100
0010
1000
0000
0010
0001
,
0100
1000
0011
1000
0100
0000
1010
0001
,
0100
0000
0011
1000
0100
1000
1010
1000
,
0001
1000
0001
0100
0020
0000
1030
0001
,
0100
0010
2000
0000
3100
0000
0002
0000
,
0013
0000
1000
0001
1000
0001
0010
0100
,
0010
0000
0100
0000
0010
0000
0001
0000
1000
0000
0100
0000
0011
0000
0000
0101
,
0000
1001
0001
0100
1000
0100
0001
0100
,
1000
0100
0001
0010
1000
0000
0010
0001
,
0100
0001
0010
0001
0100
0001
0010
0001
,
1000
0000
1010
0010
0100
0001
0100
0010
,
1000
0010
0100
0001
1000
0000
0001
0010
,
0100
1000
0001
0100
1000
0100
0001
0010
,
0001
0000
1100
0100
0010
0001
2000
0000
,
3010
0100
0001
1000
0010
1000
0001
0100
,
0010
1000
0001
0010
0200
0000
2300
0000
,
3001
0000
1001
0001
0010
0001
0200
0000
,
0310
1000
0010
0100
0001
0100
0001
1000
,
0100
1000
0010
1000
0001
0100
1000
0100
,
0001
1000
0001
0010
0100
1000
0020
0000
,
0130
0000
0010
1000
0001
0100
0001
1000
,
0001
0000
1000
0001
0010
0100
2000
0000
,
3100
0000
1000
0010
0100
0010
1000
0010
,
0100
0001
1000
0001
1000
0000
0001
0100
,
0001
0000
1000
0010
1000
0000
0010
0100
,
0001
0000
1000
0100
0110
0000
0000
0010
,
0001
0010
0011
0001
0100
1001
0000
0001
,
1000
0001
2000
0000
3010
0100
0001
0100
,
0010
1000
0010
0100
0001
1000
0010
1000
,
0001
1000
0200
0000
0310
0001
0010
0100
,
1000
0100
2000
0000
3020
0000
0230
0000
,
0301
0000
1001
0000
0001
1000
0010
1000
,
0100
0010
0001
0010
0100
1000
0100
1000
,
0010
0100
0020
0000
1030
0010
0100
0001
,
1000
0000
1001
0000
0001
1000
0100
0000
,
1000
0000
0001
0000
0010
0000
0001
0000
0100
0000
0010
0000
1000
0000
0000
0001
,
0010
0000
0000
0000
0100
0000
0010
0000
1000
0000
0010
0000
0100
0000
0000
1000
,
0001
0000
1000
0001
0100
0000
0001
1000
,
0100
0000
0000
0000
1000
0000
0010
0000
0100
0000
0001
0000
0100
0000
0000
0001
,
0010
0000
1000
0100
0001
0000
0001
0100
,
1000
0000
1000
0010
0001
0000
0001
0010
,
1000
0000
1000
0010
1000
0001
0100
0001
,
1000
0010
0100
0001
1000
0001
2002
0000
,
3003
0000
1010
0000
0100
0010
0001
0010
,
0100
1000
0100
0000
1000
0010
0100
0001
,
0100
0010
1000
0000
0010
1000
0001
0100
,
0001
1000
0010
1000
0100
0000
0010
0001
,
1000
0000
1001
0000
0010
0100
0010
1000
,
0001
1000
0002
0000
0103
0000
0200
0000
,
0310
0000
0020
0000
1030
0010
0100
0001
,
1000
0000
0001
1000
0100
1000
0001
1000
,
0010
1000
0001
0100
0010
1000
0000
1010
,
0000
0101
0000
1000
0100
0010
0001
0010
,
0100
1000
0000
0101
0000
1100
0000
1000
,
0010
1000
0001
0100
0001
1000
0000
1001
,
0000
0110
0000
1001
0000
0101
0000
0110
,
0000
2002
0000
0000
0000
0000
0000
0000
,
0000
0000
0000
0000
,
0000
0000
3003
0000
;

//---------------dance-single - t7r----------------
#NOTES:
     dance-single:
     t7r:
     Hard:
     16:
     :
0000
0000
0000
0000
,
0000
0000
0000
0000
,
0000
0000
0000
0000
,
0000
0000
0000
0000
,
0000
0000
0000
0000
,
0010
0000
0100
0001
0000
0000
0010
0000
0100
1000
0000
0000
,
0001
0000
0100
0001
0000
0100
0010
0000
0100
0001
0000
0000
,
1000
0000
0100
0010
0000
0000
0100
0000
1000
0010
0000
0000
,
0100
0000
0010
0100
0000
0001
0100
0000
0000
0110
0000
0000
,
1001
0000
0001
0010
0000
0010
1000
0000
1000
0010
0000
0010
,
0001
0000
0001
0100
0000
0100
1000
0000
0000
1100
0000
0000
,
0110
0000
0010
1000
0000
1000
0001
0000
0001
1000
0000
1000
,
0001
0000
0101
0000
1100
0000
1001
0000
1010
0000
0011
0000
,
1100
0000
0001
0000
1000
0001
1000
0000
0001
0000
0100
0001
0100
0010
0100
0000
,
0001
0000
1000
0000
0001
0010
0001
0000
1000
0000
0100
0010
0100
1000
0100
0000
,
1000
0000
0010
0000
0100
0001
1000
0000
0001
0000
0010
0100
1000
0100
0010
0000
,
0001
0000
1000
0000
0001
0000
1000
0000
0001
1000
0001
1000
0001
1000
0002
0000
,
0000
0000
0000
0000
0003
0000
1000
0100
,
0010
0000
0000
0001
0100
0000
0001
0000
0010
0000
0000
0001
1000
0000
0001
0000
,
1000
0000
0010
0000
0100
0000
0000
0010
1000
0000
0001
0000
1000
0000
0000
0001
,
0010
0100
0010
0000
0001
0000
1000
0000
0010
0000
0000
1000
0100
0000
1000
0000
,
0010
0000
0000
0100
0001
0000
1000
0000
0001
0000
0010
0000
0100
0000
0000
0010
,
0001
0000
1000
0000
0010
0000
0000
1000
0001
0100
0001
0000
0010
0000
0001
0000
,
0100
0000
0000
1000
0100
0000
0001
0000
0010
0000
0000
0001
0010
0000
1001
0000
,
0010
0000
0100
0000
1000
0000
0000
0010
0100
0000
0001
0000
1000
0000
0000
0100
,
0010
0000
1001
0000
0100
0000
1000
0000
0010
0000
0000
0100
0001
0000
0010
0000
,
1000
0000
0000
0010
0001
0000
1100
0000
0001
0000
0100
0000
0010
0000
0000
0100
,
0001
0000
1000
0000
0001
0100
0010
0100
0001
1000
0001
1000
0100
0000
0100
0000
,
1001
0100
0100
0000
1001
0100
0100
0000
,
1001
0010
0010
0000
1001
0100
0000
0100
,
1001
0000
0100
0100
1001
0000
0100
0100
,
1001
0100
0100
0100
1010
0000
0001
0100
,
1010
0000
0000
0000
1001
0000
0000
0000
1000
0001
0100
0000
0010
0000
0100
0000
,
1001
0100
0100
0000
1001
0010
0010
0000
,
1001
0100
0100
0000
1001
1000
0000
1000
,
0001
0000
0000
0000
0010
0000
0100
1000
0001
0000
1000
0000
0001
1000
0001
1000
,
0010
0000
1000
0001
0100
0000
0001
0000
1001
0000
0000
0001
0010
0001
0000
0000
,
1001
0000
0000
1000
0100
0000
1000
0000
0010
0000
0100
0000
1001
0000
0010
1000
,
0100
0000
1000
0000
0100
0010
0100
0010
0001
0000
0100
0010
0100
0000
0010
1000
,
0001
0000
1000
0000
0001
0000
1000
0100
1000
0000
0001
0000
0100
0000
0001
0010
,
0001
1000
0001
1000
0100
0001
0100
1000
,
0010
0000
0001
0000
0010
0000
1000
0100
0010
0000
0001
0010
1000
0000
0000
0011
,
0000
1100
0001
0100
0010
1000
0001
0010
,
0100
0000
1000
0000
0001
0010
0001
0010
0100
0000
0000
0000
1000
0000
0010
0000
,
0100
0000
0001
0000
1000
0000
0100
0000
0010
0000
0001
0000
1000
0100
1000
0100
,
0010
0000
1001
0010
0100
0001
1000
0010
,
0001
0000
0010
0000
1000
0100
0010
0100
1000
0000
0000
0000
0001
0000
0010
0000
,
0100
0000
1000
0000
0001
0000
0010
0000
1000
0000
0010
0000
0001
0100
0001
0100
,
0010
0000
1001
0100
0010
0100
0010
1000
,
0100
0001
0100
1000
0010
0100
0001
0010
,
1000
0010
0001
1000
0100
0001
0100
0000
,
1100
0000
0100
0010
0001
0000
1000
0000
0010
0000
0001
0000
0010
0000
1000
0000
,
0100
0000
0010
0000
0001
0000
1000
0010
1000
0000
0010
1000
0100
0000
1000
0100
,
1000
0000
0001
0000
0100
0000
0001
0010
0001
0000
1000
0000
0001
0000
1000
0001
,
0100
0000
0010
0000
1000
0000
0100
1000
0100
0000
1000
0000
0010
0000
0000
0010
,
0100
0000
0001
0000
0100
0000
0001
0010
0001
0000
1000
0000
0001
0000
0000
0001
,
1000
0000
0100
0000
0010
0000
0100
1000
0100
0000
0010
0000
0001
0000
0000
0001
,
0100
0000
0010
0000
0100
0000
0001
0010
0100
0000
1000
0000
0010
0000
1000
0001
,
0100
0000
0001
0000
1001
0000
0010
1000
0010
0000
1000
0000
0100
0000
0000
0100
,
1000
0000
0001
0000
0110
0000
0010
1000
0010
1000
0010
0000
0100
0001
0100
0000
,
0001
0000
1000
0001
0100
0000
0100
0000
1001
0000
0000
0000
0001
0000
0010
0100
,
1000
0000
0100
0000
0110
0000
0001
0000
0001
0000
0110
0000
0000
0000
1000
0100
,
1000
0001
1001
0000
1000
0010
0001
0010
,
1000
0000
0010
0000
0001
0000
0010
0000
1000
0000
0010
0000
0001
0000
0010
1000
,
0100
1000
1001
0000
0001
0010
1000
0010
,
0001
0000
0010
0000
1000
0000
0010
0000
0001
0000
0100
0010
1000
0000
0010
0000
,
0100
0010
0100
0000
0110
0000
0000
0000
0010
0000
1000
0000
0100
0000
1000
0000
,
0010
0001
0100
0001
0010
1000
0100
1000
,
0010
0000
0100
0000
1010
0000
0000
0001
0100
0000
0001
0000
0010
0001
0010
0001
,
1000
0000
0000
0000
0001
1000
0001
1000
0100
0000
1000
0000
0100
1000
0100
1000
,
0010
0000
0100
0000
0001
0000
0000
0001
0100
0000
0001
0000
0010
0001
0000
1000
,
0001
0000
0100
0000
1000
0000
0000
1000
0100
0000
0010
0000
1000
0001
0000
0100
,
0001
0000
0010
0000
0001
0000
0000
0001
0010
0000
0001
0000
1000
0100
0000
0010
,
0100
0000
1000
0000
0010
0000
0000
0010
0100
0000
0001
0000
0100
0010
0100
0010
,
1000
0001
1000
0001
1000
0000
0000
1000
0100
0000
0010
0000
0100
1000
0000
0001
,
0010
0000
0001
0000
0100
0000
0000
0100
1000
0000
0100
0000
0001
0010
0000
1000
,
0010
0000
0001
1000
0100
0000
0000
1000
0001
0000
0010
0000
0001
0100
0000
0001
,
1000
0000
0010
0100
1000
0000
0100
0010
1000
0000
1001
0000
0000
0000
0001
0010
,
0100
1000
0001
0000
1100
0000
0000
0100
0010
0000
0010
0000
0110
0000
0000
0010
,
0100
0000
0010
0000
0011
0000
0000
0001
1000
0000
1000
0000
1001
0000
0000
1000
,
0001
0000
1000
0000
1010
0000
0000
0010
1000
0000
0010
0000
1010
0000
0000
0010
,
0100
0000
0010
0000
0101
0000
0001
0100
0010
0000
1000
0100
0010
0000
0001
1000
,
0100
1000
0010
0000
0110
0000
0010
0000
1000
0000
0100
0000
0001
0000
0100
0000
,
1000
0010
1000
0100
0001
0100
1000
0100
,
0010
0000
0001
0000
0100
0000
0010
0000
0001
0000
0100
0000
0010
0100
1000
0000
,
0010
0100
0001
0000
0100
0010
0100
0010
1000
0000
0001
0000
1000
0001
0100
0000
,
0001
1000
0001
1000
0001
0000
1000
0000
0100
0000
0010
0000
0000
0000
1100
0000
,
0000
0000
0101
0000
0000
0000
1000
0010
1000
0010
0100
0000
0001
0000
0010
0000
,
1000
0000
0000
0010
0000
0000
0000
0000
0000
0101
0000
0000
0000
0000
0000
1010
0000
0000
1000
0000
0001
0000
1000
0000
,
0010
0000
0100
0000
0010
0000
0110
0000
0000
0100
0000
0000
0101
0000
0000
0100
0000
0000
0100
0000
0000
1100
0000
0000
,
0100
0011
0000
1010
0000
1001
0000
0110
,
0000
2002
0000
0000
0000
0000
0000
0000
,
0000
0000
0000
0000
,
0000
0000
3003
0000
;

//---------------dance-single - t7r----------------
#NOTES:
     dance-single:
     t7r:
     Challenge:
     18:
     :
0000
0000
0000
0000
,
0000
0000
0000
0000
,
0000
0000
0000
0000
,
0000
0000
0000
0000
,
0000
0000
0000
0000
,
0001
0000
0010
0100
0000
0010
0001
0000
1000
0100
0010
0001
,
1000
0000
0001
0100
0000
0010
1000
0000
0001
0010
0100
0010
,
0001
0000
1000
0100
0000
0001
0100
0000
1000
0010
0001
0010
,
1000
0000
0001
0010
0000
0100
0010
0001
1000
0010
0100
0010
,
1000
0000
0001
0100
0000
1000
0100
0000
0001
0010
0100
0010
,
0001
0000
1000
0100
0000
0001
0100
1000
0010
0100
0001
1000
,
0010
0000
1000
0010
0000
0001
0010
0000
1000
0001
0000
0100
,
0001
0000
0011
0000
1001
0000
1010
0000
1001
0000
0110
0000
,
1001
0000
0100
0010
0100
0010
1000
0000
1100
0000
0001
0010
0100
0010
0001
0000
,
0101
0000
0010
0100
0001
0100
0010
0000
1001
0000
0010
1000
0100
1000
0010
0000
,
1001
0000
1000
0100
0001
0100
1000
0000
0001
0010
1000
0010
0001
1000
0001
0100
,
0010
0100
0010
0100
0001
0100
0001
0100
1000
0100
1000
0100
0010
0100
0001
1000
,
0200
0000
0010
0000
1000
0001
0020
0000
0000
0000
0330
0000
1001
0000
0010
0000
,
0100
0000
0010
1000
0010
1000
0001
0000
1000
0000
0001
0100
0010
0000
0100
0000
,
0001
0000
0010
0000
0100
0000
0010
0001
0010
0001
1000
0000
0001
0000
1000
0010
,
0100
0010
1000
0000
0001
0000
0010
0000
0100
0000
0010
0001
0100
0001
0010
0000
,
0001
0000
1000
0100
0010
0000
0100
0000
1000
0000
0010
0000
0100
0000
0010
1000
,
0100
1000
0010
0000
1000
0000
0001
0010
0100
0010
0001
0000
1001
0000
0010
0000
,
1010
0000
1000
0100
0010
0100
1000
0000
1100
0000
1000
0100
0010
0000
1001
0000
,
0001
0000
0100
0000
1010
0000
0100
0001
0100
0010
0100
0000
1001
0000
0001
0010
,
0100
0000
1001
0000
1000
0000
0100
0000
0110
0000
0100
1000
0010
1000
0001
0000
,
0110
0000
0001
0100
0010
0000
0110
0000
0010
0000
1000
0000
1001
0000
1000
0100
,
0001
0100
1000
0000
0011
0000
0001
0100
1000
0010
0100
0000
1100
0000
0010
0100
,
1000
0000
0100
0000
1100
0000
0010
0100
1000
0000
0100
0000
1100
0000
0100
0010
,
0001
0000
0100
0000
0101
0000
0001
0100
0010
0000
0101
0000
0010
0000
0100
0010
,
1000
0000
0000
0000
1100
0000
0010
0100
1000
0000
0100
0000
1100
0000
0100
0010
,
0001
0000
0100
0000
0101
0000
0001
0100
0010
0000
0100
0000
0110
0000
0001
0100
,
0010
0000
0100
0000
1001
0000
0010
1000
0100
1000
0010
0000
1001
0000
0010
0100
,
1000
0000
0100
0000
0110
0000
0010
0001
0100
0000
0001
0000
0101
0000
0001
0100
,
0010
0000
0100
0000
0110
0000
0100
0001
0010
0000
0100
0000
1100
0000
1000
0010
,
0100
0000
0000
0000
1010
0000
0010
1000
0001
0000
1000
0000
0001
0010
0001
0010
,
0100
1000
0010
1000
0001
0000
0100
0010
1000
0010
0100
0000
0001
0000
1000
0100
,
0010
0100
1000
0000
0001
0000
0100
0001
0100
0000
0010
1000
0001
0000
0001
0010
,
0100
0010
0001
0010
0001
1000
0001
1000
0001
0000
0100
0010
0100
0000
0010
1000
,
0100
1000
0010
1000
0002
0000
0013
0100
1000
0000
0010
0000
0200
0000
0310
1000
,
0001
1000
0001
0011
0001
0011
1000
1100
,
1000
0000
1100
0000
0010
0000
0110
0000
0010
0100
0001
1000
0001
0000
0000
1001
,
0000
1100
0002
0023
2030
3020
0032
0203
,
0320
0000
2030
0000
3001
0100
0010
0100
0002
0000
0000
0000
2003
0000
3200
0000
,
0302
0000
0203
0000
2300
0000
3020
0000
0032
0000
0023
0000
1030
0001
0100
0001
,
2000
0000
0000
0000
3010
1000
0010
1000
0010
0000
0001
0100
0001
0100
0001
0100
,
0001
0010
0001
0010
0001
0010
0001
1000
0001
0000
0000
0000
1000
0100
1000
0100
,
1000
0100
1000
0010
1000
0010
1000
0010
1000
0001
1000
0001
1000
0001
0010
0100
,
0010
0000
2001
3200
0320
0230
1300
0010
,
0101
0000
0010
0000
1000
0000
0100
0000
0010
0100
1000
0000
0001
0000
0100
0000
,
0010
0100
0001
0100
0010
0000
1000
0000
0001
0010
0100
0000
0010
0001
0100
0001
,
1000
0001
1000
0001
1000
0000
0100
0010
0100
0000
1000
0010
0100
0000
0001
0100
,
0010
0000
0100
0010
0100
0000
1001
0000
0100
0010
0100
0000
1010
0000
0001
0100
,
0001
0100
0001
0010
0100
0010
0001
1000
0100
0010
0001
1000
0010
1000
0100
1000
,
0010
1000
0001
1000
0001
0000
0100
0010
0100
0000
0001
1000
0020
0000
1000
0000
,
0100
0000
1030
0000
0001
0000
1000
0100
1000
0000
0001
1000
0200
0000
1000
0000
,
0010
0000
0301
0000
1000
0000
0100
0010
0001
0000
0100
0010
2000
0000
0010
0000
,
0100
0000
3001
0000
0100
0000
0010
1000
0100
0000
0010
0001
0100
0010
0100
0010
,
1000
0001
1000
0001
1000
0000
0001
0010
0100
0000
0010
0001
0200
0000
1000
0000
,
0010
0000
0301
0000
1001
0000
0010
0100
0010
0000
1000
0001
0100
0001
0100
0001
,
1000
0100
1000
0100
0010
0000
0100
0000
2100
0000
0000
0000
0000
0000
3001
0100
,
0001
0000
0100
0010
1001
0000
0100
0000
0100
0000
1002
0000
0000
0000
1003
0010
,
1000
0000
0001
0100
0002
0000
0010
0000
0010
0000
1000
0000
1000
0000
0100
0000
,
0100
1003
2000
0010
0010
0001
0100
0100
,
0010
3010
0200
0010
0010
1000
1000
0001
,
0001
0310
0002
0100
0100
1000
1000
0010
,
0013
0100
1000
0000
2001
0000
0010
0000
0001
0000
3100
0000
0020
0000
0100
0000
,
0001
1030
0002
0010
1000
0103
2000
0010
,
0100
0000
3001
0000
0110
0000
0001
1000
0100
0000
1000
0001
0010
0001
0100
0010
,
1000
0000
0000
0000
0001
0100
0001
0100
0001
0000
1000
0001
0000
0001
0010
0000
,
0001
0010
0100
1000
0001
0000
1000
0100
0001
0000
0100
1000
0020
0000
1000
0000
,
0001
0000
0130
0000
0001
0000
1000
0100
0001
0000
1000
0010
0002
0000
0010
0000
,
1000
0000
0103
0000
0010
0000
0100
0001
0010
0000
0100
1000
0020
0000
1000
0000
,
0100
0000
0031
0000
1000
0000
0100
0010
0001
0000
0100
0000
0010
0100
0010
0100
,
0001
1000
0001
1000
0001
0000
0010
0001
0100
0000
0001
0000
2000
0000
0010
0000
,
0100
0000
3001
0000
0100
0000
0010
0100
0001
0000
1000
0000
0002
0000
0010
0000
,
1000
0000
0103
0000
1000
0000
0001
0100
0001
0000
1000
0000
0001
0000
0010
0001
,
0010
0000
0001
1000
1001
0000
0100
0010
0100
0000
1001
0000
0010
0100
0010
0100
,
0001
0100
1000
0100
0001
0000
0010
0001
0010
0001
0010
0001
1000
0100
1000
0100
,
1000
0100
1000
0010
1000
0000
0010
0100
0010
0100
0010
0100
0001
1000
0001
1000
,
0001
1000
0001
0010
0001
0000
1000
0100
1000
0100
1000
0100
1000
0010
1000
0010
,
1000
0010
1000
0001
0100
0000
0010
0100
0001
0000
1000
0100
0001
0000
0100
1000
,
0010
0000
0100
0001
0011
0000
0100
0000
1010
0000
0010
0000
1010
0000
0010
0000
,
1010
0010
1001
1000
1001
1000
1100
0100
,
0010
0100
1000
0000
0110
0000
0001
1000
0100
1000
0001
0000
1000
0001
0010
0001
,
0100
0001
0010
0001
1000
0100
1000
0100
1000
0100
0010
0100
1000
0001
0100
0010
,
1000
0001
1000
0001
1000
0000
1010
0000
0010
0000
1010
0000
0010
0000
1001
0000
,
0000
0000
1100
0000
0000
0000
0011
0000
0010
0001
0010
0001
1001
0000
0001
0000
,
1001
0000
0000
0001
0000
0000
0000
0000
0000
0110
0000
0000
0000
0000
0000
0110
0000
0000
0010
0000
1000
0000
0100
0000
,
0001
0000
0100
0000
1000
0000
0001
0000
0000
0100
0000
0000
0101
0000
0000
0100
0000
0000
0100
0000
0000
1100
0000
0000
,
0100
0011
0000
1001
0000
0110
0000
1100
,
0000
0022
0000
0000
0000
0000
0000
0000
,
0000
0000
0000
0000
,
0000
0000
0033
0000
;
