#TITLE:嘆きの樹;
#ARTIST:金獅子;
#TITLETRANSLIT:Nageki no ki;
#ARTISTTRANSLIT:KINJISHI;
#BANNER:Nageki no ki.png;
#BACKGROUND:Nageki no ki-bg.png;
#JACKET:Nageki no ki-jacket.png;
#CDTITLE:./CDTITLES/BEATMANIA IIDX.PNG;
#MUSIC:Nageki no ki.ogg;
#SAMPLESTART:64.5;
#SAMPLELENGTH:15;
#BPMS:0=160;

//---------------dance-single - t7r----------------
#NOTES:
     dance-single:
     t7r:
     Beginner:
     2:
     :
0000
0000
0000
0000
,
0000
0000
0000
0000
,
0000
0000
0000
0000
,
0000
0000
0000
0000
,
0000
0000
0000
0000
,
0000
0000
0000
0000
,
0000
0000
0000
0000
,
0010
0000
1000
0000
,
0000
0000
0000
0000
,
0000
0000
0000
0000
0000
0001
0000
0000
,
0000
0000
0000
0000
,
0100
0000
0100
0000
,
0010
0000
0000
0000
,
1000
0000
1000
0000
,
0001
0000
0000
0000
,
0000
1000
0000
0001
,
0000
0100
0000
0010
,
0000
1000
0000
0001
,
0002
0000
0000
0003
,
0010
0000
0100
0000
,
0010
0000
0100
0000
,
2000
0000
0000
0000
,
0000
0000
0000
3000
,
0001
0000
0100
0000
,
0001
0000
0010
0000
,
1000
0000
0100
0000
,
0020
0000
0000
0030
,
0000
0100
0000
0010
,
0000
1000
0000
0001
,
0000
0100
0000
0001
,
0001
0000
1000
0000
,
0000
0010
0000
1000
,
0000
0100
0000
0010
,
0000
0001
0000
0100
,
0100
0000
0010
0000
,
2000
0000
0000
3000
,
0002
0000
0000
0003
,
0200
0000
0000
0300
,
0020
0000
0000
0030
,
1000
0000
0001
0000
,
0100
0000
0000
0000
,
0000
0000
0000
0000
,
0020
0000
0000
0030
,
0100
0000
0010
0000
,
1000
0000
0001
0000
,
0100
0000
0010
0000
,
0001
0000
1000
0000
,
0002
0000
0000
0003
,
2000
0000
0000
3000
,
0000
0010
0000
0100
,
0000
1000
0000
0001
,
0001
0000
1000
0000
,
0001
0000
0100
0000
,
1000
0000
0001
0000
,
1000
0000
0100
0000
,
0010
0000
0100
0000
,
0001
0000
1000
0000
,
0001
0000
0100
0000
,
0010
0000
1000
0000
,
0100
0000
0000
0000
,
0010
0000
0000
0000
,
1000
0000
0000
0000
,
0001
0000
0000
0000
,
0000
0100
0000
0001
,
0000
1000
0000
0010
,
0000
1000
0000
0100
,
0000
0010
0000
0001
,
0002
0000
0000
0000
,
0000
0000
0000
0003
,
0000
0000
0000
0000
,
0000
0000
0000
0000
,
0000
0000
0000
0000
,
2000
0000
0000
3000
,
0002
0000
0000
0003
,
0020
0000
0000
0030
,
0200
0000
0000
0300
,
0010
0000
0100
0000
,
1000
0000
0000
0000
,
0000
0000
0000
0000
,
0020
0000
0000
0030
,
0100
0000
0010
0000
,
1000
1000
0000
0000
;

//---------------dance-single - t7r----------------
#NOTES:
     dance-single:
     t7r:
     Easy:
     5:
     :
0000
0000
0000
0000
,
0000
0000
0000
0000
,
0000
0000
0000
0000
,
0000
0000
0000
0000
,
0000
0000
0000
0000
,
0000
0000
0000
0000
,
0000
0000
0000
0000
,
0010
0000
2002
3003
,
0100
0000
0000
0000
0000
0010
0000
0000
,
0000
1000
0000
0000
0000
0002
0000
0000
,
0000
0000
0000
0003
,
1001
1000
1000
1000
,
0001
0001
0001
0001
,
0100
0100
0100
0100
,
0010
0010
0010
0010
,
1001
1000
0010
0010
,
0100
0100
0001
0001
,
0010
0010
0100
0100
,
2002
0000
0000
3003
,
0010
1000
0001
0100
,
0001
1000
0100
0010
,
0002
0003
2000
3000
,
0020
0030
0200
0300
,
0010
0100
0001
0100
,
1000
0100
0010
0001
,
1000
1000
0001
0001
,
0100
0001
1000
0100
,
0010
2000
3000
0002
,
0003
0200
0300
0020
,
0030
0200
0300
0001
,
1000
0001
0010
0100
,
1000
0200
0300
0020
,
0030
0002
0003
0020
,
0030
0200
0300
1000
,
0100
1000
0001
0100
,
0020
0030
2000
3000
,
0002
0003
0200
0300
,
0002
0003
0020
0030
,
0002
0003
2000
3000
,
0020
0030
0200
0300
,
0010
0000
0100
0000
,
0010
0000
1000
0000
,
2002
0000
0000
3003
,
1000
0000
0002
0003
,
0020
0030
0200
0300
,
0010
0000
0200
0300
,
0020
0030
2000
3000
,
2002
0000
0000
3003
,
0220
0000
0000
0330
,
0020
0030
2000
3000
,
0001
0001
0200
0300
,
0010
1000
0002
0003
,
0010
0001
0200
0300
,
0010
1000
0002
0003
,
0010
1000
0200
0300
,
0010
0100
2000
3000
,
0010
0100
0002
0003
,
1000
1001
0000
1001
,
0010
0010
0100
0100
,
0002
0000
0000
1000
0000
0000
1003
0000
,
2000
0000
0000
0001
0000
0000
3001
0000
,
0002
0000
0000
0010
0000
0000
1003
0000
,
2000
0000
0000
0010
0000
0000
3001
0000
,
1000
0001
0200
0300
,
0001
1000
0200
0300
,
0010
0001
2000
3000
,
0010
1000
0001
0100
,
0020
0000
0000
0000
,
0000
0000
0000
0030
,
0200
0000
0310
0000
,
2000
0000
3200
0000
,
0320
0000
0032
0000
,
1003
0002
0003
2000
,
3000
0020
0030
0200
,
0300
0002
0003
2000
,
3000
0200
0300
0010
,
0100
0002
0003
0100
,
0010
0000
1000
0000
,
0001
0000
0100
0000
,
2002
0000
0000
3003
,
0010
0000
0000
1000
0000
0000
0001
0000
,
1001
2002
0000
0000
,
0000
0000
0000
3003
;

//---------------dance-single - t7r----------------
#NOTES:
     dance-single:
     t7r:
     Medium:
     8:
     :
0000
0000
0000
0000
,
0000
0000
0000
0000
,
0000
0000
0000
0000
,
0000
0000
0000
0000
,
0000
0000
0000
0000
,
0000
0000
0000
0000
,
0000
0000
0000
0000
,
0010
0000
2002
3003
,
0100
0000
0000
0000
0000
0010
0000
0000
,
0000
1000
0000
0000
0000
0001
0000
0010
,
0000
0100
0000
0100
0000
0100
0000
0100
,
0010
0001
1000
0100
,
1000
0010
0100
0001
,
1000
1001
0001
0100
,
0001
1001
1000
0100
,
1002
0103
0020
1030
,
2000
3100
0020
0031
,
2000
3010
0200
0301
,
2002
0000
0000
3003
,
0010
1000
0000
0001
0100
0001
0000
1000
,
0100
1000
0000
0010
0001
0010
0000
1000
,
0020
0000
0030
0100
0002
0000
0003
1000
,
0200
0000
0300
0010
0001
2000
0000
3002
,
0000
2003
0000
3001
1000
0200
0000
0320
,
0000
0130
0010
0200
0000
0320
0000
0130
,
0001
0200
0000
0000
1300
0100
0001
0100
,
1000
0000
1001
0000
0010
0100
0010
0000
,
1002
0000
1003
0100
2000
0000
3010
0100
,
0020
0000
0130
0001
0200
0000
0301
0100
,
0002
0000
1003
0001
2000
0000
3010
0000
,
0100
0010
0100
0000
1000
1000
0001
0000
,
2001
0000
3001
0100
0002
0000
0013
0100
,
0020
0000
0130
1000
0200
0000
1300
0100
,
2000
0000
3001
0010
0002
0000
1003
0000
,
0100
1000
0001
0000
0001
0001
0100
0000
,
0001
2000
0000
0000
3001
0200
0000
0000
,
0310
2000
0000
0000
3100
0020
0000
0000
,
0031
0020
0000
0000
0031
0200
0000
0000
,
0310
2000
0000
0000
3100
2000
0000
0000
,
3001
0200
0000
0000
0310
2000
0000
3001
,
1000
0000
0000
0001
0000
0000
0100
0000
0001
0000
0000
1000
0000
0000
0010
0000
,
0000
0100
0000
0000
0001
0000
0000
1000
0000
0000
0100
0000
0010
0000
0001
0000
,
2000
0000
0000
3000
,
1001
0000
0101
0000
0001
0100
0001
0000
,
2010
0000
3200
0000
,
0310
0000
0110
0000
0010
1000
0001
0000
,
0102
0000
0203
0310
,
2002
0000
3003
0000
1000
0001
0100
0000
,
2002
3003
0010
0110
,
0001
1000
0010
0000
1000
0001
0010
0000
,
1000
0100
0010
0000
1000
0002
0000
0000
,
1003
0000
1100
0000
1000
0010
0200
0000
,
0301
0101
2002
3003
,
0010
0000
1010
0000
1000
0001
0020
0000
,
0130
1100
2002
3003
,
0220
0000
0330
0000
0010
0100
0001
0000
,
2002
0000
3003
0000
0001
0010
0100
0000
,
1000
0100
0020
0000
0130
0010
0200
0000
,
1300
0100
0001
0100
1000
0100
0001
0100
,
1000
0000
0000
1001
0000
0000
0001
0000
,
0101
0000
0000
0101
0000
0000
0010
0000
,
1001
0000
0000
1100
0000
0000
0010
0000
,
0110
0000
0000
0110
0000
0000
0010
0000
,
1001
0000
0100
0000
0010
0100
0010
0000
,
1001
0000
1000
0000
0001
0100
0001
0000
,
1001
0000
0010
0000
0100
0010
0100
0000
,
1001
0000
0000
0110
0000
1000
0001
0100
,
0020
0000
0000
0030
,
0200
0000
0000
0300
,
0020
0000
1030
0000
,
0002
0000
0023
0000
,
0230
0000
2300
0000
,
3100
0020
0000
0030
0010
0200
0000
0300
,
0100
2000
0000
3000
1000
0002
0000
0003
,
0001
0200
0000
0000
0310
2000
0000
3000
,
1000
0200
0000
0000
0310
0002
0000
0003
,
0001
0100
0001
0000
1000
0010
1000
0001
,
0100
0000
0000
0010
0000
0000
0100
0000
0010
0000
0000
1000
0000
0000
0001
0000
,
0000
0100
0000
0000
0001
0000
0000
1000
0000
0000
0100
0000
1000
0000
0001
0000
,
0020
0000
0000
0030
,
0100
0010
0001
0100
0010
1000
0001
0100
,
0110
2020
0000
0000
,
0000
0000
0000
3030
;

//---------------dance-single - t7r----------------
#NOTES:
     dance-single:
     t7r:
     Hard:
     13:
     :
0000
0000
0000
0000
,
0000
0000
0000
0000
,
0000
0000
0000
0000
,
0000
0000
0000
0000
,
0000
0000
0000
0000
,
0000
0000
0000
0000
,
0000
0000
0000
0000
,
0010
0100
0000
0000
2002
0000
3003
0001
,
0010
0000
0001
0000
0000
0001
0100
0000
0010
0000
1000
0000
0000
1000
0100
0000
,
0010
0001
0000
0000
0100
0010
0000
0000
,
0000
0010
0000
0000
0000
0010
0000
0000
,
1001
0010
1000
0011
,
1000
0010
0100
1010
,
0001
0100
0010
1001
,
0100
0000
0010
0000
0001
0000
0100
0010
,
1001
1100
0100
1001
,
1001
0101
0100
1001
,
0010
0000
1010
0000
0001
0001
1000
1000
,
2100
0000
0000
0100
0200
0000
3300
0000
,
0001
0010
0100
0000
0020
0000
0130
2000
,
0000
3002
0000
1003
0200
0000
0000
0310
,
0001
0020
0000
0031
1000
0002
0000
1003
,
0010
2000
0000
3010
0100
0010
0100
0002
,
0000
0000
1003
0001
0010
0200
0000
0310
,
0100
0010
0001
0200
0000
0000
0310
0100
,
0001
0200
0000
0301
0100
0001
1000
0100
,
1000
0010
0100
0001
1000
0010
0100
0001
,
1000
0000
0100
0000
0010
0001
0010
0000
0001
0000
0100
0000
0010
1000
0010
0000
,
1000
0000
0001
0000
0100
0010
0100
0000
0001
0000
1000
0000
0100
0010
0100
0000
,
0010
0000
0001
0000
0100
0001
0100
0000
0001
0000
1000
0000
0001
0100
0001
0000
,
0001
0001
0100
0100
0010
0010
1000
1000
,
1000
0000
0100
0000
0010
0100
0010
0000
0100
0000
0010
0000
0001
0010
0001
0000
,
0001
0000
0100
0000
0010
0100
0010
0000
0100
0000
0010
0000
1000
0010
1000
0000
,
1000
0000
0010
0000
0100
0010
0100
0000
0001
0000
0100
0000
0010
0100
0010
0000
,
1000
1000
0001
0001
0010
0010
0100
0100
,
0001
0200
0000
1300
0100
2000
0000
3010
,
1000
0020
0000
1030
0001
0200
0000
0301
,
0100
0002
0000
1003
0100
2000
0000
3010
,
0100
0020
0000
0130
0001
0200
0000
0301
,
1000
0200
0000
1300
0100
0002
0000
0103
,
0010
0000
0000
0011
0000
0000
1000
0000
0001
0000
0000
1001
0000
0000
0110
0000
,
0000
1001
0000
0000
0101
0000
0000
1100
0000
0000
0101
0000
0010
0000
1000
0000
,
0002
0000
0000
0003
,
1001
0000
0000
1000
0100
0000
1000
0000
0001
0000
0000
0000
1001
0000
0000
0000
,
0101
0000
0000
0001
0100
0000
0010
0000
0100
0000
0000
0000
0110
0000
0000
0000
,
1010
0000
0000
1000
0010
0000
1000
0000
0001
0000
0000
0000
1001
0000
0000
0000
,
1100
0000
0000
1000
0100
0000
0010
0000
0100
0000
0000
0000
0110
0000
0010
0000
,
0001
0000
1001
0000
0001
0010
0100
1000
,
0200
0000
0310
0000
0100
0010
0001
1000
,
0010
1000
0010
1000
0010
0000
0000
0000
1000
0001
1000
0001
1000
0000
0000
0000
,
0001
0100
0001
0000
0100
0000
0010
0000
0100
0000
2010
0000
0000
0000
3001
0000
,
1000
0000
0000
1000
0010
0000
0100
0000
0010
1000
0000
0001
1000
0000
0001
0000
,
0100
0000
0000
0001
0010
0000
0100
0000
0010
0001
0000
0100
0010
0000
1000
0000
,
0010
0000
0000
1000
0001
0000
0100
0000
0001
1000
0000
0100
1000
0000
0001
0000
,
0010
0000
0000
0100
0010
0000
0100
0000
0010
0001
0000
1000
0010
0000
0100
0000
,
1001
0010
0100
1000
0001
0010
0100
1000
,
0110
0001
1000
0010
0100
0001
1000
0100
,
0010
0001
0010
0001
0010
0000
0000
0000
0001
1000
0001
1000
0001
0000
0000
0000
,
1000
0100
0010
0001
1000
0110
0001
0100
,
1001
0000
0001
0100
0001
0000
0010
0000
0001
1000
0001
0000
0100
0001
0100
0000
,
1100
0000
0010
0001
0010
0000
0001
0000
1000
0001
1000
0000
0100
1000
0100
0000
,
1010
0000
0100
0010
0100
0000
0010
0000
1000
0001
1000
0000
0001
0100
0001
0000
,
0110
0000
0100
0010
0100
0000
0010
0000
1000
0000
0001
0000
1000
0100
0000
0100
,
0010
0000
0001
0000
1000
0000
0000
0000
0001
0000
0100
0001
0000
0100
0001
0000
,
1000
0000
0100
0000
0001
0000
0000
0000
0100
0000
0010
0001
0000
1000
0001
0000
,
0100
0000
0010
0000
1000
0000
0000
0000
0001
0000
0010
0001
0000
1000
0010
0000
,
0110
0000
0000
0000
0000
0000
1001
0000
0000
0000
0110
0000
0010
0100
0010
0100
,
0020
0000
0000
0030
,
0200
0000
0000
0300
,
0002
0000
1003
0000
,
0002
0000
0203
0000
,
0320
0000
2030
0000
,
3100
0020
0000
0130
0010
0002
0000
1003
,
0010
2000
0000
3001
0100
0020
0000
0130
,
0010
0200
0000
0310
1000
0002
0000
1003
,
0010
2000
0000
3010
0100
0002
0000
1003
,
0010
1000
1001
0001
0010
0001
1001
0001
,
0101
0000
0000
0110
0000
0000
1010
0000
1001
0000
0000
0011
0000
0000
1001
0000
,
0000
0101
0000
0000
1001
0000
0000
1100
0000
0000
1010
0000
1100
0000
0001
0000
,
0020
0000
0000
0031
,
1000
0001
1000
0001
1000
0000
0100
0010
0100
0010
0100
0000
0010
0000
0100
0000
,
1001
0220
0000
0000
,
0000
0000
0000
0330
;

//---------------dance-single - t7r----------------
#NOTES:
     dance-single:
     t7r:
     Challenge:
     17:
     :
0000
0000
0000
0000
,
0000
0000
0000
0000
,
0000
0000
0000
0000
,
0000
0000
0000
0000
,
0000
0000
0000
0000
,
0000
0000
0000
0000
,
0000
0000
0000
0000
,
0010
1000
0010
0100
0000
0000
0001
1000
0002
0000
0000
0000
0003
0000
0000
1000
,
0100
0010
0100
1000
0000
0001
1000
0100
1000
0010
0100
0000
0001
0100
0010
0000
,
0100
0001
1000
0000
0001
0000
0000
0000
1000
0100
0010
0000
0010
0000
0100
0000
,
1000
0100
0010
0000
0010
0000
0100
0000
1000
0100
0010
0000
0010
0000
0100
0000
,
1001
0000
0000
0001
0100
0000
0000
0100
0001
0000
0000
0001
1000
0000
0000
1000
,
0100
0000
0000
0100
1000
0000
0000
1000
0010
0000
0000
0010
1000
0000
0000
1000
,
0001
0000
0000
1000
0100
0000
0000
0100
0010
0000
0000
0010
0001
0000
0000
0001
,
1000
0000
0000
0001
0100
0000
0000
0100
0010
0000
0000
0010
1000
0000
0001
0000
,
1001
0000
0000
0001
1000
0000
0000
0001
0010
0000
0000
0010
0100
0000
0000
0100
,
0010
0000
0000
0010
0001
0000
0000
0001
0100
0000
0000
0100
0010
0000
0000
0010
,
1000
0000
0000
0001
1000
0000
0000
0100
0010
0000
0010
0000
0100
0000
0100
0000
,
0210
0000
0000
0001
1000
0301
0000
1000
,
1100
0001
0100
0101
0012
0000
1003
1001
,
0000
0101
0000
0010
2010
0000
3100
0110
,
0010
0012
0000
1003
1001
0102
0000
0103
,
0110
2010
0000
3010
0110
0101
0001
1001
,
0000
0011
0100
0010
1000
1020
0000
0130
,
0010
1000
1010
1200
0000
0310
0001
0100
,
0101
1002
0000
1003
0001
0100
0010
1000
,
0010
1000
0010
0000
0100
0001
0100
0000
1000
0100
0001
0000
0001
0100
1000
0000
,
0011
0000
0100
0000
0010
0100
0010
0000
1010
0000
0100
0000
1000
0100
1000
0000
,
0110
0000
0001
0000
1000
0001
1000
0000
0101
0000
0010
0000
1000
0010
0100
0000
,
0110
0000
0001
0000
0100
0001
1000
0000
0011
0000
0100
0000
0010
0001
0100
0000
,
0001
0100
0101
0001
1001
1000
1001
0001
,
0110
0000
0010
0000
1000
0010
1000
0000
0110
0000
0100
0000
0001
0100
0001
0000
,
1001
0000
0001
0000
1000
0100
0010
0000
0011
0000
0001
0000
0100
0001
1000
0000
,
0110
0000
0010
0000
1000
0010
0100
0000
0110
0000
0110
0000
1001
0000
1001
0000
,
1000
1000
0100
0100
0010
0010
0001
0001
,
0011
0012
0000
0103
0110
1020
0000
1030
,
1001
0102
0000
0103
0101
2001
0000
3001
,
1001
2010
0000
3100
0110
0102
0000
0013
,
0011
1200
0000
0310
0110
2100
0000
3001
,
1001
1000
1010
0100
0001
0100
0110
0010
,
1010
0000
0000
1001
0000
0000
0101
0000
1001
0000
0000
1100
0000
0000
0011
0000
,
0000
0110
0000
0000
1001
0000
0000
0101
0000
0000
1010
0000
0101
0000
1001
0000
,
0220
0000
0000
0330
,
1010
0000
0010
1000
0001
0000
1000
0001
0100
0000
0000
0000
0101
0000
0000
0000
,
0011
0000
0001
0010
0100
0000
1000
0100
0010
0000
0100
0000
0010
0000
0100
0000
,
1001
0000
1000
0001
0100
0000
0001
0100
0010
0000
0000
0000
1010
0000
0000
0000
,
1100
0000
1000
0100
0010
0000
0001
0010
0001
0000
0100
0000
0001
0000
0011
0000
,
0101
0000
0001
0100
1000
0000
0100
0000
0110
0000
0010
0000
1001
0000
0001
0000
,
0101
0000
1000
0100
0001
0000
0101
0000
0011
0000
0001
0000
0101
0000
0100
0000
,
0010
1000
0001
1000
0001
0000
0000
0000
0100
0001
1000
0001
0100
0000
0000
0000
,
0010
1000
0100
0000
0110
0000
0010
0000
1001
0000
0210
0000
0000
0000
0310
0000
,
1010
0000
0000
1000
0100
0000
0000
1000
0100
1000
0000
0000
0101
0000
0000
0001
,
0100
0000
0001
0000
1000
0000
0000
0001
0100
0001
0000
0000
0101
0000
0010
0000
,
1100
0000
0000
1000
0001
0000
0000
0100
0001
1000
0000
0000
1001
0000
0000
0001
,
0010
0000
0100
0000
0010
0000
0000
0001
0010
0001
0000
0000
1001
0000
0001
0000
,
0101
0010
1000
0100
0011
0001
0010
0100
,
1100
0100
0010
0001
0101
0010
1000
0001
,
0100
0001
0100
0100
0010
0000
0000
0000
1000
0100
1000
1000
0010
0000
0000
0000
,
0100
0001
1000
0000
0001
1000
0100
0000
1000
0100
0010
0000
0001
0100
0001
0000
,
1000
0100
1000
0100
1000
0000
0001
0100
0001
0100
0001
0000
1000
0010
1000
0000
,
0010
0100
0010
0100
0010
0000
0100
0001
0100
0001
0100
0000
0001
1000
0100
0000
,
0010
0001
0010
0001
0010
0000
0001
0010
0100
1000
0100
0000
1000
0100
1000
0000
,
0010
1000
0010
1000
0010
0000
1000
0100
0010
0001
1000
0000
0001
1000
0001
1000
,
0100
0010
0001
0010
0100
0000
1000
0100
1000
0001
1000
0000
0001
0100
0001
0000
,
1000
0010
1000
0100
0010
0000
0001
0010
0100
1000
0001
0000
0100
0010
1000
0000
,
0010
0100
0001
0100
0001
0000
0100
0001
0100
1000
0100
0000
0001
0100
0010
0000
,
1001
0000
0000
0000
0001
0000
0101
0000
0000
0000
1010
0000
1000
0001
1000
0001
,
0200
0001
0010
0001
1000
0001
0010
0301
,
0020
0100
1000
0100
0001
0100
1000
0130
,
0010
0001
0100
0010
2020
0000
3030
0000
,
1000
0000
0001
0100
0001
0000
1000
0000
0001
0000
0100
0001
0100
0000
0001
0000
,
1000
0000
0100
0010
0001
0000
0010
0000
0100
0000
1000
0100
0001
0000
0100
0000
,
1010
0000
1010
0000
0100
0000
0010
1000
0100
0000
1100
0000
1000
0000
0001
1000
,
0100
0000
0101
0000
0100
0000
0010
0001
0100
0000
0110
0000
0010
0000
1000
0001
,
0100
0000
0101
0000
0001
0000
0010
0001
1000
0000
1010
0000
0100
0000
0010
1000
,
0001
0000
1001
0000
0001
0000
0010
0100
1000
0000
1100
0000
0011
0000
0010
0100
,
0110
0000
0110
0000
0000
0000
1000
0001
1001
0000
1001
0000
0000
0000
0010
0100
,
0101
0000
0000
1010
0000
0000
0011
0000
1100
0000
0000
0011
0000
0000
1100
0000
,
0000
1001
0000
0000
0110
0000
0000
0101
0000
0000
0011
0000
1100
0000
1001
0000
,
1010
0000
0010
1000
0010
0000
1000
0010
1000
0000
0001
0100
0001
0000
1000
0100
,
0010
0001
0010
0100
1000
0000
0001
0100
1000
0100
0001
0000
1000
0010
0001
0010
,
1000
2002
0000
0000
,
0000
0000
0000
3003
;
