#TITLE:NEMESIS;
#ARTIST:ARCH ENEMY;
#BANNER:NEMESIS.png;
#BACKGROUND:NEMESIS-bg.png;
#JACKET:NEMESIS-jacket.png;
#CDTITLE:./CDTITLES/NONE.PNG;
#MUSIC:NEMESIS.ogg;
#SAMPLESTART:32;
#SAMPLELENGTH:15;
#DISPLAYBPM:195:205;
#BPMS:0=195,244=205;

//---------------dance-single - t7r----------------
#NOTES:
     dance-single:
     t7r:
     Beginner:
     3:
     :
0000
0000
0000
0000
,
0000
0000
0000
0000
,
0000
0000
0000
0000
,
0000
0000
0000
0000
,
0000
0000
0000
0000
,
0000
0000
0000
0000
,
0000
0000
0000
0000
,
0000
0000
0000
0000
,
0000
0000
0000
0000
,
0000
0010
0000
0010
,
0000
1000
0000
1000
,
0000
0100
0000
0100
,
0000
1000
0000
1000
,
0000
0010
0000
0010
,
0000
0100
0000
0100
,
0000
0001
0000
0001
,
0001
0000
0000
0000
,
0000
0010
0000
1000
,
0000
0001
0000
0100
,
0000
0010
0000
1000
,
0000
0001
0000
0100
,
0000
0001
0000
0010
,
0000
0100
0000
1000
,
0000
0100
0000
0010
,
0000
0001
0000
0001
,
0000
1000
0000
1000
,
0000
0010
0000
0100
,
0000
0001
0000
1000
,
0000
0001
0000
0010
,
0000
0100
0000
1000
,
0000
0100
0000
0010
,
0000
0001
0000
0100
,
0000
0010
0000
1000
,
1000
0000
0000
0000
,
0010
0000
0000
0000
,
0000
0100
0000
0100
,
0000
0010
0000
0010
,
0000
1000
0000
1000
,
0000
0001
0000
0001
,
0001
0000
0000
0000
,
1000
0000
0000
0000
,
0100
0000
0010
0000
,
0001
0000
0000
0000
,
0000
1000
0000
1000
,
0000
0010
0000
0100
,
0000
0001
0000
0001
,
0000
0010
0000
0100
,
0000
0010
0000
0000
,
0000
0100
0000
0100
,
0000
0010
0000
0010
,
0000
0001
0000
0001
,
0000
1000
0000
1000
,
0000
0010
0000
0010
,
0000
0100
0000
0100
,
0000
0010
0000
0010
,
0010
0000
0000
0000
,
0000
1000
0000
1000
,
0000
0001
0000
0001
,
0000
0100
0000
0100
,
0100
0000
0000
0000
,
0010
0000
0000
0000
,
1001
0000
0000
0000
,
0001
0000
0000
0000
,
0100
0000
0000
0000
,
0010
0000
0000
0000
,
1001
0000
0000
0000
,
1000
0000
0000
0000
,
0100
0000
0000
0000
,
0010
0000
0001
0000
,
1001
0000
0000
0000
,
0001
0000
0000
0000
,
0100
0000
0000
0000
,
0010
0000
1000
0000
,
1001
0000
0000
0000
,
1000
0000
0000
0000
,
0100
0000
0010
0000
,
0001
0000
0100
0000
,
0010
0000
0000
0000
,
0100
0000
0000
0000
,
0010
0000
1000
0000
,
0001
0000
0100
0000
;

//---------------dance-single - t7r----------------
#NOTES:
     dance-single:
     t7r:
     Easy:
     6:
     :
0000
0000
0000
0000
,
0000
0000
0000
0000
,
0000
0000
0000
0000
,
0000
0000
0000
0000
,
0000
0000
0000
0000
,
1000
0000
0001
0000
0001
0000
0000
1000
,
0000
0001
0000
0000
0000
0000
0000
0000
,
0001
0000
1000
0000
1000
0000
0000
0001
,
0000
1000
0000
0000
0000
0000
0010
0000
,
0100
0000
0100
0000
,
0010
0000
0010
0000
,
1000
0000
1000
0000
,
0001
0100
1000
0100
,
0001
0000
0001
0000
,
1000
0000
1000
0000
,
0010
0000
0010
0000
,
1000
0010
0001
0010
,
1000
0000
1000
0000
,
0100
0000
0010
0001
,
0100
0000
0010
0000
,
1000
0001
1000
0000
,
0001
0000
0100
0000
,
0010
1000
0100
0000
,
1000
0000
0100
0000
,
0010
0010
0010
0010
,
0001
0001
1000
1000
,
0001
0000
0100
0000
,
0010
1000
0100
0000
,
1000
0000
0001
0000
,
0100
0001
0110
0000
,
1000
0000
0100
0000
,
1000
0100
0001
0000
,
0100
0000
1000
0000
,
0010
0010
0100
0100
,
0010
1000
0001
1000
,
0001
0000
0001
0000
,
1000
0000
1000
0000
,
0001
0000
0010
0000
,
0100
0000
0010
0000
,
0001
0010
1000
0010
,
0001
0010
1000
0010
,
0001
0100
1000
0100
,
0001
0100
1000
0100
,
0001
0000
0100
0000
,
0010
0000
1000
0000
,
0001
0000
1000
0000
,
0100
0010
0110
0000
,
2002
0000
0000
3003
,
0010
0000
0100
0000
,
0010
1000
0100
0000
,
0010
0010
0010
0010
,
0100
0100
0010
0010
,
0001
0000
0010
0000
,
0100
0000
1000
0000
,
0100
0000
1000
0000
,
0010
0100
1001
0000
,
0001
0000
0100
0000
,
0001
1000
0001
0000
,
1000
0000
0100
0000
,
1000
0100
0010
0000
,
0001
0010
0200
0300
,
0010
0000
0001
0000
,
0100
0000
0010
0000
,
1000
0000
0010
0000
,
0100
0000
0001
1000
,
0100
0000
1000
0000
,
0001
0000
1000
0010
,
1000
0000
0001
0000
,
0100
0000
0010
0100
,
1001
0000
0100
0000
,
0010
0000
0001
0010
,
0100
0000
1000
0000
,
0100
0000
0010
0001
,
0100
0000
0010
0000
,
1000
0001
2000
3000
,
0002
0000
0000
0003
,
0100
0000
0110
0000
,
0010
0000
1000
0000
1000
0000
0000
0001
,
0000
0100
0000
0000
0001
0000
0010
0000
,
0100
1000
0100
0010
,
0001
0100
0110
0000
;

//---------------dance-single - t7r----------------
#NOTES:
     dance-single:
     t7r:
     Medium:
     10:
     :
0000
0000
0000
0000
,
0000
0000
0000
0000
,
0000
0000
0000
0000
,
0000
0000
0000
0000
,
0000
0000
0000
0000
,
0001
0000
0100
0000
0100
0000
0000
0010
,
0000
1000
0000
0000
0000
0000
0000
0000
,
1000
0000
0100
0000
0100
0000
0000
0010
,
0000
0001
0000
0000
0000
0000
1000
0000
,
0010
0100
0010
1000
,
0010
0100
0010
0001
,
0010
0100
0010
1000
,
0010
0100
0010
1001
,
1000
0100
0001
0100
,
1000
0100
0001
0100
,
1000
0010
0001
0010
,
1000
0100
0010
0001
,
1000
0001
0001
0100
,
0010
1000
0010
0100
,
0001
1000
0100
0010
,
0002
0203
0320
1030
,
0010
0100
0001
1000
,
0100
0010
0001
0010
,
0001
0100
0010
1000
,
0001
1001
1001
1001
,
1000
0000
1001
0000
0001
0100
0001
0000
,
1000
0010
0100
0010
,
1000
0100
0010
0001
,
0100
0010
1000
0010
,
2000
3200
0320
0031
,
0010
0001
0100
0010
,
1000
0001
0100
0010
,
1000
0001
1000
0001
,
1000
1001
1001
1001
,
0010
0100
0220
0330
,
0010
1000
0001
0100
,
0001
0010
0100
1000
,
0100
0010
0001
0100
,
0010
1000
0001
1000
,
0001
0100
0001
0000
1000
0100
1000
0000
,
0001
0010
0001
0000
1000
0010
1000
0000
,
0001
0100
0010
0000
1000
0010
0100
0000
,
0020
0000
0000
0030
,
0100
0010
1000
0001
,
1000
0100
0010
0001
,
0100
0010
1000
0010
,
0200
0320
1030
1001
,
2001
0000
0000
3001
,
0100
0001
1000
0010
,
1000
0100
0010
0001
,
1001
1001
1001
1001
,
0110
1001
0110
1001
,
0010
0100
0010
1000
,
0100
0010
0001
0100
,
0010
1000
0010
0100
,
0002
0203
0310
1001
,
0001
0010
0100
1000
,
0100
0010
0001
0100
,
0010
1000
1010
0001
,
0100
0001
1100
0001
,
0010
0100
2002
3003
,
0001
0000
1000
0001
1000
0000
0001
0000
,
0100
0000
0001
0100
0001
0000
0010
0000
,
0001
0000
1000
0100
1000
0000
0010
0000
,
0100
0000
0010
1000
0001
0000
1000
0000
,
1001
0000
0001
0010
0100
0000
1000
0000
,
0100
0000
0010
0001
0100
0000
0010
0000
,
1000
0000
0001
1000
0100
0000
1000
0000
,
0010
0100
0001
1000
,
1001
0000
0010
0100
1000
0000
0100
0000
,
0010
0000
0001
0100
0010
0000
1000
0000
,
0010
0000
1000
0001
0100
0000
0001
0000
,
1000
0001
0010
0100
,
1001
0000
0010
0100
0001
0000
0100
0000
,
0010
0000
1000
0010
0100
0000
0010
0000
,
1000
0100
0010
0001
,
1000
0001
1000
0000
2002
0000
3003
0000
,
0010
0000
0110
0000
0110
0000
0000
1001
,
0000
0110
0000
0000
0010
0000
1000
0000
,
0001
0100
0010
0100
,
0001
1000
1001
0000
;

//---------------dance-single - t7r----------------
#NOTES:
     dance-single:
     t7r:
     Hard:
     13:
     :
0000
0000
0000
0000
,
0000
0000
0000
0000
,
0000
0000
0000
0000
,
0000
0000
0000
0000
,
0000
0000
0000
0000
,
0010
0000
0100
0000
0100
0000
0000
0110
,
0000
1001
0000
0000
0000
0000
0000
0000
,
1000
0000
0001
0000
0001
0000
0000
0101
,
0000
1010
0000
0000
0000
0000
0010
0000
,
0100
0001
1000
0001
0100
0001
1000
0001
,
0100
0010
1000
0010
0100
0010
1000
0010
,
0100
0010
1000
0100
0010
0001
0010
0100
,
1000
0100
0001
0100
1000
0100
0001
0100
,
1000
0010
1000
0100
1000
0010
1000
0100
,
0010
0001
0100
0001
0010
0001
0100
0001
,
1000
0100
0010
0001
1000
0100
0010
0001
,
0100
0010
1000
0010
0100
0001
1000
0001
,
0100
0001
0100
0000
1010
0000
0100
0010
,
0000
1010
0000
0010
0100
0001
1000
0100
,
0010
0001
0100
0000
0101
0000
0001
1000
,
0002
2003
3010
0110
,
1000
0001
0100
0000
0101
0000
0001
0010
,
0000
0110
0000
0010
0001
0100
0001
1000
,
0001
0010
0100
0000
1000
0100
0010
0000
,
0100
0010
0001
0100
0010
1000
0010
0100
,
0001
1000
0001
1000
0010
0100
0001
1000
,
0001
1000
0010
0000
0101
0000
0001
1000
,
0000
1100
0000
1000
0010
1000
0001
0100
,
0010
0100
0001
0000
1001
0000
0001
0010
,
0200
0320
0031
1001
,
0001
1000
0001
0000
0101
0000
1000
0001
,
0000
0011
0000
0001
0010
0100
0010
0001
,
0100
0010
1000
0000
1010
0000
0010
0100
,
0001
0100
0001
0100
0001
1000
0001
1000
,
0001
0100
0001
0100
0001
1000
0100
0010
,
0001
0010
0100
1000
0001
0010
0100
1000
,
0001
0100
1000
0100
0001
0100
1000
0100
,
0001
0010
0001
0100
0001
0010
0001
0100
,
0001
0010
1000
0010
0001
0010
1000
0010
,
0001
0100
0010
1000
0010
0100
0001
1000
,
0100
0010
0100
1000
0001
0100
0010
1000
,
0010
0100
0001
1000
0010
0100
0001
1000
,
0100
0010
0001
1000
0100
0010
0001
0100
,
0010
1000
0001
0000
1001
0000
0100
0010
,
0000
0110
0000
0010
0100
0001
1000
0001
,
0010
0100
1000
0000
1100
0000
0100
0010
,
0002
0203
2300
3010
,
0210
0000
0000
0000
0000
0000
0000
1300
,
0001
1001
0101
1001
,
0001
0010
0100
0000
1000
0100
0010
0000
,
0010
0100
1000
0100
0010
0100
1000
0100
,
0010
0100
0001
0100
0010
0100
0001
0100
,
1000
0010
0100
0000
0101
0000
0001
0010
,
0000
0011
0000
0001
0010
0100
1000
0100
,
1000
0010
0100
0000
1010
0000
1000
0001
,
2000
3200
0302
0013
,
1000
0010
0100
0000
0110
0000
0010
0100
,
0000
0101
0000
0001
0010
0001
0100
1000
,
0100
0010
1000
0000
0011
0000
1000
0001
,
1000
0001
1001
1001
,
0110
1001
0220
0330
,
1010
0000
0100
0010
1000
0000
0010
0100
,
0001
0000
1000
0001
0100
0001
1000
0001
,
1000
0000
0001
0010
1000
0000
0001
0100
,
0001
0000
1000
0100
0010
0100
1000
0100
,
1100
0000
1000
0100
0001
0000
0001
0100
,
1000
0000
0010
1000
0001
0100
0001
0010
,
0100
0000
0010
0001
0100
0000
0010
1000
,
0001
0000
1000
0010
0100
0001
0100
0010
,
1010
0000
0010
1000
0100
0000
1000
0100
,
0010
0000
0001
0010
0100
1000
0100
0010
,
0001
0000
0100
0010
1000
0000
0010
0100
,
0001
0000
1000
0001
0100
0001
1000
0001
,
1001
0000
0001
0010
0001
0000
1000
0100
,
1000
0000
0010
0100
0001
1000
0010
0100
,
0010
1000
0001
1000
0001
1000
0100
1000
,
0001
0100
0010
1000
0001
0100
0010
1000
,
0001
0100
0001
0000
1100
0000
0001
0010
,
0000
0011
0000
0000
1000
0100
0010
0001
,
1000
0100
1000
0010
0100
0001
1000
0010
,
0100
0010
1000
0001
1001
0000
0000
0000
;

//---------------dance-single - t7r----------------
#NOTES:
     dance-single:
     t7r:
     Challenge:
     16:
     :
0000
0000
0000
0000
,
0000
0000
0000
0000
,
0000
0000
0000
0000
,
0000
0000
0000
0000
,
0000
0000
0000
0000
,
0010
0000
0101
0000
1100
0000
0000
0011
,
0000
1010
0000
0000
0000
0000
0000
0000
,
1000
0000
1100
0000
0101
0000
0000
1001
,
0000
0110
0000
0000
1000
0000
1001
0000
,
1000
0000
0100
1000
0100
0000
1000
0000
0001
0000
1000
0100
1000
0000
0001
0000
,
1000
0000
0001
0100
0001
0000
1000
0000
0001
0000
0100
0001
0100
0000
0001
0000
,
0010
0000
0001
0010
0001
0000
1000
0000
0001
0000
1000
0010
1000
0000
0001
0000
,
0100
0000
0010
0100
0010
0000
1000
0000
0010
0000
0100
0010
0100
0000
0010
0000
,
1000
0000
0100
0010
0001
0000
0100
0000
0010
0000
1000
0010
1000
0000
0001
0000
,
0010
0000
0100
0010
0001
0000
1000
0000
0010
0000
0100
0010
1000
0000
0010
0000
,
0100
0000
0001
1000
0010
0000
1000
0000
0001
0000
0100
0001
1000
0000
0001
0000
,
0010
0000
0100
0010
0100
0000
0010
0000
0001
0000
1000
0000
1000
0000
1000
0000
,
1001
0010
0100
0000
1010
0000
0010
1000
,
0000
1100
0000
1000
0100
0010
0001
0100
,
0010
1000
0001
0000
1001
0000
0001
0010
,
0100
0012
0103
2010
,
3001
0010
0100
0000
0011
0000
1000
0010
,
0000
0110
0000
0010
1000
0100
1000
0010
,
0100
0001
0010
0000
0110
0000
0010
0100
,
1000
0010
0010
0010
1010
1000
1000
1000
,
1001
0000
0001
0000
0001
0100
0001
1000
0001
0000
0000
0000
1001
0000
0000
0000
,
0001
0010
0100
0000
0011
0000
1000
0100
,
0000
1100
0000
1000
0010
0100
0001
0010
,
0100
1000
0010
0000
0110
0000
0010
1000
,
0001
0102
1003
2100
,
3001
1000
0010
0000
0110
0000
0010
1000
,
0000
1010
0000
1000
0100
0001
0100
1000
,
0010
0100
0001
0000
0011
0000
0001
0010
,
1000
0010
0010
0010
0001
0100
0100
0100
,
0010
0000
0100
0001
0100
0000
0001
0000
1000
0000
0001
1000
0010
0000
1000
0000
,
0001
0000
0100
0001
0100
0000
0001
0000
1000
0000
0010
1000
0010
0000
1000
0000
,
0100
0000
0010
0001
0010
0000
0001
0000
0100
0000
0010
1000
0010
0000
1000
0000
,
0001
0000
0100
0010
0100
0000
0001
0000
1000
0000
0100
0010
0100
0000
1000
0000
,
0010
0000
0100
0001
0100
0000
0001
0000
0010
0000
0100
1000
0100
0000
1000
0000
,
0001
0100
0010
0000
1000
0010
0100
0000
0001
0010
0100
0000
1000
0010
0100
0000
,
0001
1000
0010
0000
1000
0001
0010
0000
0001
1000
0100
0000
1000
0001
0100
0000
,
0001
0100
0010
0000
1000
0100
0010
0000
0001
0010
0100
0000
1000
0010
0100
0000
,
0010
0100
0001
0000
0010
0001
1000
0001
1000
0000
0001
0000
0100
0010
0100
0010
,
1000
0010
0100
0001
0010
0001
1000
0100
,
0000
1100
0000
0100
1000
0010
0100
0001
,
1000
0010
0100
0010
1000
0001
0100
0001
,
0012
1003
2100
3001
,
0120
0000
1000
1000
0100
0000
1000
1030
,
0000
1010
0000
0001
0100
1000
0100
0001
,
0010
0100
1000
0100
0010
0001
0100
0010
,
1000
0001
0001
0001
1001
0010
0010
0010
,
0110
1000
1000
1000
0100
0010
0011
0000
,
1001
0010
0100
1000
0100
0001
0100
1000
,
0010
1000
0001
0010
0100
0010
0001
0100
,
0001
0010
0001
1000
0010
0100
0010
1000
,
2100
0000
0100
0000
3010
0000
0000
0000
0001
0100
0001
0100
0010
0000
0000
0000
,
1000
0010
0100
0001
0010
0100
0010
0001
,
1000
0001
0100
0010
1000
0100
0001
0100
,
1000
0000
0010
0000
0100
0000
0100
0000
0010
1000
0010
1000
0100
0000
0010
0001
,
1000
1001
0001
1001
,
0110
0000
0000
0000
0101
0000
0000
0000
1010
0000
0000
0000
0001
1000
0001
0000
,
2010
0000
3001
0010
0100
0010
0000
0010
,
0001
0000
0000
0000
0100
0010
0100
0010
1000
0000
0100
0000
0000
0000
0100
0000
,
0010
0000
0100
1000
0010
0100
0000
0100
,
0010
0000
1000
0001
1000
0010
0100
0010
,
1010
0000
1000
0100
0010
0100
0000
0100
,
1000
0000
0000
0000
0001
0010
0100
0000
0010
0000
0100
0000
0000
0000
0100
0000
,
0010
0000
0001
1000
0010
0100
0000
0100
,
0010
0000
1000
1000
1010
0100
0100
0100
,
0110
0000
0100
1000
0010
0100
0000
0100
,
0010
0000
0000
0000
1000
0100
0010
0100
1000
0000
0100
0000
0000
0000
0100
0000
,
0010
0000
0001
0100
0010
0100
0000
0100
,
0001
0000
0100
0100
1001
0010
0010
0010
,
0110
0000
0001
0100
0010
0100
0000
0100
,
0001
0000
0000
0000
0010
0001
1000
0001
0010
0000
0001
0000
0000
0000
0001
0000
,
1000
0100
0100
0100
0011
0100
0100
0100
,
1010
0001
1000
0001
1100
0001
0010
0100
,
0010
0001
0010
0001
0100
0000
0000
0000
0110
0000
0000
0000
0010
0000
1010
0000
,
0000
0000
1001
0000
0000
0000
1000
0000
0001
0010
0100
0000
1000
0010
0100
0000
,
0010
0000
0000
1000
0000
0000
0001
0000
0000
0000
0000
0000
0010
0000
0000
0001
0000
0000
1000
0000
0000
0000
0000
0000
0001
0000
0000
0000
0100
0000
0000
0000
1000
0000
0000
0000
0100
0000
0000
0000
0001
0000
0000
0000
0010
0000
0000
0000
,
1000
0010
0100
1000
0010
0100
0101
0000
0000
0000
0000
0000
;
