#TITLE:MENDES;
#ARTIST:Humanoid;
#BANNER:MENDES.png;
#BACKGROUND:MENDES-bg.png;
#JACKET:MENDES-jacket.png;
#CDTITLE:./CDTITLES/BEATMANIA IIDX.PNG;
#MUSIC:MENDES.ogg;
#SAMPLESTART:36.429;
#SAMPLELENGTH:15;
#BPMS:0=168;

//---------------dance-single - t7r----------------
#NOTES:
     dance-single:
     t7r:
     Beginner:
     2:
     :
0000
0000
0000
0000
,
0000
0000
0000
0000
,
0000
0000
0000
0000
,
0000
0000
0000
0000
,
0000
0000
0000
0000
,
1000
0000
0000
0000
,
0000
0000
0001
0000
,
0001
0000
1000
0000
,
0001
0001
0001
0000
,
1000
0000
0010
0000
,
0000
0000
0100
0000
,
0000
0000
0010
0000
,
0000
1000
1000
0000
,
0001
0000
1000
0000
,
0000
0000
0100
0000
,
0000
0000
0010
0000
,
0001
0000
0010
0000
,
0100
0000
1000
0000
,
0000
0000
0001
0000
,
0000
0100
0100
0000
,
0000
0010
0010
0000
,
1000
0000
0001
0000
,
0000
0000
1000
0000
,
0000
0000
0100
0000
,
0010
0000
0001
0000
,
0010
0000
0100
0000
,
0100
0000
0100
0000
,
0100
0000
0010
0000
,
1000
0000
1000
0000
,
1000
0000
0001
0000
,
1000
0000
0001
0000
,
0010
0000
0100
0000
,
0100
0000
0010
0000
,
0001
0001
0000
0000
,
0000
0000
0000
0000
,
0000
0000
0000
0000
,
0000
0001
0000
1000
,
0000
0001
0000
0100
,
0000
0001
0000
1000
,
0000
0001
0000
0010
,
0000
0100
0000
1000
,
0000
0100
0000
0010
,
0000
0100
0000
0010
,
0000
0001
0000
1000
,
0000
0001
0000
0000
,
0100
0100
0000
0010
,
0000
1000
0000
0000
,
0001
0001
0000
1000
,
0000
1001
0000
0000
,
0000
0100
0000
0010
,
0000
0100
0000
0010
,
0000
0001
0000
0100
,
0000
0010
0000
1000
,
0000
0010
0000
1000
,
0000
0001
0000
1000
,
0000
0100
0000
0010
,
0000
0001
0000
0010
,
0010
0010
0000
0100
,
0000
0010
0000
0001
,
0001
0001
0000
1000
,
0000
0000
0000
0000
,
0000
0100
0000
0000
,
0010
0000
0000
0001
,
0000
0000
1000
0000
,
0000
0100
0000
0000
,
1000
0000
0000
0001
,
0000
0000
0100
0000
,
0000
0001
0000
0000
,
1000
0000
0000
0001
,
0000
0000
0010
0000
,
0000
0100
0000
0000
,
1000
0000
0000
0100
,
0000
0000
0010
0000
,
0000
0001
0000
0000
,
0000
0000
0000
0000
,
0000
0000
0000
0000
,
0000
0000
0000
0000
,
1001
0000
0000
0000
;

//---------------dance-single - t7r----------------
#NOTES:
     dance-single:
     t7r:
     Easy:
     9:
     :
0000
0000
0000
0000
,
0000
0000
0000
0000
,
0000
0000
0000
0000
,
0000
0000
0000
0000
,
0000
0000
0000
0000
,
1000
0001
1000
0001
,
0100
0010
0100
0010
,
1001
0000
0101
0000
,
1001
1100
1001
0000
,
0020
0030
0100
0001
,
0100
0001
0100
0000
0001
0000
1000
0000
,
0001
1000
0100
0000
1000
0000
0010
0000
,
1000
0010
0100
0000
0010
0100
1000
0000
,
0010
1000
0001
0000
1000
0000
0100
0000
,
0010
0001
0010
0000
0001
0000
0010
0000
,
0100
1000
0100
0000
0010
0000
0001
0000
,
1000
0001
0100
0001
1000
0001
0000
0001
,
1000
1001
0010
0100
,
0010
1000
0010
0000
0100
0000
0010
0000
,
0001
0010
0001
0000
0010
0000
0100
0000
,
0010
1000
0010
0000
1000
0001
1000
0000
,
0001
1000
0001
0000
1001
0000
0010
0000
,
0100
0010
0100
0000
0010
0000
0100
0000
,
0010
1000
0001
0000
1000
0100
0010
0000
,
0001
0010
0100
1000
0100
0010
0000
0010
,
0001
0000
1001
0000
0001
0100
0001
0000
,
0100
0000
0010
0010
0000
1000
0000
0010
,
0010
0100
0000
0001
0100
0001
1000
0010
,
0100
0001
1000
1000
0100
0000
1000
0000
,
0100
0100
0000
0010
0000
0100
0010
0001
,
0000
0001
0010
0100
1000
0010
0100
0001
,
1000
0000
0100
0100
1000
1000
0100
0100
,
0010
0010
0001
0001
0010
0010
0100
0100
,
1000
1000
0002
0000
0000
0000
0000
0000
,
0000
0003
0000
0000
,
0000
2000
3000
0002
,
0003
1001
0010
0100
,
0010
1000
0000
0101
,
0000
1000
0100
0010
,
0001
0010
0000
1100
,
0000
1000
0010
1000
,
0001
0100
0000
0110
,
0000
0010
0100
0001
,
1000
0100
0000
0011
,
0000
0000
2000
0000
0000
3100
0000
0000
,
0020
0000
0031
0000
0000
2000
0000
0000
,
3001
2002
0000
3003
,
0001
0202
0303
2020
,
3030
0000
0101
0000
0000
1001
0000
0000
,
0000
0000
0000
1000
0100
0000
0010
0001
,
0100
0000
0001
0000
0000
1001
0000
0000
,
0000
0001
0101
1010
,
0101
0000
1001
0000
0000
0110
0000
0000
,
0000
0000
0000
0010
0100
0000
1000
0100
,
0010
0000
0001
0000
0000
1001
0000
0000
,
0000
0000
1000
0001
0000
0000
1001
0000
,
0010
0000
0000
0000
0101
0000
0000
0000
0000
0000
0000
0000
0001
0000
0000
0100
,
0000
0001
1000
0000
0100
0000
0110
0000
,
0000
0000
0000
0000
0011
0000
0000
0000
0000
0000
0000
0000
1000
0000
0000
0100
,
0000
1000
0001
0000
0100
0000
2002
0000
,
3003
0020
0000
0000
,
0030
0000
1000
0100
1000
0000
0100
0000
,
0010
0001
0010
0000
0001
0000
1000
0010
,
1000
0000
0100
0000
0010
0100
0010
0000
,
1000
0000
0001
0010
0001
0000
1000
0000
,
0100
0010
0100
0000
0010
0000
0001
0010
,
0100
0000
1000
0000
0100
0010
0100
0000
,
0110
0000
1000
0001
0100
0000
0001
0000
,
1000
0010
1000
0000
0101
0000
0001
0010
,
0100
0000
0010
0000
0100
0010
0001
0000
,
1100
0000
0001
1000
0100
0000
1001
0000
,
1000
0001
0100
0000
1001
0000
0010
0100
,
0010
0000
1010
0000
1000
0100
0010
0000
,
0011
0002
2003
3002
,
0203
0320
2030
3020
,
0230
0302
1003
0000
,
0000
0000
0000
0000
,
2002
0000
0000
0000
,
0000
0000
0000
0000
,
3003
0000
0000
0000
;

//---------------dance-single - t7r----------------
#NOTES:
     dance-single:
     t7r:
     Medium:
     12:
     :
0000
0000
0000
0000
,
0000
0000
0000
0000
,
0000
0000
0000
0000
,
0000
0000
0000
0000
,
0000
0000
0000
0000
,
1000
0010
1000
0010
1000
0010
1000
0010
,
1000
0010
1000
0010
1000
0100
0010
0000
,
0001
0010
0001
0010
0100
0010
0001
0010
,
0001
0110
2002
3003
,
0020
0000
0030
0000
1000
0100
0010
0100
,
1000
0100
0010
0100
1000
0100
0010
0100
,
1000
0000
0001
0000
0001
0100
0010
0100
,
0001
0100
0010
0100
0001
0010
0010
0000
,
0001
0000
1001
0000
1000
0010
0100
0010
,
1000
0010
0100
0010
1000
0010
0100
0010
,
1000
0000
1100
0000
0001
0010
0100
0010
,
0001
0010
0100
0010
0001
0001
0000
1000
,
0001
0000
1001
0000
0010
1000
0100
1000
,
0010
1000
0100
1000
0010
1000
0001
0010
,
0001
0000
1001
0000
0010
0001
0100
0001
,
0010
0001
0100
0001
0010
0001
0001
0000
,
1000
0110
1001
0010
,
1000
0100
1000
0000
1001
0000
0010
0000
,
0001
0100
0001
0000
1001
0000
0100
0000
,
1001
0000
0010
0000
1000
0002
0000
1003
,
0001
0000
1001
0000
0010
0010
0010
0000
,
0100
0000
0001
0001
0000
1000
0000
0001
,
0001
0001
0000
0010
0010
0010
0200
0000
,
0320
0000
0031
0001
0001
0000
1000
0000
,
0010
0010
0000
1000
0000
0001
0001
0001
,
0000
0100
0100
0100
0020
0000
0230
0000
,
0301
0000
1000
1000
1000
0000
0001
0001
,
0001
0000
0010
0010
0100
0010
0001
1000
,
0100
0010
0002
0000
0000
0000
0000
0000
,
0000
0000
0000
0000
,
0000
2003
0000
3020
,
0000
0000
0000
0130
0000
0100
0010
0000
0010
1000
0000
1000
,
0001
0000
0001
0020
0000
0000
0000
0000
0000
0032
0000
0000
,
0000
0000
0000
1003
0000
1000
0010
0000
0010
0100
0000
0100
,
0001
0000
0001
2000
0000
0000
3200
0000
0000
0320
0000
0000
,
0032
0000
0000
1003
0000
1000
0001
0000
0001
0100
0000
0100
,
0010
0000
0010
2000
0000
0000
0000
0000
0000
3020
0000
0000
,
0000
0000
0000
0130
0000
0100
0010
0000
0010
1000
0000
1000
,
0001
0000
0001
0020
0000
0000
0000
0000
0000
0230
0000
0000
,
0000
0000
0310
0000
0001
0200
0000
0301
,
1000
0000
0010
0000
1000
0200
0000
1300
,
0001
0000
0000
0000
0200
0000
0000
0000
0310
0000
0000
0000
1000
0000
0000
0001
,
0000
1000
0010
0010
0100
0000
0210
0000
,
0301
0000
1000
0100
1000
0020
0000
1030
,
0001
0000
0100
0001
0010
0100
0010
0000
,
0110
0000
0010
0001
0100
0002
0000
0013
,
0001
0000
1000
0001
0001
0000
0100
0000
,
0110
0000
1001
0010
0100
0002
0000
1003
,
0010
0000
1000
0100
1000
0001
0100
0000
,
0110
0000
0010
1000
0001
0020
0000
0031
,
1000
0000
0001
0001
1000
0000
0002
0000
,
0013
0000
0000
0000
2001
0000
0000
0000
3100
0000
0000
0000
1000
0000
0000
0100
,
0000
0010
0002
0000
0103
0000
0001
0000
,
0011
0000
0000
0000
0201
0000
0000
0000
0310
0000
0000
0000
0100
0000
0000
0001
,
0000
1000
0020
0000
0130
0000
0010
1000
,
0001
0200
0000
0000
0000
0000
0000
0000
,
0310
0000
1000
0100
1000
0001
0001
0001
,
0100
0010
0100
0010
0010
0010
1000
0100
,
0010
0100
0100
0100
1000
0001
0100
0010
,
0010
0010
0100
0001
0010
0001
0001
0001
,
1000
0010
0100
0010
0010
0010
1000
0100
,
1000
0001
0001
0001
1000
1000
1000
0010
,
0010
0010
0100
0100
0110
0010
0010
0010
,
1000
1000
1100
0100
0100
0100
0010
0010
,
0011
0001
0001
0001
0100
0100
0101
0100
,
0100
0100
0010
1000
1010
0010
0100
0001
,
0010
0001
0011
0001
0010
0100
0010
0010
,
0011
0001
0001
0001
1000
1000
1001
0001
,
0001
0000
0000
0001
0000
0000
0100
0000
0000
0000
0100
0000
0001
0000
0000
0000
0001
0000
0010
0000
0000
0000
0010
0000
,
1000
0000
1000
0010
0000
0010
0001
0000
0001
1000
0000
1000
,
0010
0000
0000
0000
0010
0000
0100
0000
0000
0001
0000
0000
2000
0000
0000
0000
0000
0000
0000
0000
0000
0000
0000
0000
,
0000
0000
3010
0000
,
0220
0000
0000
0000
,
0000
0000
0000
0000
,
0330
0000
0000
0000
;

//---------------dance-single - t7r----------------
#NOTES:
     dance-single:
     t7r:
     Hard:
     15:
     :
0000
0000
0000
0000
,
0000
0000
0000
0000
,
0000
0000
0000
0000
,
0000
0000
0000
0000
,
0000
0000
0000
0000
,
1000
0100
0010
0100
1000
0100
0010
0100
,
1000
0010
0100
0001
0010
0100
0110
0000
,
1001
0010
0100
0010
1001
0100
0010
0100
,
1100
1000
1001
0001
0012
0000
1003
0000
,
0001
0100
0010
1000
0001
0010
0001
0100
,
0001
0000
0010
0000
0001
0000
0100
0000
0001
0000
0010
0000
0100
0000
0010
0001
,
0010
0001
0000
0001
1000
0000
0010
0000
0100
0000
0010
0000
1000
0000
0010
0000
,
0100
0000
0010
0000
1000
0000
0010
0000
1000
0000
0100
0000
0100
0000
1000
0001
,
1000
0001
0000
0001
1000
0000
0001
0000
1001
0000
0010
0000
0100
0000
0010
0000
,
1000
0000
0010
0000
0100
0000
0010
0000
1000
0000
0100
0000
0010
0000
0100
1000
,
0100
1000
0000
1000
0010
0000
0100
0000
0001
0000
0010
0000
0100
0000
1000
0000
,
0001
0010
0100
0010
0100
0110
0000
0001
,
1000
0010
0110
0010
1010
0100
0001
0010
,
0001
0000
0100
0000
1000
0000
0010
0000
1000
0000
0100
0000
0001
0000
0010
0100
,
1000
0100
0000
0100
0010
0000
0001
0000
1000
0000
0010
0000
0001
0000
0010
0000
,
1000
0000
0100
0000
0001
0000
0100
0000
1000
0000
0001
0000
0001
0000
0100
0010
,
0100
0010
0000
0010
1000
0000
0001
0000
1001
0000
0010
0000
0100
0000
1000
0000
,
0100
0000
0010
0000
0001
0000
1000
0000
1001
0000
0010
0000
0100
0000
0001
0100
,
0010
0100
0000
0100
0001
0000
1000
0000
1001
0000
0010
0000
0001
0000
0100
0000
,
1001
0010
1000
0100
0110
0110
0000
1000
,
0100
0010
0001
0100
0010
0110
0110
0000
,
0101
0000
0011
0011
0000
1100
0000
1000
,
0001
0101
0000
0001
1000
1100
1000
0010
,
0100
0001
0010
0011
0011
0000
1001
0000
,
1100
1100
0000
1010
0000
0010
0100
0101
,
0000
0000
0100
0000
0010
0000
1010
0000
1000
0001
1000
0001
1000
0000
0001
0000
,
1001
0000
0001
0100
0001
0000
1000
0100
1000
0000
0001
0010
0001
0000
1000
0010
,
1000
0000
0001
0010
0001
0000
1000
0100
1000
0010
1000
0010
0100
0001
0100
0001
,
1000
0001
1000
0001
2000
0000
0000
0000
0000
0000
0000
0000
0000
0000
0000
0000
,
0000
0000
0000
0000
,
0000
3002
0000
0023
,
0000
0000
0000
0031
0100
0001
1000
0100
1000
0001
0010
0001
,
1000
0000
0010
0000
1000
0000
0001
0000
0000
0100
0000
0000
0000
0000
0000
0100
0000
0000
0010
0000
0000
0100
0000
0000
,
0000
0000
0000
0100
0000
0000
0001
0000
1000
0000
0001
0000
0100
0000
0010
0000
0100
0000
0010
0000
1000
0000
0010
0000
,
1000
0000
0100
0000
1000
0000
0001
0000
0000
0010
0000
0000
0000
0000
0000
0010
0000
0000
0001
0000
0000
1000
0000
0000
,
0000
0000
0000
1000
0000
0000
0010
0000
1000
0000
0010
0000
0100
0000
0001
0000
0100
0000
0001
0000
1000
0000
0100
0000
,
1000
0000
0001
0000
0010
0000
0001
0000
0000
0100
0000
0000
0000
0000
0000
0100
0000
0000
0001
0000
0000
0010
0000
0000
,
0000
0000
0000
0010
0000
0000
0001
0000
0010
0000
0100
0000
1000
0000
0010
0000
0100
0000
0001
0000
0010
0000
0001
0000
,
1000
0000
0010
0000
1000
0000
0001
0000
0000
1000
0000
0000
0000
0000
0000
1000
0000
0000
0001
0000
0000
0010
0000
0000
,
0000
0010
0001
0100
0000
0001
0010
0001
,
1000
0100
1000
0010
0000
0100
0010
1000
,
0100
0000
0010
0000
0001
0000
1000
0000
0000
0000
0001
0000
0100
0000
0010
0100
,
0000
0100
0001
0000
1000
0000
1001
0000
0010
0000
0000
0000
0200
0000
0000
0000
,
0310
0000
1000
0100
1000
0020
0000
1030
,
0001
0000
0010
0000
0001
0000
0100
0000
0001
0000
0010
0001
0010
0001
0000
0001
,
1000
0001
0100
0001
1000
0020
0000
0130
,
0010
0000
0000
0000
1000
0000
0100
0000
0100
0000
1000
0001
0010
0001
0000
0001
,
1000
0001
1001
0010
0100
0002
0000
0013
,
0001
0000
1000
0000
0001
0000
0010
0000
1000
0000
0010
0001
0010
0001
0000
0001
,
0100
0010
0100
0001
0010
0200
0000
0310
,
0001
0000
1000
0000
1001
0000
1001
0000
0010
0000
0000
0000
1000
0001
0000
0001
,
0100
0000
0001
1000
0001
0000
0010
0000
0100
0000
0000
0000
0010
0000
0001
0100
,
0000
0001
0010
0000
0011
0000
1000
0000
0010
0000
1000
0100
0010
0100
0000
0100
,
1000
0000
0010
0000
0110
0000
0001
0000
0010
0000
0000
0000
0110
0000
1000
0100
,
0000
1000
0010
0000
0110
0000
1000
0000
0001
0000
0010
0100
1000
0100
0000
0100
,
0010
0002
0000
0000
0000
0000
0000
0000
,
1003
0000
0000
0000
1010
0000
0010
0000
1000
0000
0100
1000
0100
1000
0010
0000
,
0100
0000
0001
0000
0010
0000
0001
1000
0001
1000
0100
0000
1100
0000
0100
0000
,
1000
0000
0010
1000
0010
1000
0001
0000
0100
0000
0001
0000
0010
0000
0001
0010
,
0001
0010
0100
0000
0110
0000
0001
0000
1000
0000
0010
0100
0010
0100
0001
0000
,
0100
0000
0010
0000
1000
0000
0100
1000
0100
1000
0001
0000
1001
0000
0001
0000
,
0010
0000
0001
0100
0010
0100
0001
0000
2000
0000
0100
0000
0010
0000
3001
1000
,
0100
1000
0001
0000
1001
0000
1001
0000
0100
0000
0001
0100
0010
0100
0001
0000
,
1001
0000
1001
0000
0010
0000
1000
0100
0010
0100
1000
0000
1100
0000
1100
0000
,
0010
0000
1000
0001
0100
0001
1000
0000
0101
0000
0101
0000
0010
0000
0001
1000
,
0100
1000
0001
0000
0011
0000
1001
0000
0101
0000
1000
0100
0010
0100
1000
0000
,
1010
0000
1001
0000
1100
0000
0001
0010
0100
0010
0001
0000
1000
0010
1000
0010
,
0100
0001
1000
0100
0010
0100
1000
0000
0001
0010
0001
0010
0001
1000
0001
0100
,
0010
0000
0000
0100
0000
0000
0001
0000
0000
0000
0000
0000
1000
0000
0000
0000
0100
0000
0000
0000
1000
0000
0000
0000
0001
0000
0000
0000
0010
0000
0000
0000
0001
0000
0000
0000
1000
0000
0000
0000
0001
0000
0000
0000
0100
0000
0000
0000
,
0001
1000
0010
1000
0100
0001
0100
1000
0010
0100
0001
0010
,
1000
0000
0000
0000
0010
0000
0000
0000
0001
0000
0000
0000
1000
0000
0000
0001
0000
0000
1000
0000
0000
0001
0000
0000
0200
0000
0000
0000
0000
0000
0000
0000
0000
0000
0000
0000
0000
0000
0000
0000
0000
0000
0000
0000
0000
0000
0000
0000
,
0000
0000
0310
0000
,
2002
0000
0000
0000
,
0000
0000
0000
0000
,
3003
0000
0000
0000
;

//---------------dance-single - t7r----------------
#NOTES:
     dance-single:
     t7r:
     Challenge:
     18:
     :
0000
0000
0000
0000
,
0000
0000
0000
0000
,
0000
0000
0000
0000
,
0000
0000
0000
0000
,
0000
0000
0000
0000
,
1000
0100
1000
0000
0001
0100
0001
0000
1000
0100
1000
0000
0001
0100
0001
0000
,
1000
0010
1000
0000
0001
0010
0001
0000
1000
0100
0010
0001
0010
0100
1000
0100
,
0010
0001
0010
0000
0001
0100
0001
0000
1000
0010
1000
0000
0100
1000
0100
0000
,
1000
0010
0100
0000
0001
0100
0010
0000
1000
0010
0100
0001
0100
0010
1000
0001
,
1000
0100
0010
0001
1000
0001
1000
0001
1000
0010
0100
0010
1000
0010
0100
0010
,
1000
0010
0100
0010
1000
0010
0100
0010
1000
0100
0010
0100
1000
0100
0010
0100
,
1000
0100
0010
0100
1000
0100
0010
0100
1000
0001
0010
0001
1000
0001
0010
0001
,
1000
0001
0010
0001
1000
0001
0010
0001
1000
0000
0010
0000
0110
0000
0010
1000
,
0001
0100
0000
0100
0001
0000
1000
0001
1000
0100
0010
0100
1000
0100
0010
0100
,
1000
0100
0010
0100
1000
0100
0010
0100
1000
0010
0100
0010
1000
0010
0100
0010
,
1000
0010
0100
0010
1000
0010
0100
0010
1000
0100
0010
0001
1000
0100
0010
0001
,
1000
0100
0010
0001
1000
0000
0001
1000
0010
0000
0110
0000
0001
0000
0100
0001
,
0010
0001
0000
0001
1000
0000
0001
1000
0001
0010
0100
0010
0001
0010
0100
0010
,
0001
0010
0100
0010
0001
0010
0100
0010
0001
0100
0010
0100
0001
0100
0010
0100
,
0001
0100
0010
0100
0001
0100
0010
0100
0001
1000
0010
1000
0001
1000
0010
1000
,
0001
1000
0010
1000
0001
1000
0010
1000
0001
0000
0100
0000
0110
0000
0010
1000
,
0100
1000
0000
1000
0001
0000
1000
0001
0010
0001
0100
0001
0010
0001
0100
0001
,
0010
0001
0100
0001
0010
0001
1000
0001
1000
0100
0010
0100
1000
0100
0010
0100
,
1000
0100
0010
0100
1000
0100
0010
0100
1000
0010
0100
0001
1000
0010
0100
0001
,
1000
0010
0100
0001
1000
0010
0100
0001
1000
0000
1001
0000
0010
0000
0100
0010
,
1000
0001
0000
0001
0010
0000
0001
0000
0101
0000
0101
0000
0011
0000
0001
1000
,
0100
0000
1000
0001
0100
0000
0110
0000
0010
0000
1000
0001
0010
0000
0001
1000
,
0100
0000
1100
0000
1000
0000
0001
0100
0010
0000
0100
0001
0010
0100
1000
0100
,
0010
0001
1000
0001
1000
0000
1010
0000
1010
0000
0001
0100
0010
0000
1000
0010
,
0100
0000
0110
0000
0010
0000
1000
0001
0100
0000
0001
1000
0010
0000
1010
0000
,
1000
0000
0001
1000
0100
0000
1000
0001
0010
0100
0010
0100
0010
0001
0010
0001
,
1000
0000
0100
1000
0010
0100
0001
0010
0100
1000
0100
1000
0010
0100
0001
0010
,
0100
1000
0001
1000
0001
0010
0100
1000
0001
0010
0001
0010
1000
0010
1000
0010
,
0001
0100
1000
0100
0002
0000
0000
0000
0000
0000
0000
0000
0000
0000
0000
0000
,
0000
0000
0000
0000
,
0000
2003
0000
3020
,
0000
0000
0000
1030
0100
0001
0100
1000
0010
0001
0010
1000
,
0100
0000
0010
0000
0100
0000
2000
0000
0000
0010
0000
0000
0000
0000
0000
3001
0000
0000
0200
0000
0000
0001
0000
0000
,
0000
0000
0000
0310
0000
0000
0001
0000
0010
0000
1000
0000
0010
0000
0001
0000
0100
0000
1000
0000
0100
0000
0001
0000
,
0010
0000
0100
0000
1000
0000
0200
0000
0000
1000
0000
0000
0000
0000
0000
0310
0000
0000
0002
0000
0000
0100
0000
0000
,
0000
0000
0000
1003
0000
0000
0010
0000
0100
0000
0001
0000
0010
0000
0100
0000
1000
0000
0010
0000
0001
0000
0010
0000
,
1000
0000
0100
0000
0001
0000
0200
0000
0000
1000
0000
0000
0000
0000
0000
0010
0000
0000
2300
0000
0000
0001
0000
0000
,
0000
0000
0000
0010
0000
0000
3001
0000
0100
0000
1000
0000
0100
0000
0001
0000
0010
0000
0100
0000
1000
0000
0010
0000
,
0001
0000
0010
0000
1000
0000
0002
0000
0000
0010
0000
0000
0000
0000
0000
1003
0000
0000
0200
0000
0000
1000
0000
0000
,
0000
0000
0310
0000
0100
0010
0100
0000
0001
0000
1000
0000
0001
0010
0001
0000
,
1000
0100
1000
0000
0010
0100
0001
0000
0100
0000
0010
0000
1000
0100
1000
0000
,
0001
0010
0001
0000
0100
0010
1000
0000
0010
0000
0100
0000
0001
0000
1000
0001
,
1000
0001
1001
1001
0010
0100
0002
0010
,
1003
0000
0000
0000
0110
0000
0001
0000
0101
0000
0010
0000
1000
0000
0100
0010
,
0001
0000
1000
0000
0100
0000
1000
0010
0100
0000
0010
1000
0001
1000
0000
1000
,
0010
0000
0100
0010
1000
0000
0010
0000
0110
0000
1000
0000
0001
0000
1000
0000
,
1001
0000
0001
0010
0100
0000
0110
0000
0110
0000
0010
0001
0100
0010
0000
0010
,
1000
0000
0001
0000
1001
0000
0010
0000
0110
0000
0001
0000
1000
0000
0100
1000
,
0010
0000
0100
0000
0001
0000
1000
0000
1010
0000
1000
0010
0100
0010
0000
0010
,
1000
0000
0001
1000
0100
0000
0010
0000
0011
0000
1000
0000
0100
0000
1000
0000
,
1001
0000
0010
0100
0001
0000
0101
0000
0010
0000
0000
0000
1000
0100
0000
0100
,
1000
0000
0001
1000
0002
0000
0010
0000
0100
0000
1003
0000
0010
0000
0100
0001
,
0100
0000
0010
0000
2000
0000
0100
0000
0001
0000
3010
0100
0001
0100
0000
0100
,
0010
0000
1000
0000
0002
0000
0010
0000
0100
0000
0013
0000
1000
0000
0100
1000
,
0100
0000
1000
0000
1001
0000
0010
0000
0100
0000
0001
1000
0010
0000
1000
0001
,
0100
0200
0000
0000
0000
0000
0000
0000
,
0310
0000
0000
0000
1010
0000
1010
0000
0100
1000
0100
1000
0010
0100
0001
0010
,
0100
0000
0110
0000
0010
0001
0010
0001
0100
0010
1000
0001
1000
0000
1001
0000
,
1000
0100
0010
0100
1000
0010
0100
0001
0010
0000
0011
0000
0001
0100
0010
0100
,
0001
0010
0100
1000
0001
0000
1001
0000
1000
0010
0100
0010
1000
0100
0001
0100
,
1000
0000
1100
0000
1000
0010
0100
0001
1000
0010
0001
0010
0100
0000
0110
0000
,
0001
0010
0100
1000
0001
0010
1000
0010
0001
0000
0011
0000
1000
0100
0001
0100
,
1000
0001
1000
0001
1000
0010
1000
0010
0100
0010
1000
0100
0010
0001
1000
0001
,
0100
0010
0100
0010
0100
0001
0100
0010
1000
0100
0010
0100
1000
0001
1000
0001
,
1000
0010
1000
0100
0010
0100
1000
0010
0100
0001
0100
0001
0100
0010
0100
0001
,
0010
0100
1000
0001
0010
0001
0010
0001
0010
0100
0010
0001
0100
0010
1000
0010
,
0100
0010
0100
0010
0100
0001
1000
0100
0010
0100
1000
0010
1000
0100
1000
0100
,
0001
0100
1000
0010
0100
0001
1000
0001
1000
0010
1000
0010
0001
0010
1000
0100
,
1000
0010
0001
0100
1000
0100
1000
0100
0010
0100
0010
0100
0010
0001
0010
0001
,
0100
0010
0100
0010
0100
0001
0100
0001
1000
0100
0010
0100
1000
0010
0001
0010
,
1000
0100
0001
0100
1000
0001
0010
0001
0200
0000
0000
0000
0000
0000
0000
0000
,
0000
0000
0310
0000
,
2002
0000
0000
0000
,
0000
0000
0000
0000
,
3003
0000
0000
0000
;
