#TITLE:冥;
#ARTIST:Amuro vs Killer;
#TITLETRANSLIT:MEI;
#BANNER:MEI.png;
#BACKGROUND:MEI-bg.png;
#JACKET:MEI-jacket.png;
#CDTITLE:./CDTITLES/BEATMANIA IIDX.PNG;
#MUSIC:MEI.ogg;
#SAMPLESTART:40.1;
#SAMPLELENGTH:15;
#BPMS:0=200,200=100,216=110,220=120,224=130,228=140,232=150,236=160,240=170,244=180,248=190,256=200,370=180,372=175,376=165,378=140,379=100,380=110,381=90,382=66;

//---------------dance-single - t7r----------------
#NOTES:
     dance-single:
     t7r:
     Beginner:
     3:
     :
0000
0000
0000
0000
,
0000
0000
0000
0000
,
0000
0000
0000
0000
,
0000
0000
0000
0000
,
0000
0000
0000
0000
,
0000
0000
0000
0000
,
1000
0000
0000
0000
,
0000
0000
0000
0000
,
0001
0000
0000
0000
,
0000
0000
0000
0000
,
1000
0000
1000
0000
,
0100
0000
0000
0000
,
0010
0000
0010
0000
,
0001
0000
0000
0000
,
1000
0000
0000
0000
,
0000
0000
0000
0000
,
0001
0000
0000
0000
,
0000
0000
0000
0000
,
0000
0100
0000
0000
,
0000
0010
0000
0000
,
0000
1000
0000
0000
,
0000
0001
0000
0001
,
0000
0100
0000
0000
,
0000
0010
0000
0000
,
0000
1000
0000
0000
,
0000
0100
0000
0100
,
0100
0000
0000
0000
,
1000
0000
0000
0000
,
0001
0000
0000
0000
,
0100
0000
0000
0000
,
0001
0000
0000
0000
,
1000
0000
0000
0000
,
0001
0000
1000
0000
,
1001
0000
0000
0000
,
0010
0000
0000
0000
,
0100
0000
0000
0000
,
0001
0000
0000
0000
,
0100
0000
0000
0000
,
0001
0000
0000
0000
,
1000
0000
0000
0000
,
0100
0000
0000
0000
,
1000
0000
0000
0000
,
0001
0000
0000
0000
,
0000
0000
1000
0000
,
1000
0000
0000
0000
,
0000
0000
0010
0000
,
0010
0000
0000
0000
,
0000
0000
0100
0000
,
0001
0000
0000
0000
,
0001
0000
1000
0000
,
1001
0000
0000
0000
,
0000
0000
0000
0000
,
0000
0000
0000
0000
,
0010
0000
0000
0000
,
0100
0000
0000
0000
,
0010
0000
0000
0000
,
1000
0000
0000
0000
,
0001
0000
0000
0000
,
1000
0000
1000
0000
,
0001
0000
0001
0000
,
1000
0000
0000
0000
,
0001
0000
0000
0000
,
0100
0100
0100
0000
,
0100
0000
0000
0000
,
0000
0000
0000
0000
,
0000
0010
0000
0000
,
0000
1000
0000
0000
,
0000
0001
0000
0000
,
0000
1000
0000
0000
,
0100
0000
0100
0000
,
0000
0000
0000
0000
,
1000
0000
1000
0000
,
0000
0000
0000
0000
,
0001
0000
0000
0000
,
0100
0000
0000
0000
,
0001
0000
0000
0000
,
1000
0000
0001
0000
,
1000
0000
0000
0000
,
0001
0000
0010
0000
,
0100
0000
0100
0000
,
1000
0000
0001
0000
,
1000
0000
0000
0000
,
0001
0000
0000
0000
,
0100
0000
0010
0000
,
1000
0000
0001
0000
,
1000
0000
0000
0000
,
0100
0000
1000
0000
,
0001
0000
0100
0000
,
0001
0000
1000
0000
,
0010
0000
0000
0000
,
0100
0000
0010
0000
,
1000
0000
0000
0000
,
0001
0000
1000
0000
,
0100
0000
0000
0000
,
1000
0000
0100
0000
,
0010
0000
0000
1001
;

//---------------dance-single - t7r----------------
#NOTES:
     dance-single:
     t7r:
     Easy:
     6:
     :
0000
0000
0000
0000
,
0000
0000
0000
0000
,
0000
0000
0000
0000
,
0000
0000
0000
0000
,
0000
0000
0000
0000
,
0000
0000
0000
1000
,
0001
0000
0000
1000
0000
0000
0001
0000
,
0000
0000
0000
0001
,
0100
0000
0000
0100
0000
0000
1001
0000
,
0000
0000
0000
1000
,
0100
0100
1000
1000
,
0001
0001
1000
0010
,
0100
0100
0010
0010
,
2000
0010
0100
3001
,
1000
1000
0100
0100
,
1000
0001
0100
0100
,
0001
1000
0001
0010
,
0200
0000
0000
0310
,
1001
0001
0000
0001
,
0100
0001
0000
1000
,
0010
1000
0000
0001
,
1000
1000
0001
1000
,
0001
0100
0000
0001
,
1000
0100
0000
1000
,
0001
0100
0000
0010
,
0100
0010
0000
0010
,
1001
0100
0000
1000
,
0100
0010
0000
0001
,
0010
0100
0000
1000
,
0100
1000
0000
0010
,
0100
0001
0000
1000
,
0001
0100
0000
0001
,
0100
1000
0000
0100
,
0002
0000
0000
0000
0000
1003
0000
0000
,
1010
0000
0001
0000
,
0100
0100
0010
1000
,
0001
0100
0001
1000
,
0100
0010
0001
0010
,
0100
0000
1000
0000
,
0100
1000
0010
0100
,
0001
1000
0001
0010
,
1000
0100
1000
0010
,
1001
0000
1100
0000
,
0001
0100
0001
1000
,
0010
0100
0001
1000
,
0100
0010
0001
0010
,
0110
0000
1001
0000
,
0001
0010
0100
1000
,
0010
0001
0100
0001
,
0010
1000
0100
0001
,
0220
0000
0000
0330
,
0010
0000
0000
0000
,
0110
0000
0000
0000
,
1001
0000
0000
1001
,
2002
3003
0000
0000
,
2002
3003
0000
0000
,
2002
3003
0000
0000
,
2002
3003
0000
0000
,
1001
0000
1001
0000
,
1001
0000
1001
0000
,
0110
0000
1001
0000
,
0001
1001
1001
1001
,
1000
0000
1000
0000
,
0002
0000
0000
0000
,
0000
0000
0000
0003
,
1000
0000
1000
0000
,
0100
0010
0100
1000
,
0010
0100
0001
1000
,
0010
1000
0001
0100
,
0001
0001
2000
3000
,
0000
0001
0001
0100
,
0020
0030
2000
3000
,
0002
0003
0200
0300
,
1001
0000
0000
0000
0010
0000
0000
0010
,
0000
0000
0000
0000
0100
0000
0000
0100
,
0010
0000
0000
0000
1000
0000
0000
0001
,
0000
0000
1000
0100
,
0010
0000
0000
0000
0100
0000
0000
1000
,
0000
0000
0001
0100
,
0001
0001
1000
1000
,
0002
0003
2002
3003
,
0010
0000
0000
0010
0000
0000
0010
0000
,
0100
0100
0010
1000
,
0001
0100
0001
1000
,
0100
0001
0010
1000
,
0010
0000
0000
0000
1000
0000
0000
0001
,
0000
0001
0000
0000
0100
0000
0000
0000
,
0001
0000
0000
0000
1000
0000
0000
0010
,
0000
0010
0000
0000
1000
0000
0000
0000
,
1001
0100
0010
0001
,
0010
0100
1000
0100
,
1000
0010
0100
0001
,
1000
0010
1000
0001
,
0100
0001
1000
0010
,
0100
0000
0000
0000
0000
0000
0000
0000
0010
0000
0000
0000
0000
0100
0000
0000
,
0010
1000
0001
0100
0001
1000
0001
0000
;

//---------------dance-single - t7r----------------
#NOTES:
     dance-single:
     t7r:
     Medium:
     10:
     :
0000
0000
0000
0000
,
0000
0000
0000
0000
,
0000
0000
0000
0000
,
0000
0000
0000
0000
,
0000
0000
0000
0000
,
0000
0000
0000
1000
,
0010
1000
0000
0010
1000
0000
0010
0000
,
0000
1000
0000
0000
0000
0000
0010
0000
,
0100
0010
0000
1000
0001
0000
0100
0010
,
0000
1000
0000
0000
0000
0000
0001
0000
,
1000
0100
0010
0100
,
1000
0000
0010
0000
0100
0000
0001
1000
,
0100
1000
0010
0100
,
0001
0100
0001
0000
1000
0100
1000
0000
,
1001
0010
1000
0001
,
0100
0001
1000
0010
,
0100
0010
1000
0000
0010
0100
0001
0000
,
2000
0000
0000
3000
,
0001
0000
1000
0000
0000
0001
0100
0000
,
0001
0000
1000
0000
0000
0001
1000
0000
,
0100
0000
0010
0000
0000
0001
1000
0000
,
0001
0000
0100
0100
0000
0000
1001
0000
,
0010
0000
1000
0000
0000
0010
0100
0000
,
0010
0000
1000
0000
0000
0010
1000
0000
,
0001
0000
1000
0000
0000
0100
0010
0000
,
0001
1000
0001
1000
,
0001
0000
0100
0001
1000
0000
1001
0000
,
1000
0000
0100
1000
0001
0000
1001
0000
,
0010
0000
0100
0010
1000
0000
0110
0000
,
0010
0000
0100
0010
0001
0000
1010
0000
,
0010
1000
0001
0100
,
0001
0010
0100
1000
,
0100
0000
0010
0001
0100
0000
0001
0000
,
2001
0000
0000
0000
0000
3001
0000
0000
,
1010
0000
0000
0000
1100
0000
0000
0001
,
0000
0001
0000
0000
0100
0100
0001
0000
,
0100
0100
0000
0000
0010
0000
0000
0100
,
0000
0100
0000
0000
0010
0010
1000
0000
,
1100
0000
0000
0000
1001
0000
0000
0001
,
0000
1000
0000
0000
0001
0001
1000
0000
,
0101
0000
0000
0000
0011
0000
0000
0100
,
0000
0100
0000
0000
0001
1000
0001
0000
,
2001
0100
0001
0010
,
3001
0000
0100
0001
0000
0000
1000
0000
,
0001
0000
1000
0010
0100
0000
0010
0000
,
0100
0001
1000
0000
0001
1000
0001
0000
,
1100
0000
0000
0000
0011
0000
0000
0100
,
0000
0010
0000
0000
0100
0100
0001
0000
,
1001
0000
0000
0000
0110
0000
0000
0010
,
0000
1000
0000
0000
0001
0100
0001
0000
,
1001
0000
0000
0100
0000
0000
0001
0000
1000
0000
0000
0001
0000
0000
1000
0000
,
0100
0000
0000
0010
0000
0000
0100
0000
1000
0000
0000
0001
0000
0000
0100
0000
,
0001
0000
0000
1000
0000
0000
0010
0000
1000
0000
0000
0010
0000
0000
0100
0000
,
0001
0000
0000
0100
0000
0000
0001
0000
1000
0000
0000
0001
0000
0000
1000
0000
,
1001
0000
0000
0010
0000
0000
0100
0000
0001
0000
0000
0100
0000
0000
0001
0000
,
1001
0000
0000
1000
0000
0000
0100
0000
1000
0000
0000
0001
0000
0000
0100
0000
,
0110
0000
0000
0010
0000
0000
1000
0000
0010
0000
0000
0100
0000
0000
0001
0000
,
0101
0000
0000
0001
0000
0000
1000
0000
0100
0000
0000
0001
0000
0000
1000
0000
,
1100
0000
0000
0100
0000
0000
0000
0000
0010
0000
0000
0010
0000
0000
0000
0000
,
0001
0000
0000
0001
0000
0000
0000
0000
0100
0000
0000
0100
0000
0000
0000
0000
,
0010
0020
0000
1000
1000
1030
0001
1000
,
0001
1001
0110
1001
,
0010
0010
0100
0100
0001
0001
1000
1000
,
0002
0000
0000
0000
,
0000
0000
0000
0003
,
1000
0000
0001
0000
0100
0000
0001
0100
,
0000
0100
0001
0000
1000
1000
0001
0000
,
1000
0000
0100
0000
0010
0000
0100
1000
,
0000
1000
0100
0000
1000
1000
0010
0100
,
0001
0000
0100
0000
0001
0000
1000
0001
,
0000
0001
1000
0000
0001
0001
1000
0000
,
0001
0000
0010
0000
0100
0000
0010
0001
,
0000
0001
0100
0000
0001
1000
0001
1000
,
0001
0000
1000
0000
0010
0000
0100
0002
,
0000
0003
0100
0000
0010
0000
1000
0001
,
2000
0000
3001
0000
1000
0000
0100
0020
,
0000
0030
0000
0000
0100
0000
1000
0000
,
0010
0000
0100
0000
0001
0000
1000
0001
,
0000
0001
1000
0000
0001
0010
0100
0000
,
0010
0001
0100
0010
,
1000
0000
1001
0000
,
0101
0000
0000
1001
0000
0000
0101
0000
,
0000
1001
0000
0000
0100
0000
1000
0000
,
0100
0010
0001
1000
,
0100
0000
1000
0000
0001
0000
0100
0001
,
1000
0000
0001
0000
0100
0000
0010
1000
,
0000
1000
0010
0000
0100
0100
0001
0000
,
0100
0000
0010
0000
1000
0000
0001
1000
,
0000
1000
0100
0000
0010
0010
0001
0000
,
1100
0100
0010
0001
,
0100
0010
1000
0010
,
0100
0001
1000
0001
,
0100
0001
1000
0010
,
0100
0010
1000
0100
,
0010
0000
0000
0000
0000
0000
0000
0000
0011
0000
0000
0000
0000
1100
0000
0000
,
1001
0001
0100
0001
1000
0001
1001
0000
;

//---------------dance-single - t7r----------------
#NOTES:
     dance-single:
     t7r:
     Hard:
     13:
     :
0000
0000
0000
0000
,
0000
0000
0000
0000
,
0000
0000
0000
0000
,
0000
0000
0000
0000
,
0000
0000
0000
0000
,
0000
0000
0000
0000
0000
0000
0010
0001
,
0100
0001
0000
1000
0010
1000
0000
0010
,
0100
0000
0110
0000
0000
0000
0010
0100
,
0001
0000
1000
0001
0100
0000
0001
1000
,
0010
0000
0101
0000
0000
0000
1000
0001
,
0100
0010
1000
0000
0010
0100
0001
0000
,
1000
0100
0010
0000
0001
0010
0100
0000
,
1000
0001
0100
0000
0001
1000
0001
0000
,
1000
0010
0010
0100
0100
0001
1000
0000
,
0001
1000
0100
0000
1000
0100
0001
0000
,
0100
1000
0010
0000
0100
0001
1000
0000
,
0010
0100
0001
1000
0001
0010
0100
0000
,
2100
0000
0000
3010
,
0101
0000
1001
0000
0000
0001
0100
0000
,
1100
0000
1001
0000
0000
1000
0100
0000
,
0110
0000
1001
0000
0000
0001
1000
0000
,
1010
0000
0010
0100
0000
0100
0001
0100
,
0100
0000
0011
0000
0000
1000
0100
0000
,
1100
0000
1010
0000
0000
1000
0001
0000
,
0110
0000
1001
0000
0000
0001
0100
0000
,
0001
0000
1000
0100
0000
0100
0010
0010
,
0001
0000
1100
0000
1000
0100
0001
0000
,
1000
0000
0101
0000
0001
0010
1000
0000
,
0001
0000
1010
0000
0010
0100
0001
0000
,
0100
0000
0010
0100
0000
0100
0010
1000
,
1000
0000
0000
0001
0000
0000
0100
0000
0100
0000
0000
0000
1001
0000
0000
0000
,
0001
0000
0000
1000
0000
0000
0100
0000
0100
0000
0000
0000
1001
0000
0000
0000
,
1000
0000
0000
0010
0000
0000
0100
0000
0001
0000
0000
0000
0001
0000
1000
0000
,
0200
0000
0000
0000
0000
0310
0000
0000
,
1001
0000
0001
0000
1100
0000
1000
0100
,
0000
0100
1000
0000
0001
0001
1000
0000
,
0010
0100
0001
0000
0100
0000
0010
0100
,
0000
0100
0001
0000
1000
0001
0100
0000
,
1001
0000
0001
0000
0101
0000
1000
0010
,
0000
0010
1000
0000
0010
0010
0100
0000
,
0010
0000
1000
0000
0001
0000
1000
0100
,
0000
1000
0001
0000
0100
0001
1000
0010
,
0102
1000
0010
1000
,
0103
0000
0010
1000
0000
1000
0001
0100
,
0002
0000
0013
0100
1000
0100
0010
0001
,
0100
0010
1000
0000
0010
0100
0001
0000
,
1000
0001
0100
0001
2000
0000
3010
0000
,
0100
0110
1001
0101
,
1000
0000
0000
0001
0000
0000
0001
0000
0000
0001
0000
0000
1000
0000
0100
0000
,
1000
0001
0000
1001
0000
0010
0100
0001
,
1000
0000
0000
0001
0000
0010
0100
0000
0110
0000
0000
1001
0000
0000
0110
0000
,
0001
0000
0000
1000
0000
0001
0100
0000
0101
0000
0000
1010
0000
0000
0101
0000
,
1000
0000
0000
0100
0000
1000
0001
0000
1001
0000
0000
0101
0000
0000
1001
0000
,
0100
0000
0000
0010
0000
0001
0010
0000
1100
0000
0000
0101
0000
0000
1100
0000
,
1001
0000
0000
0001
0000
0000
0100
0000
0010
0000
0000
1010
0000
0000
0101
0000
,
0001
0000
0000
1000
0000
0000
0100
0000
0010
0000
0000
1100
0000
0000
1001
0000
,
1000
0000
0000
0010
0000
0000
0100
0000
0001
0000
0000
1001
0000
0000
0110
0000
,
0010
0000
0000
0100
0000
0000
0001
0000
1000
0000
0000
1100
0000
0000
1010
0000
,
0100
0000
0000
0110
0000
0000
0000
0000
0001
0000
0000
1001
0000
0000
0000
0000
,
1000
0000
0000
1100
0000
0000
0000
0000
0010
0000
0000
0011
0000
0000
0000
0000
,
1000
2001
0000
3001
1001
1001
0000
0100
,
1010
0101
1100
1001
,
1000
0001
1000
0001
0100
0010
0100
0010
,
2000
0000
0000
0000
,
0001
0001
0001
3001
,
2001
0000
3001
0100
0010
1000
0010
0100
,
0001
1000
0100
0010
0001
0010
0100
0000
,
1000
0100
1000
0010
1000
0001
0100
0001
,
1000
0010
0100
0001
0100
0010
1000
0010
,
0200
0000
0301
1000
0100
0000
1000
0100
,
0000
0100
1000
0000
0001
0001
1000
0010
,
0200
0000
0310
0100
0001
1000
0010
0100
,
0010
1000
0100
0010
0001
0010
0100
1000
,
0200
0000
1300
0001
0100
0000
0001
2000
,
0000
3010
1000
0001
0200
0000
0301
1000
,
0002
0000
0013
0100
2000
0000
3100
0020
,
0000
0030
0000
0001
0010
0000
0001
0100
,
0020
0000
1030
0010
0100
0001
1000
0002
,
0000
0000
0000
1003
0001
0000
1001
0000
,
0010
1000
0001
0100
0010
1000
0001
0100
,
0001
0001
0000
1000
0001
0000
1001
0000
,
1010
0000
0000
0101
0000
0000
1100
0000
,
0000
1001
0000
0000
0001
0100
0001
0000
,
1000
0100
0010
0001
1000
0100
0010
0001
,
1000
0010
0001
0010
1000
0100
0001
0100
,
2000
0000
3001
0100
0001
1000
0001
0020
,
0000
0000
0030
0000
0000
0000
0000
0000
0110
0000
0000
1001
0000
0000
0001
0000
,
0100
0002
0000
1003
0010
0100
0001
0000
,
1001
0000
0010
1000
0100
0000
0010
0001
,
0200
0000
0310
1000
0001
0100
0001
0000
,
1000
0010
0100
0001
0100
0000
0101
0000
,
0001
0010
0100
1000
0001
0010
0100
1000
,
0100
0010
0001
1000
0010
0100
0002
0000
,
0103
0010
1000
0001
0100
0001
1000
0010
,
0100
0000
0000
0000
0000
0000
0000
0000
0110
0000
0000
0000
0000
1001
0000
0000
,
1010
0010
1000
0001
0100
0001
1001
0000
;

//---------------dance-single - t7r----------------
#NOTES:
     dance-single:
     t7r:
     Challenge:
     15:
     :
0000
0000
0000
0000
,
0000
0000
0000
0000
,
0000
0000
0000
0000
,
0000
0000
0000
0000
,
0000
0000
0000
0000
,
0000
0000
0000
0000
0000
0000
0010
1000
,
0001
0010
0000
0100
1000
0100
0000
1000
,
0001
0000
1001
0000
0000
0000
0010
1000
,
0001
0100
0010
1000
0001
0100
0001
1000
,
0100
0000
1100
0000
0000
0000
0100
0010
,
0001
0000
0100
0000
0010
0000
0000
0010
1000
0000
0001
0000
0100
0000
0001
0000
,
1000
0000
0100
0000
1000
0000
0000
0001
0100
0000
0001
0000
0000
0000
0001
0000
,
1000
0000
0001
0000
0100
0000
0000
0100
0010
0000
1000
0000
0010
0000
0100
0000
,
0001
0001
1000
1000
0100
0100
1000
1000
,
0100
0000
0010
0000
0001
0000
0000
0001
0100
0000
0001
0000
1000
0000
0010
0000
,
0100
0000
0010
0000
1000
0000
0000
1000
0100
0000
1000
0000
0000
0000
1000
0000
,
0001
0100
0010
1000
0010
1000
0001
0100
,
0220
0000
0330
MMMM
,
0101
0000
1001
0000
0010
1000
0100
0000
,
1100
0000
1001
0000
0010
0001
0100
0000
,
0110
0000
1001
0000
0010
1000
0001
0000
,
1100
0000
0001
0001
0000
1100
0001
0100
,
0100
0000
0110
0000
0010
1000
0001
0000
,
1100
0000
1010
0000
0010
0100
0001
0000
,
0101
0000
0011
0000
1000
0100
0001
0000
,
1100
MMMM
1001
MMMM
0101
MMMM
1001
MMMM
,
0001
0000
0000
0101
0000
0000
1000
0000
1000
0000
MMMM
0000
1001
0000
0000
0000
,
1000
0000
0000
1100
0000
0000
0001
0000
0001
0000
MMMM
0000
0101
0000
0000
0000
,
0010
0000
0000
1010
0000
0000
0100
0000
0100
0000
MMMM
0000
1001
0000
0000
0000
,
0010
0000
0000
0011
0000
0000
0100
0000
0100
0000
MMMM
0000
1000
0000
0100
0000
,
1000
0000
0000
1001
0000
0000
0001
0000
0100
0000
0000
0000
0001
0000
1000
0000
,
0001
0010
0000
0100
1000
0100
0010
0001
,
0100
0010
1000
0010
0100
0001
1000
0000
,
2001
0000
0000
0000
3010
MMMM
0001
0100
,
0101
0000
1001
1100
0000
1001
0101
0000
,
1001
1010
0000
0010
0100
0001
1000
0000
,
0001
0010
0100
1000
0100
0010
0001
0100
,
0010
1000
0010
0100
0001
1000
0001
0100
,
1010
1001
0000
0011
1001
1010
0000
1010
,
1001
0011
0000
0001
0010
0100
1000
0100
,
0011
0000
0001
0100
0010
1000
0010
0100
,
0001
0000
0000
1001
0000
0000
0001
0000
0100
0000
0001
0000
1000
0000
0001
0000
,
1100
MMMM
0110
MMMM
1001
MMMM
0101
MMMM
,
1001
0000
0001
1000
0000
1000
0001
0100
,
1010
0000
0010
0100
0001
1000
0001
0010
,
0100
0010
0001
0100
0010
1000
0010
0100
,
0001
1000
0001
1000
0100
0000
1100
MMMM
,
0011
MMMM
1100
1000
0100
0000
1000
0001
,
1000
0000
0000
1001
0000
0000
1001
0000
0000
1001
0000
0000
0010
0000
0100
0000
,
0001
1000
0000
1001
0000
0001
0010
0100
,
1001
0100
0000
1000
0000
0001
0100
0000
0001
1000
0000
MMMM
0000
1000
0010
0100
,
0001
1000
0000
0001
0000
1000
0100
0000
0010
0100
0000
MMMM
0000
0100
0010
0001
,
0100
0010
0000
1010
0000
0010
0100
0000
0001
1000
0000
MMMM
0000
0001
0010
0100
,
1000
0100
0000
1100
0000
1000
0001
0000
0100
0001
0000
MMMM
0000
0001
1000
0001
,
1001
0000
0010
0100
0000
0100
0010
0000
1000
0000
0001
1000
MMMM
1000
0001
0000
,
1001
0000
0100
0010
0000
0010
0001
0000
0100
0000
0010
1000
MMMM
1000
0001
0000
,
1001
0000
0001
0100
0000
0001
1000
0000
0100
0000
0010
0001
MMMM
0010
0100
0000
,
1001
0000
0100
1000
0000
0001
0100
0000
0001
0000
1000
0010
MMMM
0001
0010
0100
,
1001
0000
0100
0010
MMMM
0010
0100
0000
1001
0000
0100
0010
MMMM
0010
0100
0000
,
0101
0000
0001
0100
MMMM
0100
0001
0000
1001
0000
1000
0001
MMMM
0001
1000
0000
,
1100
1100
MMMM
1010
1010
1010
MMMM
0010
,
1010
MMMM
1001
MMMM
0101
MMMM
1001
MMMM
,
0001
0100
0101
1000
0001
0010
0110
1000
,
0100
0010
0001
0100
0010
1000
0001
0100
,
2002
0000
3003
MMMM
,
2001
0000
3010
1000
0001
0100
0001
0010
,
0100
1000
0100
0010
0001
0100
0010
0100
,
MMMM
0000
0001
0100
0001
1000
0001
0010
,
0100
1000
0100
0001
0100
1000
0010
0001
,
MMMM
1000
0100
0010
0002
0000
0013
0100
,
0000
0100
1000
0000
0100
0100
0010
0001
,
MMMM
0000
0010
1000
0010
0001
0010
1000
,
0100
0001
0100
1000
0010
0001
0010
1000
,
MMMM
0000
1000
0001
MMMM
0000
0001
MMMM
,
0000
0001
0010
0100
MMMM
0000
0100
0010
,
MMMM
0000
0100
0001
MMMM
0000
0001
MMMM
,
0000
0001
0100
0010
1010
0000
0010
0100
,
0101
0000
0001
1000
0100
1000
0001
1001
,
0000
1000
0010
0100
0001
1000
0100
0000
,
0011
0000
0000
0001
0010
0000
0000
0010
0100
0000
0000
0100
1000
0000
0000
1000
,
0001
1000
0001
0000
0000
0000
1000
0001
1000
0000
0000
0000
MMMM
0000
0000
0000
,
0011
MMMM
1000
0101
MMMM
0001
1100
MMMM
,
1000
0011
MMMM
1000
0100
0010
0001
0100
,
0010
1000
0010
0100
0001
1000
0001
0010
,
0100
1000
0100
0010
0001
0100
0010
1000
,
MMMM
0000
0010
1000
0001
1000
0001
MMMM
,
0000
0000
0100
0000
0010
0000
0001
0000
0011
0000
0000
0101
0000
0000
1000
0000
,
MMMM
0000
1000
0010
0100
0001
1000
0000
,
MMMM
0000
0010
1000
1100
0000
0010
0001
,
MMMM
0000
0001
1000
0100
1000
0010
0000
,
0100
0001
1000
0010
0100
0001
1000
0100
,
0010
0001
0010
0100
1000
0100
1000
0010
,
0100
0001
1000
0001
0100
0001
0020
0000
,
0031
0100
1000
0100
0010
1000
0100
0010
,
0002
0000
0000
0000
0000
0000
0000
0000
1003
0000
MMMM
0000
0000
1001
0000
0000
,
0101
0001
0100
0010
1000
0100
0011
0000
;
