#TITLE:Leaving All Behind;
#ARTIST:CELLADOR;
#BANNER:Leaving All Behind.png;
#BACKGROUND:Leaving All Behind-bg.png;
#JACKET:Leaving All Behind-jacket.png;
#CDTITLE:./CDTITLES/NONE.PNG;
#MUSIC:Leaving All Behind.ogg;
#SAMPLESTART:48;
#SAMPLELENGTH:15;
#BPMS:0=170,20=170.4,24=166.9,26=168.3,28=174.5,30=172.8,32=167.8,34=172,36=172.7,40=170,44=172.2,48=169.4,52=169.7,56=169.8,58=169.2,60=164,62=171.9,64=172.3,66=163.1,67=170,68=167.3,72=174.7,76=170.7,80=171.7,84=167.6,88=170.1,92=169.8,96=173.3,100=168.8,102=163.9,104=169.7,108=169.5,110=165.2,112=173.6,116=169,120=167.4,124=173.6,128=166.6,132=162.4,133.54167=174,136=172.2,140=168.8,144=174.3,148=171.3,152=168,156=170.8,160=170.5,164=167.6,168=166.6,172=170.2,176=173.7,180=171.7,184=168.3,188=169.7,192=168.6,194=170.2,196=178,198=166.3,199=159.5,200=172.9,204=169.1,212=169.9,216=170.9,220=172.2,224=170.3,228=169,232=170.2,236=168.6,240=170.7,244=167.9,246=174.1,248=166.2,252=167.9,256=169.9,260=170;

//---------------dance-single - t7r----------------
#NOTES:
     dance-single:
     t7r:
     Beginner:
     2:
     :
0000
0000
0000
0000
,
0000
0000
0000
0000
,
0000
0000
0000
0000
,
0000
0000
0000
0000
,
0000
0000
0000
0000
,
0100
0000
0000
0000
,
0010
0000
0000
0000
,
1000
0000
0000
0000
,
0001
0000
0100
0000
,
0000
0001
0000
0001
,
0000
1000
0000
1000
,
0000
0001
0000
0100
,
0100
0000
0010
0000
,
0000
1000
0000
1000
,
0000
0100
0000
0100
,
0000
0010
0000
0001
,
0001
0000
0010
0000
,
0100
0000
0000
0000
,
0000
0010
0000
0000
,
0000
0001
0000
0000
,
0000
0100
0000
0000
,
0010
0000
1000
0000
,
0001
0000
0000
0000
,
1000
0000
0000
0000
,
0100
0000
0010
0000
,
0100
0000
1000
0000
,
0001
0000
0000
0000
,
0100
0000
0010
0000
,
1001
0000
0000
0000
,
0001
0000
0000
0000
,
0100
0000
0000
0000
,
0001
0000
1000
0000
,
0100
0000
0000
0100
,
0100
0000
0000
0000
,
0010
0000
0001
0000
,
1000
0000
0100
0000
,
0010
0000
0000
0000
,
0000
0000
0000
0000
,
0001
0000
0010
0000
,
0100
0000
1000
0000
,
0100
0000
0000
0000
,
0000
0000
0000
0000
,
1000
0000
1000
0000
,
0001
0000
0001
0000
,
1000
0000
0100
0000
,
0010
0000
0000
0000
,
0001
0000
0010
0000
,
0100
0000
1000
0000
,
0001
0000
0010
0000
,
0001
0000
0000
0000
,
0100
0000
0000
0100
,
0100
0000
0000
0010
,
0010
0000
0000
1000
,
1000
0000
0001
0000
,
1000
0000
0000
0001
,
0001
0000
0000
0100
,
0100
0000
0000
0010
,
0010
0000
1000
0000
,
0100
0000
0000
0000
,
0100
0000
0010
0000
,
0001
0000
0000
0000
,
0100
0000
0010
0000
,
1000
0000
0000
0000
,
0001
0000
1000
0000
,
0100
0000
0000
0000
,
1000
0000
0001
0000
,
0010
0000
0000
0000
;

//---------------dance-single - t7r----------------
#NOTES:
     dance-single:
     t7r:
     Easy:
     5:
     :
0000
0000
0000
0000
,
0000
0000
0000
0000
,
0000
0000
0000
0000
,
0000
0000
0000
0000
,
0000
0000
0000
0000
,
2000
0000
0000
3000
,
0002
0000
0000
0003
,
0020
0000
0000
0030
,
0200
0000
0000
0300
,
0010
0001
0100
0000
,
0010
1000
0100
0000
,
1000
0100
0010
0000
,
0001
0010
0100
0010
,
1001
0001
0100
0000
,
0010
1000
0100
0000
,
1000
0001
0100
0000
,
0001
0100
0010
1000
,
0020
0000
0000
0030
,
1000
1000
0001
0001
,
1000
0001
1000
0001
,
0100
0000
0100
0000
,
0010
1000
0001
0100
,
0001
0000
1000
0100
,
0010
0001
0010
0100
,
1000
0000
1000
0000
,
1000
0010
0100
0001
,
1001
0000
0001
0100
,
0020
0000
0000
0030
,
1000
0100
0010
0001
,
1000
0100
0010
0001
,
1000
0000
1000
0001
,
0100
0010
1000
0010
,
0100
0000
0000
0000
,
0010
0000
0200
0300
,
0020
0030
0010
0000
,
2000
3000
1000
0000
,
0002
0000
0100
0003
,
2000
0000
0100
3000
,
0020
0030
0001
0000
,
0020
0030
1000
0000
,
0010
0001
0100
0000
,
0010
1000
0100
0000
,
1000
1000
0001
0100
,
0001
0001
1000
0000
,
1000
1000
0100
0010
,
0001
0001
0010
0000
,
0100
0010
0001
0000
,
0100
0010
1000
0000
,
0010
0100
0001
1000
,
0001
0010
0100
0110
,
0020
0000
0000
0030
,
0002
0000
0000
0003
,
2000
0000
0000
3000
,
0002
0000
0003
0100
,
0020
0000
0000
0030
,
2000
0000
0000
3000
,
0002
0000
0000
0003
,
0200
0000
0300
0001
,
1000
1000
1000
0000
,
0001
0001
0100
0001
,
1000
1000
0010
0000
,
0100
0100
0010
1000
,
0001
1000
0100
0000
,
1000
0001
0100
0000
,
0001
0100
0010
1000
,
0100
0010
0001
1000
,
2002
0000
0000
0000
,
0000
0000
3003
0000
;

//---------------dance-single - t7r----------------
#NOTES:
     dance-single:
     t7r:
     Medium:
     8:
     :
0000
0000
0000
0000
,
0000
0000
0000
0000
,
0000
0000
0000
0000
,
0000
0000
0000
0000
,
0000
0000
0000
0000
,
0002
0000
0000
0003
,
2000
0000
0000
3000
,
0010
0100
0001
1000
,
0001
0100
2020
3030
,
1000
0000
0100
0000
0010
0000
0001
0100
,
0010
0000
1000
0000
0001
0000
1000
0001
,
0100
0000
0001
0000
1000
0000
0001
1000
,
0010
0000
0100
0000
0010
0000
1000
0010
,
0100
0000
0010
0000
0100
0000
0001
0100
,
0001
0000
1000
0000
0100
0000
0010
0001
,
0010
0000
0001
0000
0010
0000
0100
1000
,
0100
0000
1000
0000
0001
0000
0100
0010
,
2000
0000
0000
3000
,
0001
0100
0001
1000
,
0001
0010
0100
1000
,
0200
0000
0000
0310
0000
0000
0000
0000
,
0001
0010
0001
0100
,
0110
0010
1000
0001
,
1000
0100
0010
0001
,
0020
0000
0000
1030
0000
0000
0000
0000
,
0010
0001
0100
1000
,
0200
0300
0010
1000
,
1001
2002
0000
3003
,
0001
0100
0001
1000
,
0010
0100
0010
1000
,
0100
0000
0010
0001
,
0100
0001
1000
0010
,
0100
0000
0000
0010
0000
0000
0100
0000
0000
0110
0000
0000
0010
0000
1000
0000
,
0001
0000
0000
1000
0000
0000
2002
0000
0000
0000
0000
0000
3003
0000
0000
0000
,
1000
0000
0100
0000
1000
0000
0100
0010
,
0001
0000
0010
0000
0100
0000
1000
0100
,
2000
0010
0100
3001
,
0200
0010
1000
0301
,
0010
0000
0001
0000
0100
0000
0010
0100
,
0001
0000
1000
0000
0001
0000
0100
0001
,
0200
0010
1000
0310
,
2000
0001
0100
3001
,
1000
0100
1000
0100
0010
0000
0001
0000
,
0100
0000
0010
0000
1000
0000
0001
1000
,
0100
1000
0010
0100
,
0001
0000
0100
0000
0001
0000
0010
0001
,
0100
0000
0001
1000
0000
0001
0000
1000
,
0100
0010
0001
1000
,
0001
0100
1000
0100
,
0001
0010
1000
0000
0001
0100
1000
0000
,
2001
0000
0010
3100
,
0210
0000
0001
1300
,
2100
0000
0001
3010
,
0102
0000
1000
0013
,
2001
0000
0010
3100
,
0120
0000
1000
0031
,
0201
0000
0001
1300
,
0012
0000
0100
1003
,
0020
0000
0000
0130
0001
0000
1001
0000
,
2000
0000
0000
3100
0001
0000
0101
0000
,
0200
0000
0000
0310
0001
0000
0011
0000
,
0002
0000
0000
0103
1000
0000
1001
0000
,
0020
0000
0000
0000
0000
0000
0130
0000
0010
0000
0000
0100
0000
0000
0010
0000
,
2000
0000
0000
0000
0000
0000
3001
0000
0100
0000
0000
0001
0000
0000
1000
0000
,
0010
0100
0001
0000
1000
0001
0100
0000
,
0001
0010
0100
1000
0100
0010
0001
0100
,
0020
0000
0000
0000
,
0000
0000
0030
0000
;

//---------------dance-single - t7r----------------
#NOTES:
     dance-single:
     t7r:
     Hard:
     13:
     :
0000
0000
0000
0000
,
0000
0000
0000
0000
,
0000
0000
0000
0000
,
0000
0000
0000
0000
,
0000
0000
0000
0000
,
2002
0000
0000
3003
,
0220
0000
0000
0330
,
1001
0000
0000
0100
0000
0000
0010
0000
1000
0000
0001
0100
0000
0000
0001
0000
,
1000
0010
0100
0001
1000
0100
0010
0001
,
1000
0000
0100
0000
0010
0000
0100
0000
1000
0000
0000
0001
0000
0000
1000
0000
,
0001
0000
0100
0000
0010
0000
0100
0000
0001
0000
0000
1000
0000
0000
0001
0000
,
1000
0100
0010
0100
1000
0010
0100
0001
,
0100
0000
0010
0000
1000
0000
0001
0000
1000
0000
0000
1001
0000
0000
1100
0000
,
0100
0000
0010
0000
0001
0000
0010
0000
0100
0000
0000
0010
0000
0000
0001
0000
,
0100
0000
0010
0000
1000
0000
0010
0000
0100
0000
0000
0001
0000
0000
1000
0000
,
0001
0000
0010
0000
0100
0000
1000
0000
0100
0000
0010
0001
0000
0000
1000
0000
,
0100
0000
1000
0000
0001
0000
0100
0000
0010
0000
0000
0110
0000
0000
0101
0000
,
2002
0000
0000
3003
,
1001
0010
0100
0000
0001
1000
0100
0000
,
1000
0100
0010
0001
0100
0100
0100
0010
,
1000
0100
1000
0000
0001
0100
0001
0000
,
1000
0000
0010
0000
0100
0000
0001
0000
1000
0000
0000
1001
0000
0000
0010
0000
,
0100
0001
1000
0000
0100
0010
0001
0000
,
1000
0100
0010
0100
1000
1000
1000
0001
,
1000
0100
0010
0000
0001
0010
0100
0000
,
1000
0001
0100
0010
1000
0001
1000
0001
,
1000
0100
1000
0010
0100
0001
1000
0010
,
0200
0000
0310
0000
1000
0001
2001
0000
,
3010
0100
0001
1000
0100
0010
0001
0000
,
1000
0100
1000
0001
0100
0100
0010
0010
,
1000
0001
0100
0001
1000
0010
1000
0100
,
0010
0001
0100
0000
0001
1000
0100
0000
,
1000
0000
0000
1001
0000
0000
0101
0000
0000
1001
0000
0000
0001
0000
0010
0000
,
0100
0000
0000
0110
0000
0000
0022
0000
0000
0000
0000
0000
0033
0000
0000
0000
,
1000
0100
0000
0100
1000
0001
0000
0001
,
0100
0010
0000
0010
0100
0001
0000
0001
,
1000
0100
0010
0100
1000
0000
1001
0000
,
0001
0100
0010
0100
0001
0100
0001
1000
,
0001
0010
0000
0010
0001
1000
0000
1000
,
0010
0100
0000
0100
0010
1000
0000
1000
,
0100
1000
0001
0100
0010
1000
0001
0100
,
0001
1000
0001
1000
0010
0100
0001
1000
,
1001
0010
1000
0010
1000
0010
0100
0001
,
1000
0100
0010
0001
1000
0100
2000
0000
,
3001
0100
0001
1000
0001
0100
0001
0010
,
0001
0100
0010
1000
0010
0100
0002
0000
,
0203
0000
0000
0300
0100
0000
0200
0000
0000
0300
0200
0000
0000
0300
0100
0000
,
0010
1000
0001
0010
0100
0010
0002
0000
,
1003
0100
1000
0100
0010
0001
0010
0001
,
1000
0100
0010
0100
1000
0001
0100
0001
,
2000
0000
0000
0000
3000
0000
0010
0000
0100
0000
0000
0001
0000
0000
1000
0000
,
0020
0000
0000
0000
0030
0000
0100
0000
0001
0000
0000
1000
0000
0000
0100
0000
,
2000
0000
0000
0000
3000
0000
0001
0000
0010
0000
0000
0100
0000
0000
0010
0000
,
0002
0000
0003
0010
0001
0100
0010
1000
,
0002
0000
0000
0000
0003
0000
1000
0000
0100
0000
0000
0010
0000
0000
0100
0000
,
2000
0000
0000
0000
3000
0000
0001
0000
0100
0000
0000
0010
0000
0000
0100
0000
,
0002
0000
0000
0000
0003
0000
1000
0000
0100
0000
0000
1000
0000
0000
0001
0000
,
0010
0001
1000
0100
0010
0001
1000
0001
,
1002
0000
0000
0000
0000
0000
1003
0000
0010
0000
0100
0010
0000
0010
0100
0000
,
0020
0000
0000
0000
0000
0000
0130
0000
0001
0000
1000
0001
0000
0001
1000
0000
,
0002
0000
0000
0000
0000
0000
0103
0000
0010
0000
1000
0100
0000
0100
1000
0000
,
0020
0000
0000
0000
0000
0000
0130
0001
0100
0000
0001
0000
1000
0000
0010
0000
,
0200
0010
1000
0301
1000
0100
0010
0011
,
0020
0100
1000
0031
0100
0010
1000
1010
,
0002
0010
0100
1003
0001
1000
0010
0110
,
1000
0001
1000
0000
0100
0000
0010
0000
0001
0010
0100
0000
1000
0000
0001
0000
,
0220
0000
0000
0000
,
0000
0000
0330
0000
;

//---------------dance-single - t7r----------------
#NOTES:
     dance-single:
     t7r:
     Challenge:
     16:
     :
0000
0000
0000
0000
,
0000
0000
0000
0000
,
0000
0000
0000
0000
,
0000
0000
0000
0000
,
0000
0000
0000
0000
,
1001
0000
0010
0000
0100
0001
0100
0000
0010
0000
1000
0100
0000
0100
0010
0000
,
1001
0000
0010
0000
1000
0100
1000
0000
0010
0000
0100
1000
0000
1000
0001
0000
,
1000
0000
0100
1000
0000
1000
0001
0000
0100
0010
1000
0010
0000
0010
1000
0000
,
0001
0010
0100
0010
0100
0010
0001
0000
1000
0100
0010
0001
1000
0100
0010
0001
,
1000
0000
0100
0000
1000
0010
1000
0000
0001
0000
0100
0001
0000
0001
1000
0000
,
0001
0000
0010
0000
0001
0100
0001
0000
1000
0000
0001
0010
0000
0010
0100
0000
,
0010
0000
0001
0000
1000
0100
1000
0000
0001
0000
0100
0010
1000
0000
0010
0000
,
0100
0000
0001
1000
0001
0000
1000
0000
0001
0000
0010
0001
0000
0001
1000
0000
,
1001
0000
0010
0000
0100
0001
0100
0000
0010
0000
1000
0100
0000
0100
0010
0000
,
0100
0000
1000
0000
0010
0100
0010
0000
0100
0000
0001
0010
0000
0010
0001
0000
,
1000
0000
0100
0000
1000
0001
0100
0000
0001
0000
1000
0001
0010
0000
0001
0000
,
1000
0000
0100
1000
0001
1000
0100
0000
1000
0000
0001
1000
0010
1000
0001
0000
,
1001
0000
0010
0100
1000
0000
0100
0010
0001
0000
0010
0100
1000
0000
0100
0010
,
0001
0000
0100
0000
0010
1000
0010
0000
1000
0000
0100
0000
0010
0001
0010
0000
,
0001
0000
1000
0000
0010
0100
0010
0000
0100
0001
0100
0001
0100
0000
0001
0000
,
1000
0000
0100
1000
0100
0000
1000
0000
0010
0000
0100
0001
0100
0000
0001
0000
,
1000
0010
1000
0010
1000
0000
0001
1000
0010
0000
0100
0001
0000
0001
1000
0000
,
1001
0000
0010
0000
0100
1000
0100
0000
0010
0000
0001
0000
1000
0010
1000
0000
,
0001
0000
0100
0000
0001
0010
0001
0000
1000
0001
1000
0001
1000
0000
0010
0000
,
0110
0000
0100
0000
0010
0100
0001
0000
0100
0000
0010
0000
1000
0100
0010
0000
,
0100
1000
0001
0000
1000
0001
0100
0000
0001
0010
0001
0010
0100
1000
0100
1000
,
0001
0000
0010
0000
0001
0100
0010
0000
1000
0000
0010
0000
1000
0100
0010
0000
,
0001
0000
0010
0000
0001
0100
0001
0000
1000
0001
0100
0001
1000
0020
0000
0000
,
1030
0000
0100
0000
1000
0100
0010
0000
0001
0000
0100
0000
0001
0010
0100
0000
,
0010
0000
0001
0000
1000
0001
0010
0000
0001
1000
0001
0100
0010
0000
1000
0000
,
0010
0000
0100
0000
0001
1000
0100
0000
1000
0000
0001
0000
0010
0001
1000
0000
,
0001
0000
0100
0000
0010
1000
0100
0000
1000
0000
0100
0000
0010
0001
0100
0001
,
0010
0000
0001
0010
0000
0010
0100
0000
0100
1000
0000
1000
0010
0000
0110
0000
,
0101
0000
1000
0010
0000
0010
2000
0000
0000
0000
0000
0000
3000
0000
0000
0000
,
1010
0000
0100
0000
0010
0100
0001
0000
0100
0000
0010
1000
0000
1000
0001
0000
,
1000
0000
0100
0000
0010
0100
1000
0000
0100
0000
0010
0100
0000
0100
1000
0000
,
0010
0000
0100
0001
0100
0001
0100
0000
0001
0000
1000
0001
0000
0001
0010
0000
,
0100
0000
1000
0100
1000
0100
1000
0000
0001
0000
1000
0010
0000
0010
1000
0000
,
1001
0000
0010
0000
0100
0001
1000
0000
0001
0000
0010
0001
0000
0001
1000
0000
,
0001
0000
0010
0000
0100
1000
0001
0000
1000
0000
0010
1000
0000
1000
0001
0000
,
1000
0000
0001
0100
0001
0100
0001
0000
1000
0000
0001
1000
0000
1000
0010
0000
,
0100
0001
1000
0010
0100
0000
0001
0010
0100
1000
0001
0000
1000
0010
0100
0001
,
1000
0010
1000
0010
0100
0000
0001
0000
0001
0010
0001
0010
0100
0000
1000
0000
,
1000
0010
1000
0010
0100
0000
0010
0000
1000
0001
0100
0010
2000
0000
0000
0000
,
3001
0010
0001
0010
0100
0000
0100
0000
1000
0010
1000
0010
0100
0000
0100
0000
,
0001
0010
0001
1000
0010
0000
0100
0000
0010
1000
0100
1000
0020
0000
0000
0000
,
2030
0000
0000
3000
1000
0000
2000
0000
0000
3000
2000
0000
0000
3000
1000
0000
,
0001
0010
0001
0010
0001
0000
1000
0000
0010
0100
0010
1000
0002
0000
0000
0000
,
1003
0010
0100
0001
1000
0000
0001
0000
1000
0100
0010
0001
1000
0000
0001
0000
,
0010
0001
1000
0010
0100
0000
0010
0000
0100
0010
1000
0001
0100
0000
0010
0000
,
0200
0000
0001
0000
0310
1000
0010
0000
1000
0000
0001
0010
0000
0010
0100
0000
,
0020
0000
0001
0000
1030
0100
1000
0000
0001
0000
1000
0001
0000
0001
0010
0000
,
0200
0000
0010
0000
0301
0100
0001
0000
0100
0000
0010
1000
0000
1000
0001
0000
,
2000
0000
0100
0000
3010
0100
0010
0000
0100
0000
0001
1000
0100
0000
1000
0000
,
0002
0000
0010
0000
1003
0100
1000
0000
0010
0000
0100
0001
0000
0001
1000
0000
,
0020
0000
0100
0000
1030
0100
1000
0000
0001
0000
0010
0100
0000
0100
1000
0000
,
0002
0000
0100
0000
1003
0010
1000
0000
0100
0000
0010
0001
0000
0001
1000
0000
,
0001
0010
0001
0010
0100
1000
0100
1000
0001
0100
0001
0100
0010
1000
0010
1000
,
0001
0000
0010
0000
0100
0010
0001
0000
0010
0000
0100
0000
0010
0000
0110
0000
,
1000
0000
0010
0000
0100
0010
1000
0000
0100
0000
0010
0000
0100
0000
0110
0000
,
0010
0000
0001
0000
1000
0001
0010
0000
0001
0000
1000
0000
0100
0000
1100
0000
,
0001
0000
1000
0000
0001
1000
0010
0000
1000
0100
0010
0000
0100
1000
0001
0100
,
0002
0000
0100
0000
0013
0100
0010
0100
1000
0000
0001
0010
0000
0010
0001
0000
,
2000
0000
0010
0000
3100
0010
0100
0010
1000
0000
0010
1000
0000
1000
0001
0000
,
0200
0000
1000
0000
0310
0100
0001
0100
0010
0000
1000
0001
0000
0001
0010
0000
,
0001
1000
0100
1000
0001
0000
1001
0000
1000
0010
0100
0001
0100
0010
1000
0001
,
2000
0000
0000
0000
,
0000
0000
3000
0000
;
