#TITLE:極東史記;
#ARTIST:あさき;
#TITLETRANSLIT:Kyokutou shiki;
#ARTISTTRANSLIT:Asaki;
#BANNER:Kyokutou shiki.png;
#BACKGROUND:Kyokutou shiki-bg.png;
#JACKET:Kyokutou shiki-jacket.png;
#CDTITLE:./CDTITLES/GUITAR FREAKS & DRUMMANIA.PNG;
#MUSIC:Kyokutou shiki.ogg;
#OFFSET:-0.007;
#SAMPLESTART:70.429;
#SAMPLELENGTH:15;
#BPMS:0=210;

//---------------dance-single - t7r----------------
#NOTES:
     dance-single:
     t7r:
     Beginner:
     3:
     :
0000
0000
0000
0000
,
0000
0000
0000
0000
,
0000
0000
0000
0000
,
1000
0000
0001
0000
,
1000
1000
1000
0000
,
0001
0000
0000
0000
,
0100
0000
0000
0000
,
0010
0000
0000
0000
,
1000
0000
0000
0000
,
0010
0000
0100
0000
,
0001
0000
1000
0000
,
0001
0000
0010
0000
,
0001
0000
1000
0000
,
1000
0000
0010
0000
,
1000
0000
0001
0000
,
0001
0000
0010
0000
,
0001
0000
1000
0000
,
0100
0000
0010
0000
,
0001
0000
0010
0000
,
0100
0000
0010
0000
,
0100
0000
1000
0000
,
0001
0000
0001
0000
,
1000
0000
0001
0000
,
1000
0000
0001
0000
,
1000
0000
0001
0000
,
1000
0000
0010
0000
,
0100
0000
0001
0000
,
0100
0000
0010
0000
,
0100
0000
0000
0000
,
0000
0000
0000
0010
,
0000
0100
0000
0001
,
0000
1000
0000
0001
,
0000
1000
0000
0100
,
0000
0010
0000
0001
,
0000
0010
0000
0001
,
0000
0100
0100
0000
,
0010
0000
1000
0000
,
0001
0000
0000
1000
,
0000
0100
0000
0010
,
0000
0001
0000
0001
,
0000
0010
0000
0100
,
0000
1000
0000
0100
,
0000
1000
0000
0001
,
0000
0010
0010
0000
,
0001
0000
1000
0000
,
0010
0000
1000
0000
,
0001
0000
1000
0000
,
0100
0000
0010
0000
,
0000
0000
0001
0000
,
0100
0000
0000
0000
,
0010
0000
1000
0000
,
0001
0000
1000
0000
,
0100
0000
1000
0000
,
0010
0000
0100
0000
,
0001
0000
0000
1000
,
0000
0001
0000
1000
,
0000
0001
0000
0010
,
0000
0100
0000
1000
,
0000
0100
0100
0000
,
0010
0000
0001
0000
,
0010
0000
0100
0000
,
0000
0000
0010
0000
,
0000
0000
0000
0001
,
0000
1000
0000
0100
,
0000
1000
0000
1000
,
0000
0001
0000
0100
,
0000
0001
0000
0001
,
0000
0010
0000
0100
,
0000
1000
0000
0100
,
0000
1000
0000
0010
,
0000
0100
0100
0000
,
0010
0000
0001
0000
,
0100
0000
0001
0000
,
1000
0000
0001
0000
,
1000
0000
0010
0000
,
0100
0000
0010
0000
,
0010
0000
0100
0000
,
0010
0000
1001
0000
,
0000
0000
0000
1000
,
0000
0100
0000
1000
,
0000
0010
0000
0100
,
0000
0001
0000
1000
,
0000
0001
0000
0010
,
0000
0100
0000
1000
,
0000
0100
0000
0010
,
0000
0001
0000
0010
,
0010
0000
0001
0000
,
0100
0000
0010
0000
,
1000
0000
1000
0000
,
0100
0000
0010
0000
,
0001
0000
0100
0000
,
1000
0000
0100
0000
,
0001
0000
0010
0000
,
1000
0000
0001
0000
,
0100
0000
0010
0000
,
0100
0000
0010
0000
,
1000
0000
1001
0000
;

//---------------dance-single - t7r----------------
#NOTES:
     dance-single:
     t7r:
     Easy:
     8:
     :
0000
0000
0000
0000
,
0000
0000
0000
0000
,
0000
0000
0000
0000
,
0010
0010
0010
0010
,
0010
0000
0010
0000
0010
0000
0000
0100
,
0000
0001
1000
0001
,
0010
0000
0001
0000
1000
0000
0000
0001
,
0000
1000
0001
1000
,
0010
0000
1000
0000
0001
0000
0000
0100
,
0000
0010
1000
0010
,
0100
0000
0001
0000
0010
0000
0000
0001
,
0000
0000
1000
0000
0100
0000
0000
1000
,
0000
0000
0000
0001
0000
1000
0000
0001
,
0000
0100
0010
1000
,
0010
0000
0100
0000
0001
0000
0000
0010
,
0000
0001
0010
0100
,
1000
0000
0001
0000
1000
0000
0000
0100
,
0000
1000
0010
0100
,
0001
0000
1000
0000
0001
0000
0000
0010
,
0000
0001
1000
0001
,
0100
0010
1000
0000
,
0010
0000
0100
0000
0001
0000
0000
1001
,
0000
0001
0010
0100
,
2000
0000
0010
0000
,
0001
0001
3001
0000
,
0002
0000
0010
0000
,
1000
1000
1003
0000
,
0100
0000
0010
0000
,
0220
0000
0000
0330
,
0000
0000
1001
0001
,
0100
0000
0001
0010
,
0100
1000
0010
1000
,
0001
0000
1000
0100
,
0010
0001
1000
0010
,
1000
0000
0001
0100
,
0020
0030
1000
0001
,
0100
0000
0000
0000
0001
0000
0000
2001
,
0000
3010
1000
0100
,
1000
0100
0010
0001
,
0010
0010
0001
0100
,
0001
0100
0010
1000
,
0010
0010
1000
0001
,
0100
0010
1000
0100
,
0010
0011
2001
0010
,
0000
3010
0002
0100
,
0000
0103
2000
0100
,
0000
3100
0010
0001
,
0100
0001
2000
0000
,
0010
0000
0000
0100
0000
0000
3100
0000
,
0020
0000
0001
0000
,
1030
0000
0000
0001
0000
0000
0100
0000
,
0001
0000
0000
1000
0000
0000
0001
0000
,
0010
0000
0000
0001
0000
0000
1000
0000
,
0100
0000
0000
1000
0000
0000
0001
0000
,
0100
0010
0000
2010
0000
0000
3010
0000
,
1000
0000
0000
0002
0000
0000
0013
0000
,
0001
0000
0000
2000
0000
0000
3100
0000
,
0010
0000
0000
0200
0000
0000
1300
0000
,
0010
0000
0000
0210
0000
0000
0301
0000
,
1000
0001
0010
0100
,
1000
0000
0000
1020
0000
0000
0130
0000
,
0001
0000
0000
2001
0000
0000
0001
0000
,
3001
0000
0000
0210
0000
0000
0301
0000
,
1000
0010
1000
0001
,
1000
0000
0000
0100
0000
0000
1000
0000
,
0010
0100
0001
0010
,
0100
0000
0000
0010
0000
0000
0001
0000
,
1000
0010
1000
0001
,
0100
0000
0000
0010
0000
0000
1000
0000
,
0010
0000
0000
0210
0000
0000
0301
0000
,
1000
0000
0000
2001
0000
0000
3001
0000
,
0010
0001
1000
0100
,
1000
0010
1000
0001
,
0100
0010
1000
0100
,
0010
0000
0000
2001
0000
0000
3010
0000
,
0100
0010
1000
0001
,
1000
0001
0010
0100
,
1000
0000
0100
0010
0000
0000
0000
0000
,
0000
0000
0000
0001
0000
0000
1000
0000
,
0010
0000
0100
0010
0000
0000
1000
0000
,
0001
0000
0010
0100
0000
0000
0010
0000
,
0001
0000
1000
0001
0000
0000
0100
0000
,
0010
0000
1000
0010
0000
0000
1000
0000
,
0100
0000
0010
0001
0000
0000
0100
0000
,
0001
0000
0100
0010
0000
0000
1000
0000
,
0001
0000
0010
0100
0000
0000
0010
0000
,
0001
0000
1000
0002
0000
0000
1003
0000
,
0010
0000
0100
0020
0000
0000
1030
0100
,
0000
1100
0000
0012
0000
0000
1003
0000
,
0010
0000
0100
0020
0000
0000
1030
0001
,
1000
0000
0001
0020
0000
0000
0031
0000
,
1000
0000
0001
0200
0000
0000
0310
0000
,
0100
0000
0001
1000
0001
0000
1000
0000
,
0001
1000
0010
0100
,
0010
0100
0001
0010
,
0100
0000
1000
0020
0000
1030
0001
0000
,
0010
0100
0010
0100
0020
0000
0000
0000
,
0000
0000
0000
0000
,
0000
0000
0000
0000
,
0000
0000
0000
0000
,
0030
0000
0000
0000
;

//---------------dance-single - t7r----------------
#NOTES:
     dance-single:
     t7r:
     Medium:
     10:
     :
0000
0000
0000
0000
,
0000
0000
0000
0000
,
0000
0000
0000
0000
,
0001
0001
1000
1000
,
0010
0000
0010
0000
0100
0010
0000
0120
,
0000
0000
1030
0000
0010
0000
1000
0001
,
0000
0000
0010
0000
0100
0000
0010
0001
,
0000
0000
1000
0000
0010
0000
0100
0010
,
0000
0000
1000
0000
0100
0000
0010
0001
,
0000
0000
0001
0000
0100
0000
0010
1000
,
0000
0000
1000
0000
0010
0000
0100
0010
,
0000
0000
1000
0000
0100
0000
0010
0100
,
0000
0000
1000
0001
0000
0100
0000
0200
,
0000
0310
1000
0010
,
0100
0000
0001
0000
0010
0000
0100
0020
,
0000
0031
0010
0100
,
1000
0000
0010
0000
0100
0000
0001
2000
,
0000
3010
1000
0001
,
0100
0000
0010
0000
1000
0100
1000
0002
,
0000
0103
0010
0110
,
1000
0001
1000
1001
,
0001
0000
0010
0000
0100
0000
1000
0020
,
0000
1030
0100
1000
,
0002
0100
0100
0000
,
1000
1000
0013
1000
,
0100
1000
0010
0100
,
0001
0010
0100
1000
,
0001
0000
0100
0000
0001
1000
0000
0000
,
0010
0100
0010
0200
0000
0000
0000
0000
,
0000
0000
0310
0100
,
0001
0000
0000
0100
0000
0010
0000
0100
,
0001
1000
0001
0010
,
0100
0000
0000
0010
0000
0001
0000
1000
,
0001
1000
0010
1000
,
0100
0000
0000
1000
0000
0010
0000
0100
,
0010
1000
0001
1000
,
0001
0000
0010
0000
0100
0000
0010
0002
,
0000
1003
0010
1000
,
0010
0000
0100
0002
0000
0000
1003
0000
,
0001
1000
0001
0010
,
0100
0000
1000
0020
0000
0000
1030
0000
,
0100
1000
0010
0100
,
0001
0000
0010
0200
0000
0000
0310
0000
,
0001
0000
1001
0000
0010
0000
0100
0001
,
0100
0000
0001
0000
1000
0000
0100
1000
,
0100
0000
1000
0000
0001
0000
0010
0001
,
0010
0000
0001
0100
0010
0000
0100
0001
,
0000
1000
0000
0001
0020
0000
0100
0000
,
0100
0000
1030
0001
0000
0001
0100
0000
,
0002
1000
1000
0013
,
0100
0010
0000
2000
0000
0000
3010
0000
,
0100
0000
0001
0010
0001
0000
0100
0000
,
0001
0000
1000
0010
1000
0000
0001
0000
,
0010
0000
0001
1000
0000
0010
0100
0000
,
0001
1000
0000
2001
0000
0000
3010
0000
,
0100
0000
0001
0020
0000
0000
0001
0000
,
0100
0000
0031
2000
0000
0000
0100
0000
,
3010
0000
0100
0020
0000
0000
1000
0000
,
0001
0000
1030
0001
0000
0000
1001
0000
,
0100
0010
1000
0000
0010
0100
0001
0000
,
1000
0100
0010
0002
0000
0000
1003
0000
,
0001
0000
0100
0020
0000
0000
0100
0000
,
0130
0000
0000
2001
0000
0000
3010
0000
,
1000
0000
0001
0200
0000
0000
0301
0000
,
1000
0000
0001
0020
0000
0000
0031
0000
,
1000
0000
0100
0010
0000
0100
1000
0002
,
0000
0000
1003
0020
0000
0000
1000
0000
,
0130
0000
1000
0002
0000
0000
0010
0000
,
1003
0000
0010
0200
0000
0000
0010
0000
,
0301
0000
1000
0020
0000
0130
0001
0000
,
1000
0001
0000
2001
0000
3001
0010
0000
,
0001
0100
0010
1000
,
0100
0000
0010
0002
0000
0000
1003
0000
,
0010
0100
0010
1000
,
0001
1000
0001
0010
0000
0010
0001
0000
,
1000
1010
1000
1100
,
0001
0011
0001
1001
,
0001
0100
0010
1000
0000
0000
0000
0000
,
0000
0000
0000
0210
0000
0310
1000
0000
,
0001
0000
0100
0010
0000
0010
1000
0000
,
0001
0000
0010
0100
0000
0100
1000
0000
,
0100
0000
0010
0001
0000
0001
1000
0000
,
0010
0000
1000
0020
0000
1030
0001
0000
,
0010
0000
0001
0100
0000
0100
0001
0000
,
1000
0000
0010
1000
0000
1000
0001
0000
,
1000
0000
0100
0010
0000
0010
0001
0000
,
0010
0100
0000
2100
0000
3001
1000
0000
,
0001
0000
0100
0001
0000
0001
1000
0001
,
0000
1001
0000
0210
0000
0310
1000
0000
,
0010
0000
0100
0001
0000
0001
1000
0000
,
0001
0000
0010
0200
0000
1300
0100
0000
,
0010
0000
0001
1000
0000
1000
0010
0000
,
0100
0010
1000
0020
0000
0000
1030
0000
,
0001
1001
0001
0010
,
0100
0110
0010
0001
,
1000
0000
0001
0200
0000
1300
0100
0000
,
0001
1000
0001
0010
0002
0000
0000
0000
,
0000
0000
0000
0000
,
0000
0000
0000
0000
,
0000
0000
0000
0000
,
0003
0000
0000
0000
;

//---------------dance-single - t7r----------------
#NOTES:
     dance-single:
     t7r:
     Hard:
     14:
     :
0000
0000
0000
0000
,
0000
0000
0000
0000
,
0000
0000
0000
0000
,
0001
0010
0001
0010
0100
1000
0100
1000
,
0010
0100
0001
1000
0001
0100
0000
2100
,
0000
3010
1000
0001
0100
0001
0010
0002
,
0000
1003
0100
0010
0100
1000
0010
0200
,
0000
0310
1000
0001
0010
0001
1000
0020
,
0000
1030
0100
0010
0100
1000
0001
0200
,
0000
0301
0010
0001
1000
0010
0100
0020
,
0000
1030
0010
0100
0001
0010
0100
2000
,
0000
3001
0010
0001
0100
0010
0100
0002
,
0000
1003
0010
0100
0000
0110
0000
1020
,
0000
1030
0010
1000
0001
0010
0001
1000
,
0100
1000
0001
0100
0001
1000
0001
0020
,
0000
0031
0100
0001
1000
0100
1000
0001
,
0010
0100
0010
0001
1000
0010
0100
0020
,
0000
1030
0010
1000
0001
0100
0001
1000
,
0100
1000
0001
0010
0001
1000
0100
0020
,
0000
0130
1000
0000
0110
0000
1001
0000
,
0101
1100
0011
1001
,
0110
0000
0110
0000
1000
0010
0100
0002
,
0000
0000
0000
0013
0000
0000
0100
0000
0010
0000
0100
0000
0010
0000
0001
0000
1000
0000
0010
0000
0100
0000
0001
0000
,
1000
0000
0001
0000
0101
0000
0001
1000
,
0100
1000
0001
0010
0100
0000
0010
0001
,
1000
1001
0110
0101
,
1000
0000
0010
0100
0000
0100
0001
0010
,
0100
1000
0100
0010
0001
1000
0000
0000
,
0001
0100
0010
2000
0000
0000
0000
0000
,
0000
0000
3001
0010
,
0001
0000
0100
0010
0000
0010
0100
0000
,
0001
0010
0100
0000
1000
0000
0010
0000
,
0100
0000
0010
1000
0000
1000
0001
0000
,
0010
0001
0100
0001
0010
0000
0001
0000
,
0100
0000
0010
1000
0000
1000
0010
0000
,
0100
0001
0010
0000
1100
0000
0001
0100
,
0000
0100
0001
1000
0010
0000
1000
0200
,
0000
1300
0001
0010
0001
0000
0100
0001
,
0100
0000
0010
1000
0000
0001
1000
0001
,
0010
0100
1000
0000
0010
0000
0100
0001
,
0100
0000
0010
1000
0000
0100
1000
0100
,
0010
0001
0100
0000
0001
0000
1000
0001
,
0010
0000
0001
1000
0000
0010
0100
0001
,
0100
0000
0000
0000
1010
0000
0000
0000
1001
0000
0000
0000
1100
0000
0000
0100
,
1000
0000
0100
0000
0010
0000
0000
0000
0001
0000
0000
0000
0100
0000
0000
0001
,
0010
0000
0001
0000
1000
0000
0000
0010
0100
0000
0000
0000
0001
0000
0000
1000
,
0001
0010
0001
0000
1000
0000
1001
0000
,
0010
0100
0001
0100
0020
0000
0000
0000
,
1030
0100
1000
0001
0000
0100
0001
0010
,
0001
0200
0000
0000
0310
1000
0100
1000
,
0001
0001
0000
2001
0000
0000
0010
0000
,
0001
0000
3100
0010
0002
0000
0100
0000
,
1000
0000
0013
0200
0000
1300
0001
1000
,
0001
0010
0100
2000
0000
3010
1000
0100
,
0010
1100
0000
0102
0000
1003
0010
1000
,
0001
1000
0100
2000
0000
3001
0010
0001
,
1000
0001
0100
0002
0000
1003
0010
0100
,
0010
1000
0100
0020
0000
0130
1000
0010
,
0100
0001
0010
0200
0000
0310
0001
0100
,
0010
0010
0100
0001
0100
0100
0010
1000
,
0100
0100
0010
0002
0000
1003
0100
0010
,
0100
1000
0010
0200
0000
0000
0001
0000
,
0301
0000
0000
1002
0000
0013
0001
0100
,
0001
0000
1000
0000
0010
0000
0200
0000
0000
0000
0310
0000
1000
0000
0000
0001
,
1000
0100
0010
0200
0000
1300
0010
0100
,
0001
0000
0010
0000
0001
0000
0200
0000
0000
0000
0310
0000
1000
0000
0000
0100
,
0010
0100
1000
0020
0000
0130
0001
1000
,
0001
0000
0010
0000
0001
0000
2000
0000
0000
0000
3001
0000
0010
0000
0000
0100
,
0010
0001
0100
0002
0000
1003
0010
0100
,
0010
1000
0100
0020
0000
0130
1000
0000
,
0010
0101
0000
2100
0000
3001
0010
0001
,
1000
0001
0010
1000
0010
0001
0100
1000
,
0100
0001
1000
0002
0100
0000
1003
0010
,
0100
0001
1000
0100
0010
0100
1000
0100
,
0001
0100
1000
0020
0000
0130
0001
0000
,
0101
0000
1001
0001
0010
0000
1100
0000
,
1001
0000
1010
0010
0100
0000
0001
0010
,
0100
0000
1000
0001
1000
0000
0010
0000
0000
0000
0000
0000
0000
0000
0000
0000
,
0000
0000
0000
0000
0000
0000
0210
0000
0000
0000
0301
0000
0010
0000
0000
0010
,
0001
0000
1000
0000
0100
0000
2000
0000
0000
0000
3010
0000
1000
0000
0000
1000
,
0010
0000
0100
0000
0001
0000
0020
0000
0000
0000
0031
0000
0010
0000
0000
0010
,
0001
0000
1000
0000
0001
0000
0200
0000
0000
0000
0301
0000
1000
0000
0000
1000
,
0010
0000
0100
0000
0010
0000
2000
0000
0000
0000
3100
0000
0010
0000
0000
0100
,
1000
0000
0010
0000
0100
0000
0002
0000
0000
0000
0013
0000
0001
0000
0000
1000
,
0010
0000
0100
0000
0010
0000
2000
0000
0000
0000
3001
0000
0010
0000
0000
0100
,
0010
0001
0100
0020
0000
1030
0001
0100
,
0001
1000
0001
1000
0001
0000
0020
0000
0000
0000
0031
0000
0100
0000
0001
0000
,
0010
0001
1000
1200
0000
1300
0010
0110
,
0000
1001
0000
0210
0000
0301
0010
0001
,
1000
0000
0100
0000
0010
0000
0012
0000
0000
0000
1003
0000
0010
0000
1000
0100
,
1000
0001
0010
0120
0000
0031
0100
1000
,
0100
0000
0001
0000
0010
0000
0012
0000
0000
0000
1003
0010
1000
0000
0001
0000
,
1000
0001
0001
1002
0000
1003
0010
0000
,
0110
0000
1001
0001
0100
0000
0011
0001
,
1000
0100
1000
0000
0110
0000
1001
0000
,
0011
0000
0000
0000
1000
0000
1200
0000
0000
0000
1300
0010
1000
0000
0001
0000
,
0100
0100
0010
0010
0200
0000
0000
0000
,
0000
0000
0000
0000
,
0000
0000
0000
0000
,
0000
0000
0000
0000
,
0300
0000
0000
0000
;

//---------------dance-single - t7r----------------
#NOTES:
     dance-single:
     t7r:
     Challenge:
     17:
     :
0000
0000
0000
0000
,
0000
0000
0000
0000
,
0000
0000
0000
0000
,
0010
0010
0010
0010
0010
0010
0010
0010
,
0010
0010
0010
0010
0010
0101
0000
2100
,
0000
0000
3001
0000
0010
0000
0100
0010
0001
0000
1000
0000
0010
0000
0200
0000
,
0000
0000
0310
0000
1000
0000
0001
1000
0010
0000
1000
0000
0001
0000
0020
0000
,
0000
0000
0031
0000
0100
0000
0010
0100
0001
0000
1000
0000
0010
0000
2000
0000
,
0000
0000
3100
0000
0010
0000
0100
1000
0010
0000
1000
0000
0010
0000
0200
0000
,
0000
0000
0301
0000
1000
0000
0001
1000
0100
0000
1000
0000
0001
0000
0020
0000
,
0000
0000
0031
0000
0100
0000
0010
0100
0001
0000
1000
0000
0010
0000
0200
0000
,
0000
0000
0310
0000
1000
0000
0100
0010
0001
0000
1000
0100
1000
0000
2001
0000
,
0000
3010
1000
0101
0000
1100
0000
0012
,
0000
0000
1003
0000
0010
0000
0100
0000
0010
0000
1000
0100
0010
0000
0001
0000
,
0010
0000
0100
0000
0010
0000
0001
0100
0010
0000
0100
0000
0001
0000
2000
0000
,
0000
0000
3010
0000
1000
0000
0001
1000
0010
0000
1000
0000
0001
0000
0100
0000
,
0010
0000
1000
0000
0100
0000
0010
0100
1000
0000
0100
0010
0001
0000
0200
0000
,
0000
0000
0310
0000
1000
0000
0001
1000
0100
0000
1000
0000
0001
0000
0010
0000
,
0001
0000
1000
0000
0100
0000
1000
0010
0100
0000
0010
0000
0010
0000
2010
0000
,
0000
3001
0010
0000
0011
0000
1001
0000
,
1100
0100
0110
0010
0011
0001
1001
0000
,
0110
0000
0001
0000
0110
0000
0000
0000
1010
0000
0100
1000
0100
0000
0012
0000
,
0000
0000
0000
0000
0000
0000
1003
0000
0000
0010
0000
0000
1000
0000
0000
0000
0100
0000
0000
0000
0001
0000
0000
0000
0100
0000
0000
0000
1000
0000
0000
0000
0010
0000
0000
0000
0100
0000
0000
0000
0001
0000
0000
0000
1000
0000
0000
0000
,
0001
0000
0000
0000
0010
0000
0000
0000
0011
0000
0001
1000
0001
0000
1000
0000
,
0010
0000
0100
0000
0001
0000
1000
0001
1000
0000
0100
0000
0010
0000
0001
1000
,
0010
0000
0100
0010
0100
0000
0001
1000
0001
0000
0000
0000
1100
0000
0000
0000
,
0110
0000
0010
0000
0001
0000
0100
0000
1000
0000
0100
0010
1000
0000
0010
0000
,
0100
0000
0001
0000
0010
0000
0100
0000
1000
0000
0010
0000
0110
0000
0000
0110
0000
0000
0000
0000
0000
0000
0000
0000
,
1001
1001
1001
2002
0000
0000
0000
0000
,
0000
0000
0000
0000
3003
0000
0000
0000
1010
0000
0000
0000
1001
0000
1000
0100
,
0010
0000
0100
0000
1100
0000
0100
0000
0010
0000
0001
0000
1001
0000
0001
0100
,
0010
0000
0100
0000
0101
0000
0000
0000
0110
0000
0000
0000
1001
0000
0001
1000
,
0010
0000
1000
0000
1010
0000
0010
0000
1000
0000
0100
0000
1100
0000
1000
0100
,
0010
0000
0001
0000
0011
0000
0000
0000
0101
0000
0000
0000
1001
0000
0001
0100
,
0010
0000
0100
0000
0110
0000
0010
0000
1000
0000
0001
0000
1001
0000
1000
0100
,
0010
0000
0100
0000
0011
0000
0000
0000
1001
0000
0000
0000
1010
0000
0010
1000
,
0001
0000
0100
0000
0101
0000
0001
1000
0001
0000
0000
0000
0100
0000
2010
0000
,
0000
0000
3001
1000
0001
0000
0010
0000
0011
0000
0001
0000
0100
0000
0010
0000
,
0100
0000
0001
0000
0010
0000
0001
0000
0100
0000
0010
0000
1000
0000
0100
0010
,
0001
1000
0010
1000
0010
0100
0001
0100
,
0010
0000
1000
0000
0001
0000
1000
0000
0100
0000
0010
0000
0001
0000
0100
0010
,
1000
0010
0100
0010
1000
0010
0100
0001
,
0010
0000
0100
0000
0010
0000
0001
0000
1000
0000
0001
0000
0100
0000
0010
1000
,
0001
0000
0100
0000
1010
0000
0000
0000
1001
0000
0000
0000
1100
0000
0100
1000
,
0010
0000
0100
0000
0110
0000
0000
0000
0011
0000
0000
0000
1001
0000
0001
0100
,
0010
0000
0100
0000
0110
0000
0010
1000
0001
0000
0100
0000
0101
0000
0000
0000
,
0011
0000
0001
0000
1000
0000
0100
1000
0001
0000
1000
0000
1010
0000
0000
0000
,
1000
0000
0000
1000
0000
0000
0001
0000
0010
0000
0100
0000
1000
0000
0000
0100
0000
0000
0100
0000
0000
0100
0000
0000
,
1100
1000
0010
0110
0010
0100
0001
0010
,
0001
0000
0001
0000
0001
0000
0001
0000
0011
0000
0001
0100
0010
0000
1000
0001
,
0100
0000
0110
0000
0000
0000
2010
0000
0000
0000
3010
0000
1000
0000
0001
0010
,
0001
0000
1000
0000
0100
0000
0010
0000
0100
0000
1000
0000
0010
0000
0100
0010
,
0100
0010
1000
0002
0000
1003
1000
1000
,
0001
0000
0001
0000
1000
0000
1020
0000
0000
0000
0130
0000
0001
0010
0100
1000
,
0001
0000
1100
0000
0000
0000
0102
0000
0000
0000
1003
0000
0010
0000
0100
0010
,
1000
0000
0001
0000
0010
0000
0002
0000
0000
0000
1003
0000
0100
0000
0010
0100
,
1000
0000
0010
0000
0100
0000
0020
0000
0000
0000
1030
0000
0010
0000
0100
0001
,
1000
0000
0001
0000
0010
0000
0002
0000
0000
0000
1003
0000
0100
0000
0010
0100
,
1000
0000
0010
0000
0100
0000
0020
0000
0000
0000
1030
0000
0001
0000
0100
0001
,
0100
0000
0100
0000
0001
0000
0010
0001
0010
0000
0010
0000
0001
0000
1000
0100
,
0010
0010
0100
2100
0000
3010
0100
0001
,
1000
0010
0100
0102
0000
0000
1000
0000
,
1003
0000
0000
0000
0000
0000
0210
0000
0000
0000
0301
0000
0010
0000
0001
0100
,
0001
0000
1000
0000
0010
0000
0200
0000
0000
0000
0310
0000
1000
0000
0001
0010
,
0001
0000
1000
0000
0100
0000
0020
0000
0000
0000
0130
0000
1000
0000
0010
1000
,
0010
0100
0010
2000
0000
3100
0010
0002
,
0000
0000
1003
0000
0100
0000
2000
0000
0000
0000
3010
0000
0100
0000
0010
1000
,
0010
0000
1000
0000
0001
0000
0200
0000
0000
0000
0301
0000
0010
0000
0001
1000
,
0001
0000
0100
0000
0001
0000
0020
0000
0000
0000
0130
0000
0010
0000
0001
1000
,
0100
0000
1000
0010
1000
0000
0002
0000
0000
0000
1003
0001
0100
0000
0001
1000
,
0010
0000
0101
0000
0000
0000
2100
0000
0000
0000
3001
0000
0010
0000
0001
0100
,
0001
0000
0010
0000
0001
0000
0100
0001
0100
0000
0001
0000
0010
0000
0001
0100
,
0001
0000
1000
0001
1000
0000
0020
0000
0000
0000
1030
0000
0100
0000
0010
0100
,
0010
0000
0100
0000
1000
0000
0010
0100
0010
0000
1000
0000
0010
0000
0100
0010
,
1000
0001
0001
2001
0000
3010
0110
0100
,
0101
0001
0011
0001
1001
1000
1100
1000
,
1010
0000
0010
0000
0110
0000
0010
0000
1010
0000
1000
0000
1001
0000
1000
0001
,
0100
0000
0010
0100
0001
0000
0011
0000
0000
0000
0000
0000
0000
0000
0000
0000
,
0000
0000
0000
0000
0000
0000
2100
0000
0000
0000
3001
0000
0010
0000
0100
0010
,
0001
0000
0100
0000
0010
0000
1000
0000
0010
0000
0100
0000
0001
0000
1000
0010
,
0100
0000
0010
0000
1000
0000
0001
0000
0010
0000
0100
0000
0010
0000
0001
0100
,
0010
0000
1000
0000
0010
0000
0100
0000
0001
0000
1000
0000
0010
0000
1000
0001
,
0100
0000
0001
1000
0010
0000
0102
0000
0000
0000
1003
0000
0010
0000
0100
0010
,
1000
0000
0100
0000
0010
0000
0001
0000
1000
0000
0010
0000
0100
0000
0010
1000
,
0001
0000
0010
0001
1000
0000
0001
0000
0010
0000
0100
0000
0010
0000
0001
1000
,
0100
0000
1000
0001
0100
0000
0020
0000
0000
0000
1030
0000
0010
0000
1000
0001
,
1000
0001
1000
0001
1000
0000
2001
0000
0000
0000
3010
0000
0100
0000
0001
0100
,
0001
0000
0010
0001
0010
0000
0012
0000
0000
0000
1003
0001
0100
0000
0110
0000
,
0000
0000
1001
0000
0000
0000
1020
0000
0000
0000
1030
0000
0010
0000
0100
0010
,
1000
0000
0010
0100
0001
0000
0102
0000
0000
0000
1003
0000
0001
0010
0001
0010
,
0100
1000
0100
1000
0010
0100
0020
0000
0000
0000
0130
0001
1000
0000
0001
1000
,
0100
0000
1000
0001
0100
0000
0012
0000
0000
0000
1003
0100
0010
0000
0100
1000
,
0010
0110
0110
0102
0000
1003
0010
0000
,
0110
0100
0101
0000
1010
1000
1001
1000
,
1100
0100
0110
0000
0011
0100
0011
0000
,
1010
0000
0100
0010
1000
0000
2001
0000
0000
0000
3001
1000
0001
0000
1000
0000
,
1001
1001
1001
1001
0020
0000
0000
0000
,
0000
0000
0000
0000
,
0000
0000
0000
0000
,
0000
0000
0000
0000
,
0030
0000
0000
0000
;
