#TITLE:高高度降下低高度開傘;
#ARTIST:Dr. Honda;
#TITLETRANSLIT:Koukoudo kouka teikoudo kaisan;
#BANNER:Koukoudo kouka teikoudo kaisan.png;
#BACKGROUND:Koukoudo kouka teikoudo kaisan-bg.png;
#JACKET:Koukoudo kouka teikoudo kaisan-jacket.png;
#CDTITLE:./CDTITLES/BEATMANIA IIDX.PNG;
#MUSIC:Koukoudo kouka teikoudo kaisan.ogg;
#SAMPLESTART:30.4;
#SAMPLELENGTH:15;
#BPMS:0=150;

//---------------dance-single - t7r----------------
#NOTES:
     dance-single:
     t7r:
     Beginner:
     2:
     :
0000
0000
0000
0000
,
0000
0000
0000
0000
,
0000
0000
0000
0000
,
0000
0000
0000
0000
,
0000
0000
0000
0000
,
0000
0000
0000
0000
,
0000
0000
0000
0000
,
0010
0000
0000
0000
,
0100
0000
0000
0000
,
0010
0000
1000
0000
,
0001
0000
0000
0000
,
0000
0100
0000
0100
,
0000
0010
0000
0010
,
0000
1000
0000
1000
,
0000
0001
0000
0001
,
0000
0100
0000
0100
,
0000
0001
0000
0001
,
0000
1000
0000
1000
,
0000
0100
0000
0100
,
0100
0000
0000
0000
,
0010
0000
0001
0000
,
1000
0000
0000
0000
,
0010
0000
1000
0000
,
0001
0000
0000
0000
,
0100
0000
0001
0000
,
1000
0000
0000
0000
,
0001
0000
0010
0000
,
0100
0000
0000
0000
,
0010
0000
0000
0000
,
0001
0000
0100
0000
,
1000
0000
0100
0000
,
0010
0000
0000
0000
,
0001
0000
0000
0000
,
1000
0000
0000
0000
,
0010
0000
0000
0000
,
0100
0000
0000
0000
,
0100
0000
0100
0000
,
0100
0000
0000
0000
,
0010
0000
0010
0000
,
0010
0000
0000
0000
,
1000
0000
1000
0000
,
1000
0000
0000
0000
,
0001
0000
0000
0000
,
0100
0000
0001
0000
,
1000
0000
0000
0000
,
1000
0000
0100
0000
,
0010
0000
0000
0000
,
1001
0000
0000
0000
,
0010
0000
0000
0000
,
0100
0000
0000
0000
,
0010
0000
1000
0000
,
0001
0000
0000
1000
,
1000
0000
0000
0000
,
0001
0000
0000
0100
,
0100
0000
0010
0000
,
1000
0000
0000
0000
,
0001
0000
0001
0000
,
0100
0000
0100
0000
,
0010
0000
0010
0000
,
1000
0000
1000
0000
,
0001
0000
0001
0000
,
0100
0000
0100
0000
,
0010
0000
0010
0000
,
1000
0000
1000
0000
,
0000
0001
0000
1000
,
0000
0001
0000
0100
,
0000
0010
0000
1000
,
0000
0001
0000
1000
,
1000
0000
1000
0000
,
0001
0000
0000
0000
,
0100
0000
0100
0000
,
0010
0000
0000
0000
,
1001
0000
0000
0000
;

//---------------dance-single - t7r----------------
#NOTES:
     dance-single:
     t7r:
     Easy:
     5:
     :
0000
0000
0000
0000
,
0000
0000
0000
0000
,
0000
0000
0000
0000
,
0000
0000
0000
0000
,
0000
0000
0000
0000
,
0000
0000
0000
0000
,
0000
0000
0000
0010
,
0200
0000
0300
0100
,
0020
0000
0030
1000
,
0002
0000
0003
1000
,
0200
0000
0000
0300
,
0010
0000
0001
0000
,
0100
0000
0010
0000
,
1000
0000
0001
0000
,
0100
0000
0010
0100
,
1001
0000
1000
0000
,
0001
0000
0100
0000
,
0001
0000
0010
0000
,
0100
0000
1000
0100
,
0110
0000
0010
0000
,
0001
0000
0100
0000
,
0010
0000
1000
0000
,
0001
0000
1000
0001
,
1001
0000
0001
0000
,
1000
0000
0010
0000
,
0100
0000
0010
0000
,
1000
0100
0010
0001
,
2000
0000
0000
3000
,
0002
0000
0000
0003
,
0200
0000
0000
0300
,
0020
0000
0000
0030
,
2000
0000
0001
3001
,
0002
0000
1000
1003
,
0200
0000
0010
0310
,
2002
0000
0000
3003
,
0001
0000
0001
0001
,
1000
1000
0001
0001
,
1000
0000
1000
1000
,
0001
0001
0100
0100
,
0010
0000
0100
0100
,
0010
0010
1000
1000
,
0001
0000
1000
1000
,
0000
0100
0000
0010
,
1001
0000
0001
0001
,
0100
0100
0001
0001
,
0100
0000
0010
0010
,
1000
1000
0010
0010
,
0200
0000
0000
0300
,
0020
0000
0000
0030
,
2000
0000
0000
3000
,
0002
0000
0000
0003
,
2000
0000
3000
0100
,
0020
0000
0030
0001
,
0020
0000
0030
0001
,
0200
0300
0020
0030
,
1000
0001
1000
1001
,
0001
0000
0100
0000
,
0010
0000
1000
0000
,
1001
0000
0001
0000
,
0010
0000
0100
0110
,
0001
0000
0100
0000
,
0010
0000
1000
1001
,
0100
0000
0010
0000
,
1000
0010
0100
0001
,
1000
0000
1000
0000
,
0001
0000
0001
0100
,
0001
0000
1000
0000
,
0100
0000
1000
0100
,
1000
1000
1000
1000
,
0200
0000
0000
0300
,
0010
0010
0010
0010
,
0002
0000
0000
0003
,
1001
0000
0000
0000
;

//---------------dance-single - t7r----------------
#NOTES:
     dance-single:
     t7r:
     Medium:
     9:
     :
0000
0000
0000
0000
,
0000
0000
0000
0000
,
0000
0000
0000
0000
,
0000
0000
0000
0000
,
0000
0000
0000
0000
,
0000
0000
0000
0000
,
0000
0000
0000
0010
,
0200
0000
0300
0001
,
2000
0000
3000
0001
,
0020
0000
0030
0100
,
0220
0000
0000
0330
,
0010
0001
1000
0100
,
0001
0000
0100
0000
1000
0000
0010
1000
,
0100
0010
0001
0100
,
0010
0000
1000
0000
0010
0000
0100
0001
,
1000
0001
0010
0100
,
1000
0000
0100
0000
0010
0000
0001
1000
,
0001
1000
0010
0100
,
0001
0000
0100
0000
0010
0000
1000
0010
,
0001
0010
1000
0100
,
0001
0000
0100
0000
1000
0000
0100
0001
,
0010
0001
0100
1000
,
0010
0000
0100
0000
0001
0000
1000
0100
,
0001
0100
0010
1000
,
0010
0000
0001
0000
1000
0000
0010
0100
,
0001
0010
0100
1000
,
0100
0000
0010
0000
0001
0000
1000
0001
,
1000
0010
0100
0001
,
1000
0010
0100
0001
,
1000
0001
1000
0000
0001
0000
0100
0000
,
0010
0100
0010
0000
0000
1000
0001
1000
,
0002
0103
0110
1001
,
2000
3100
0010
0100
,
2000
3001
0100
0001
,
2002
0000
0000
3003
,
1000
0000
0000
1000
0000
0000
0000
0000
0001
0000
0000
0001
0000
0000
0000
0000
,
0100
0000
0000
0100
0000
0000
0000
0000
0010
0000
0000
0010
0000
0000
0000
0000
,
1000
0000
0000
1000
0000
0000
0000
0000
0001
0000
0000
0001
0000
0000
0000
0000
,
0010
0000
0000
0010
0000
0000
0000
0000
0100
0000
0000
0100
0000
0000
0000
0000
,
1000
0000
0000
0001
0000
0000
0000
0000
0001
0000
0000
1000
0000
0000
0000
0000
,
0010
0000
0000
0100
0000
0000
0000
0000
0100
0000
0000
0010
0000
0000
0000
0000
,
1000
0000
0000
0100
0000
0000
0000
0000
0010
0000
0000
0001
0000
0000
0000
0000
,
0000
0000
1000
0000
0000
1000
0000
0000
2000
0000
0000
0000
3000
0000
0000
0000
,
0002
0000
0000
0103
0000
0000
0000
0000
2000
0000
0000
3100
0000
0000
0000
0000
,
0002
0000
0000
0013
0000
0000
0000
0000
2000
0000
0000
3010
0000
0000
0000
0000
,
0002
0000
0000
1003
0000
0000
0000
0000
2000
0000
0000
3100
0000
0000
0000
0000
,
0200
0000
0000
0310
0000
0000
0000
0000
0020
0000
0000
0031
0000
0000
0000
0000
,
2002
0000
0000
3003
,
0020
0000
0000
0000
0030
0000
0000
0002
,
0000
0000
1000
0103
,
2000
0000
0010
3100
,
0220
0000
0000
0000
0330
0000
0010
1000
,
0002
0000
0010
0103
,
2020
0000
0000
0000
3030
0000
0100
0001
,
2000
0000
0010
3100
,
0010
1000
0001
1001
,
0001
0100
0010
1000
,
0100
0000
0010
0000
0001
0000
0100
0001
,
1000
0010
0100
0010
,
1000
0000
0010
0000
1000
0000
0100
0010
,
0001
0010
0100
1000
,
0100
0000
0010
0000
0001
0000
0100
0010
,
1000
0010
0100
0001
,
1000
0000
0100
0000
0001
0000
0100
1000
,
0100
0001
0100
1000
,
0010
0000
0001
0000
0010
0000
1000
0010
,
0001
0010
1000
0100
,
0010
0000
0100
0000
1000
0000
0001
1000
,
0100
0100
0100
0100
,
0220
0000
0000
0330
,
0010
0010
0010
0010
,
2002
0000
0000
3003
,
0110
0000
0000
0000
;

//---------------dance-single - t7r----------------
#NOTES:
     dance-single:
     t7r:
     Hard:
     12:
     :
0000
0000
0000
0000
,
0000
0000
0000
0000
,
0000
0000
0000
0000
,
0000
0000
0000
0000
,
0000
0000
0000
0000
,
0000
0000
0000
0000
,
0000
0000
0000
1000
,
0020
0000
0000
0130
,
0002
0000
0000
1003
,
0200
0000
0010
0310
,
0001
0000
0010
0000
0001
0000
1000
0001
0000
0100
0001
0000
2000
0000
0000
0000
,
3001
0010
0100
0000
1000
0010
1000
0000
,
0001
0100
0001
0000
1000
0100
0001
0000
,
1000
0010
1000
0000
0001
0010
0001
0000
,
1000
0010
0001
0000
0010
0100
1000
0000
,
1001
0010
0100
0000
1000
0100
0010
0000
,
0001
0010
0100
0000
1000
0100
0001
0000
,
1001
0100
0010
0000
0100
0010
1000
0000
,
0010
0100
0001
0000
1000
0001
0100
0001
,
0010
0100
1000
0000
0100
0010
0001
0000
,
1000
0010
1000
0000
0001
0100
1000
0000
,
1100
0100
0001
0000
0010
0100
1000
0000
,
0010
0001
0100
0000
0001
1000
0100
1000
,
1010
0100
0001
0000
0010
0001
0100
0000
,
0001
0010
0001
1000
0100
0010
0001
0000
,
0011
0001
0100
0000
0010
1000
0100
0000
,
1000
0010
1000
0100
0010
0001
1001
0000
,
0101
0000
0000
0001
0100
0000
0001
0000
1000
0000
0000
0001
0100
0000
0001
0000
,
1000
0000
0000
0001
0010
0000
0100
0000
0010
0000
0000
0001
0100
0000
0000
0000
,
0010
0000
0000
1000
0010
0000
0100
0000
0010
0000
0000
1000
0100
0000
0010
0000
,
0001
0000
0000
0100
1000
0000
0100
0000
0001
0000
0000
0010
0001
0000
0000
0000
,
0010
0000
0000
0100
0010
0000
0001
0000
0011
0000
0000
0000
1100
0000
0000
0000
,
0010
0000
0000
0001
0010
0000
0001
0000
0100
0000
0010
0000
1000
0000
0001
0000
,
1000
0100
0010
0001
1000
0010
1000
0100
,
0010
0001
0100
0010
1000
0001
1000
0001
,
1000
0200
0000
0000
0310
0001
0200
0000
,
0310
1000
0002
0000
1000
0000
0100
0000
,
1003
0020
0000
0000
0130
0001
2000
0000
,
3002
0010
0100
1003
,
0001
0020
0000
0000
0031
0100
0020
0000
,
1000
0100
0001
0130
,
1000
0200
0000
0000
0310
0001
2000
0000
,
0000
0000
0001
0000
0000
0001
0000
0100
0000
0000
0000
0001
3000
0000
0100
0000
,
0010
0002
0000
0000
1003
0100
0020
0000
,
0031
0010
0100
1000
0001
0010
0100
1000
,
0100
0020
0000
0000
0031
1000
0020
0000
,
0130
0010
1000
0001
0100
0010
1000
0001
,
0100
0000
0001
0000
1000
0000
0001
1000
0000
0001
0100
0000
1001
0000
0000
0000
,
0020
0000
0000
0000
0030
0000
0000
0200
,
0000
0000
0010
0310
,
2000
0000
0001
3100
,
0002
0000
0000
0000
0000
0000
1003
0100
,
0210
0000
1000
0301
,
2100
0000
0000
0000
0000
0000
3001
0010
,
0002
0000
0100
0013
,
0001
0000
0010
0000
0100
0000
1000
0100
0000
1000
0010
0000
0100
0000
0010
0000
,
1000
0001
0100
0000
0001
1000
0100
0000
,
0010
0001
0100
0000
0010
1000
0001
0000
,
1000
0100
0010
0000
0001
0010
0100
0000
,
1000
0010
1000
0100
0010
0001
1000
0001
,
0100
0010
1000
0000
0010
0100
0001
0000
,
0100
0001
1000
0000
0100
0010
0001
0000
,
0010
0100
1000
0000
0001
1000
0100
0000
,
1000
0010
1000
0001
0100
0010
1000
0010
,
0110
0000
0010
0000
1000
0000
0000
0000
0001
0000
0000
0001
0100
0000
0000
0000
,
0001
0000
0100
0000
0010
0000
0000
0000
1000
0000
0000
0010
1000
0000
0000
0000
,
0010
0000
0100
0000
0001
0000
0000
0000
0010
0000
0000
0010
0001
0000
0000
0000
,
0100
0010
1000
0010
0100
0001
0100
0010
,
2010
3020
0230
0301
,
0220
0000
0000
0330
,
1002
2003
3200
0320
,
0031
0000
0010
0000
0001
0000
1000
0000
0100
0000
0000
0010
0100
0000
1000
0000
,
1001
0000
0000
0000
;

//---------------dance-single - t7r----------------
#NOTES:
     dance-single:
     t7r:
     Challenge:
     13:
     :
0000
0000
0000
0000
,
0000
0000
0000
0000
,
0000
0000
0000
0000
,
0000
0000
0000
0000
,
0000
0000
0000
0000
,
0000
0000
0000
0000
,
0000
0000
0000
0200
,
2000
0000
0300
3020
,
0200
0000
0030
0302
,
2000
0000
0003
3020
,
0130
0000
0001
0000
1000
0000
0001
0010
0000
0100
1000
0000
2001
0000
0000
0000
,
3001
0000
0100
0000
0000
0001
1000
0000
0001
0000
0010
0000
0000
0100
0010
0000
,
0001
0000
0010
0000
0000
0001
1000
0000
0010
0000
1000
0000
0000
0010
0100
0000
,
1001
0000
0001
0000
0000
0100
0001
0000
1000
0000
0010
0000
0000
1000
0100
0000
,
0010
0000
0001
0000
0000
1000
0010
0000
1000
0000
0001
0000
0000
1000
0100
0000
,
0110
0000
0010
0000
0000
0001
0010
0000
0001
0000
0100
0000
0000
1000
0010
0000
,
1000
0000
0001
0000
0000
1000
0100
0000
0010
0000
0100
0000
0000
0001
0100
0000
,
0110
0000
0000
0000
1001
0000
0000
0001
1000
0000
0001
0000
0000
0100
0010
0000
,
0100
0000
0001
0000
0000
1000
0100
0000
0010
0000
0001
1000
0001
0000
0000
0000
,
0010
0000
0000
0010
0100
0000
0000
0100
1000
0000
0000
1000
0001
0000
0000
0001
,
0100
0000
0000
0100
0001
0000
0000
0001
1000
0000
0000
1000
0010
0000
1000
0000
,
0010
0000
0000
1000
0100
0000
0000
0100
0010
0000
0000
0010
0001
0000
0000
0001
,
0010
0000
0000
0010
0100
0000
0000
0100
1000
0000
0000
1000
0100
0000
1000
0000
,
0100
0000
0000
1000
0100
0000
0000
0100
0001
0000
0000
0001
0100
0000
0000
0100
,
1000
0000
0000
1000
0010
0000
0000
0010
0001
0000
0000
0001
0010
0000
1000
0000
,
0010
0000
0000
1000
0100
0000
0000
0100
0010
0000
0000
0010
0001
0000
0000
0001
,
0010
0100
1000
0001
0100
0001
0010
0100
,
1000
0000
0000
0100
1000
0000
0001
0000
0100
0000
0000
0001
0100
0000
0001
0000
,
0010
0000
0000
0100
0010
0000
0001
0000
0010
0000
0000
0100
0010
0000
0100
0000
,
1000
0001
0000
0001
0100
0000
0001
0000
1000
0000
0000
0001
0010
0000
0001
0000
,
1000
0000
0000
0010
1000
0000
0010
0000
0100
0000
0000
0001
0100
0000
0010
0000
,
0100
0000
0000
0010
1000
0000
0100
0000
0110
0000
0000
0000
1001
0000
0000
0000
,
0101
0000
0000
0001
0100
0000
0001
0000
0010
0000
0000
0010
0100
0000
1000
0000
,
0100
0000
0000
0100
1000
0000
0001
0000
1000
0000
0000
1000
0001
0000
1000
0000
,
0001
0010
0100
1000
0100
0001
0100
1000
,
0100
0000
0000
1000
0100
0000
1000
0000
0001
0000
0000
0100
0010
0000
1000
0000
,
0010
0100
0001
1000
0100
0010
0001
0010
,
0100
0000
0000
0010
0100
0000
0010
0000
0001
0000
0000
0010
0001
0000
0010
0000
,
0100
1000
0001
0100
0010
1000
0001
1000
,
0001
0000
0000
1000
0001
0000
1000
0000
0001
0000
0000
0100
0001
0000
0010
0000
,
0100
1000
0100
0010
0001
0010
1000
0010
,
0001
0000
0000
0100
0010
0000
1000
0000
0001
0000
0000
0100
0001
0000
1000
0000
,
0000
0000
0101
0000
0000
1001
0000
1010
0000
0000
0000
1000
0001
1000
0100
0000
,
0110
0000
0000
0010
0001
0000
0010
0000
0100
0000
0000
1000
0100
0000
1000
0000
,
0001
0100
0010
1000
0010
0100
0001
1000
,
1100
0000
0000
0010
0001
0000
0010
0000
0100
0000
0000
1000
0100
0000
1000
0000
,
0010
1000
0001
0100
0001
0010
0100
1000
,
0100
0000
0010
0000
0001
0000
1000
0010
0000
0010
1000
0000
0001
0000
0100
0000
,
1001
0000
1000
0001
0100
0000
0001
0100
,
0000
0000
0000
0010
1000
0000
1001
0000
,
0110
0000
0001
0010
0100
0000
1100
0000
,
0012
0000
1000
0000
0103
0000
1000
0001
,
0102
0010
1000
0103
,
2001
0000
0001
0000
0100
0000
3010
1000
,
0102
0010
0100
1003
,
0100
0000
0010
0000
0001
0000
1000
0100
0000
1000
0001
0000
0100
0000
0010
0000
,
1000
0000
0010
1000
0000
0001
0100
0000
0000
0000
0001
0010
0000
0100
1000
0000
,
0000
0000
0001
0010
0000
0001
1000
0000
0000
0000
0010
1000
0000
0001
0100
0000
,
1001
0000
0001
0010
0000
0100
0010
0000
0000
0000
0001
0100
0000
0001
1000
0000
,
0000
0000
1000
0100
0000
1000
0001
0000
0000
0000
1000
0010
0000
0100
0010
0000
,
1010
0000
0010
0100
0000
0001
0100
0000
0000
0000
0001
0100
0000
0010
0100
0000
,
0000
0000
1000
0100
0000
0010
0001
0000
0000
0000
1000
0001
0000
0100
0001
0000
,
1001
0000
0010
0100
0000
0010
0001
0000
0000
0000
1000
0100
0000
1000
0010
0000
,
0000
0000
0100
0001
0000
1000
0001
0000
0010
0000
0001
1000
0001
0000
1000
0000
,
1100
0000
1000
0100
0000
0001
0100
0000
0000
0000
1000
0100
0000
0001
0100
0000
,
0000
0000
1000
0010
0000
0001
0010
0000
0000
0000
1000
0010
0000
0001
0010
0000
,
1010
0000
0010
1000
0000
0100
1000
0000
0000
0000
0010
1000
0000
0100
1000
0000
,
0000
0000
0010
0001
0000
0100
0001
0000
0000
0000
0010
0001
0000
0100
0001
0000
,
1001
0000
0000
0001
0100
0000
0000
0001
0010
0000
0000
0100
0010
0000
0000
0001
,
0010
0000
0000
0100
1000
0000
0000
1000
0001
0000
0100
0000
0010
0100
0010
0000
,
1000
0001
0100
0010
1000
0001
0100
0001
,
0010
0000
0100
0000
1000
0000
0001
0000
1000
0001
1000
0001
1000
0100
1000
0001
,
0100
0000
0000
0000
;
