#TITLE:卑弥呼;
#ARTIST:朱雀 VS 玄武;
#TITLETRANSLIT:HIMIKO;
#ARTISTTRANSLIT:SUZAKU VS GENBU;
#BANNER:HIMIKO.png;
#BACKGROUND:HIMIKO-bg.png;
#JACKET:HIMIKO-jacket.png;
#CDTITLE:./CDTITLES/BEATMANIA IIDX.PNG;
#MUSIC:HIMIKO.ogg;
#SAMPLESTART:94.054;
#SAMPLELENGTH:15;
#BPMS:0=92.5,16=185,133=92.5,165=185,307=88,315=85,321=83;

//---------------dance-single - t7r----------------
#NOTES:
     dance-single:
     t7r:
     Beginner:
     4:
     :
0000
0000
0000
0000
,
0000
0000
0000
0000
,
0000
0000
0000
0000
,
0000
0000
0000
0000
,
1000
0000
0001
0000
,
1000
0000
0001
0000
,
0100
0000
0010
0000
,
0100
0000
0010
0000
,
1000
0000
0001
0000
,
1000
0000
0001
0000
,
0100
0000
0010
0000
,
0100
0000
0010
0000
,
1000
0000
1000
0000
,
0001
0000
0001
0000
,
1000
0000
0100
0000
,
1000
0000
0100
0000
,
0001
0000
0100
0000
,
0001
0000
0100
0000
,
0010
0000
1000
0000
,
0010
0000
1000
0000
,
1001
0000
0000
0000
,
0010
0000
0000
0000
,
0100
0000
0000
0000
,
0010
0000
0100
0000
,
1001
0000
0000
0000
,
0001
0000
0000
0000
,
1000
0000
0000
0000
,
0100
0000
1000
0000
,
0010
0000
0100
0000
,
0000
0000
0001
0000
,
0000
0000
1000
0000
,
0000
0000
0010
0000
,
0100
0000
0100
0000
,
0010
0010
0000
1000
,
0000
0001
0000
0100
,
0000
0001
0000
0010
,
0000
0100
0000
1000
,
0000
0100
0100
0100
,
0000
0010
0010
0010
,
0000
0001
0001
0001
,
0000
1000
0000
0001
,
0001
0001
0000
0000
,
0000
0000
0000
0000
,
0000
0000
0000
0000
,
0000
0000
0000
0000
,
0000
0000
0000
0000
,
0000
0000
0000
0000
,
0000
0000
0000
0000
,
0000
0000
0000
0000
,
0000
0000
0000
0000
,
0000
0000
0000
0000
,
0000
0000
0000
0000
,
0010
0010
0000
0000
,
1000
1000
0000
0000
,
0001
0001
0000
0000
,
0100
0100
0000
0000
,
0001
0001
0000
0000
,
1000
1000
0000
0000
,
0100
0100
0000
0000
,
0010
0010
0000
0100
,
0100
0000
0010
0010
,
0000
0001
0000
1000
,
0000
0001
0000
0100
,
0000
0010
0000
1000
,
0000
0100
0000
1000
,
0000
0001
0000
0100
,
0000
0001
0000
1000
,
0000
0010
0000
0100
,
0000
0001
0000
1001
,
0000
0001
0000
0010
,
0000
0100
0000
1000
,
0000
0100
0000
0010
,
0000
0001
0000
1001
,
0000
0000
0000
0110
,
0000
0000
0000
1001
,
0000
0010
0000
1000
,
0000
0001
0000
0100
,
0000
0010
0000
1000
,
0000
0001
0000
1000
,
0000
0100
0000
0010
,
0000
0001
0000
2002
,
0000
0000
0000
0000
,
0000
3003
0000
0000
;

//---------------dance-single - t7r----------------
#NOTES:
     dance-single:
     t7r:
     Easy:
     11:
     :
0000
0000
0000
0000
,
0000
0000
0000
0000
,
0000
0000
0000
0000
,
0000
0000
0000
0000
,
1000
0100
1000
0000
0002
0000
0003
0000
,
0001
0100
0001
0000
2000
0000
3000
0000
,
0010
0100
0010
0000
0200
0000
0300
0000
,
0001
0100
0010
0000
2000
0000
3100
0000
,
0001
0100
0001
0000
2000
0000
3000
0000
,
0010
1000
0010
0000
0200
0000
0310
0000
,
1000
0100
0010
0000
0002
0000
0003
0000
,
0100
0100
0000
0000
0001
0000
1001
0000
,
0010
0010
0100
0000
2002
0000
3003
0000
,
0100
0100
0010
0000
0002
0000
0103
0000
,
0010
0010
0100
0000
2002
0000
3003
0000
,
0100
0100
0010
0000
2000
0000
3100
0000
,
0001
0001
1000
0000
0220
0000
0330
0000
,
1000
1000
0010
0000
0200
0000
0301
0000
,
1000
1000
0001
0000
0220
0000
0330
0000
,
0010
0010
1000
0000
0002
0000
0103
0000
,
1000
0100
0100
0100
,
1000
0010
0010
0010
,
0100
0001
0001
0001
,
0010
0001
0100
0110
,
1000
0001
1000
0001
,
0100
0010
0100
0010
,
1000
0001
1000
0001
,
2001
0000
0010
0010
,
0010
3010
0100
0001
,
0100
0001
0010
0001
,
0010
0001
0010
0100
,
1000
0100
0120
0000
,
0000
1000
1000
0001
,
0031
2000
3001
0002
,
0103
0000
0020
0000
1030
0001
0200
0000
,
0301
2000
3010
0200
,
0310
1000
0200
0000
1300
0001
0100
0001
,
2000
0000
3001
0001
0001
0100
0100
0001
,
0001
0001
1000
1000
1000
0010
0010
1000
,
0100
0100
1000
1000
1000
0010
0010
0100
,
0100
0010
2000
0000
3001
0100
0001
0000
,
1000
1000
1000
0000
0001
0000
0100
0000
0001
0000
0000
0000
1000
0000
0100
0000
,
1000
0010
0010
0010
,
0100
0001
0100
0000
0010
1000
0010
0000
,
1000
0000
1000
0000
0001
0100
0001
0000
,
0010
0001
0100
0000
0001
0000
0001
0000
,
0100
0010
0100
0000
0001
1000
0100
0000
,
1000
0000
1000
0000
0010
1000
0100
0000
,
1000
0001
0100
0000
0010
0000
0100
0000
,
0001
0100
0010
0000
0100
0010
1000
0000
,
0010
0000
1000
0000
0100
1000
0001
0000
,
1000
0001
0100
0000
0001
0000
0010
0001
,
0100
0000
1001
0000
0001
0100
0000
0100
,
0001
0000
1001
0000
1000
0100
0000
0100
,
1000
0000
0110
0000
0010
0100
0000
0100
,
0001
0001
1001
0000
1000
0010
0000
0010
,
1000
0000
0101
0000
0001
0010
0000
0100
,
1000
0000
0011
0000
0100
0001
0000
0001
,
0100
0000
1010
0000
0100
0001
0000
1000
,
0001
0000
0110
0000
1000
0100
0010
0001
,
2002
3003
0100
1001
,
1000
0000
0100
0010
0001
0000
0100
0010
,
1000
0010
0100
0001
1000
0000
0001
0000
,
0101
0000
0010
1000
0100
0000
0010
0001
,
0100
0001
1000
0010
0100
0000
0110
0000
,
1010
0000
1000
0100
1000
0000
0001
0100
,
0001
1000
0010
0100
0001
0000
0100
0000
,
1010
0000
1000
0100
0001
0000
1001
1001
,
1000
0001
0100
0001
1000
0000
0010
0000
,
0110
0000
0010
0100
0001
0000
1000
0001
,
0100
0001
1000
0010
1000
0000
0001
0000
,
0101
0000
1000
0100
0010
0000
0001
0100
,
0001
1000
0100
0010
0001
1000
0001
0001
,
0000
0000
0010
0100
1000
0000
0100
0100
,
0000
0000
1000
0010
0100
0000
0101
0000
,
1000
0001
0010
0000
0001
1000
0001
0000
,
0110
0000
0001
0100
0010
1000
0001
0000
,
0001
0100
0100
0010
,
0010
0000
1000
0000
1000
0000
0001
1000
,
0100
0000
1000
0001
0010
0000
0001
0010
,
0100
1000
0010
0100
0001
1000
2002
0000
,
0000
0000
0000
0000
,
0000
3003
0000
0000
;

//---------------dance-single - t7r----------------
#NOTES:
     dance-single:
     t7r:
     Medium:
     13:
     :
0000
0000
0000
0000
,
0000
0000
0000
0000
,
0000
0000
0000
0000
,
0000
0000
0000
0000
,
1000
0100
0010
0001
0200
0000
0300
0001
,
1000
0100
0010
0001
0200
0000
0300
0000
,
0010
1000
0001
0100
0020
0000
0030
1000
,
0010
1000
0001
0100
0020
0000
1030
0000
,
0001
0010
0100
1000
0002
0000
0003
1000
,
0001
0010
0100
1000
0002
0000
0103
0000
,
0100
0010
1000
0001
2000
0000
3001
0000
,
0100
0100
0000
0010
1000
0000
1100
0000
,
1000
0100
1000
0001
2000
0000
3000
0000
,
1000
0100
1000
0001
2000
0000
3001
0000
,
0001
0100
0001
1000
0002
0000
0003
0000
,
0001
0100
0001
1000
0002
0000
1003
0000
,
0010
0100
0010
1000
0020
0000
0030
0000
,
0010
0100
0010
1000
0020
0000
0031
0000
,
0100
0010
0100
1000
0200
0000
0300
0000
,
0010
0010
0000
0100
0001
0000
1001
0000
,
1000
0000
0000
1000
0000
0000
1000
0000
1000
0000
0000
1000
0000
0000
1000
0000
,
0010
0000
0000
0010
0000
0000
0010
0000
0010
0000
0000
0010
0000
0000
0010
0000
,
0100
0000
0000
0100
0000
0000
0100
0000
0100
0000
0000
0100
0000
0000
0100
0000
,
0001
0000
0000
1000
0000
0000
0001
0000
0100
0000
0000
0000
1001
0000
0000
0000
,
0001
0000
0000
0010
0000
0000
0100
0000
1000
0000
0000
0100
0000
0000
0010
0000
,
0001
0000
0000
0100
0000
0000
0010
0000
1000
0000
0000
0001
0000
0000
1000
0000
,
0100
0000
0000
1000
0000
0000
0010
0000
1000
0000
0000
0001
0000
0000
1000
0000
,
0001
0000
0000
0001
0000
0000
0001
0000
0001
0000
0000
0001
0000
0000
1000
0000
,
0010
0000
0100
0000
0001
0000
1000
0000
0001
0000
0000
0011
0000
0000
0100
0000
,
1000
0000
0000
0100
0000
0000
0100
0000
1000
0000
0000
1010
0000
0000
0100
0000
,
0001
0000
0000
0100
0000
0000
0001
0000
1000
0000
0000
1001
0000
0000
0010
0000
,
0100
0000
0000
0110
0000
0000
0010
0000
1000
0000
0000
1000
0000
0000
1000
0000
,
1000
0000
0000
1000
0000
0000
1000
0000
0001
0000
0100
0000
0010
0000
1000
0000
,
0001
0010
0200
0000
1300
0000
0020
0000
,
0031
0000
2000
0000
3100
0010
0200
0000
,
1300
0002
0103
0020
,
1030
0001
2000
0000
3001
0010
0100
0010
,
0200
0000
0000
0000
1300
1000
1000
0000
1000
0000
0010
0010
0010
0000
0100
0000
,
0100
0100
0100
0000
0001
0001
0001
0000
0001
0000
0010
0010
0010
0000
0100
0000
,
0100
0100
0100
0000
1000
1000
1000
0000
1000
0000
0001
0001
0001
0000
0010
0000
,
0010
0010
0010
0000
1002
0000
0000
0000
1003
0000
0010
0000
0100
0000
0000
0000
,
0010
0010
0010
0000
1000
0000
0100
0000
0010
0000
0001
0000
0100
0000
0010
0000
,
1000
0010
0100
0000
0100
0000
0100
0000
,
0001
0010
0100
1000
0100
0010
0001
1000
,
0001
0000
0001
0000
1000
0010
0100
0010
,
1000
0010
0100
0010
1000
0000
1000
0000
,
1000
0010
0001
0010
1000
0010
0001
0000
,
0001
0000
1000
0100
0001
0100
1000
0100
,
0001
0100
1000
0000
1000
0000
0001
0100
,
0010
1000
0010
0100
0001
1000
0100
0000
,
0110
0000
0010
0001
0010
0100
1000
0100
,
1000
0001
1000
0000
1001
0000
0010
0100
,
0010
0100
1001
0000
0001
0100
0001
0010
,
0100
1000
1100
0000
0100
0010
0001
1000
,
0010
0100
0110
0000
0010
1000
0001
0100
,
0001
0010
0011
0000
1000
0100
0001
0100
,
1000
0001
1001
0000
1000
0010
0100
0010
,
1000
0010
1010
0000
0010
0100
0001
0010
,
0001
0100
0101
0000
0001
1000
0100
0010
,
0100
1000
1001
0000
0010
0100
0001
1000
,
2002
0000
3003
0000
0001
0000
1001
0001
,
0100
0000
0010
0000
0000
1000
0010
0000
0100
0000
0001
0000
1000
0000
0100
0000
,
0010
0000
0001
0000
0000
0100
0010
0000
1000
0000
0000
0000
0010
0000
0100
0000
,
0001
0000
1000
0000
0000
0100
0010
0000
0100
0000
1000
0000
0001
0000
0100
0000
,
0001
1000
0010
0100
0001
0000
1000
0100
,
0001
0000
0100
0000
0000
1000
0100
0000
0001
0000
0100
0000
1000
0000
0100
0000
,
1000
0000
0010
0000
0000
0100
0001
0000
1000
0000
0000
0000
0001
0000
0010
0000
,
1000
0000
0010
0000
0000
0001
0010
0000
1000
0000
0010
0000
0100
0000
0110
0000
,
0001
0010
0001
1000
0001
0100
0010
0100
,
0001
1000
0010
0100
0001
1000
0100
0010
,
0100
1000
0001
0100
0001
0000
1000
0100
,
1000
0010
0100
0001
1000
0010
0001
0010
,
1000
0100
0001
0100
1000
0001
1001
0001
,
1000
0000
0100
1000
0100
0000
1010
0010
,
1000
0000
0100
1000
0001
0000
0011
0000
,
0100
0001
0101
0000
1000
0100
1100
0000
,
1001
0000
0000
0000
0001
0000
0010
0000
0100
0000
1000
0000
0001
1000
0000
0001
,
1000
0000
0001
0000
0010
0001
0000
0010
0001
0000
0100
0000
0010
1000
0000
0010
,
0100
0000
0010
0000
1000
1000
0000
0001
0001
0000
1000
0000
0001
0100
0000
0010
,
1000
0000
0001
0000
1000
0100
0000
0001
0010
0000
0001
0000
0100
0001
0000
0010
,
1000
0000
0010
0000
0001
0000
1000
0000
0010
0100
0001
0000
2002
0000
0000
0000
,
0000
0000
0000
0000
,
0000
3003
0000
0000
;

//---------------dance-single - t7r----------------
#NOTES:
     dance-single:
     t7r:
     Hard:
     17:
     :
0000
0000
0000
0000
,
0000
0000
0000
0000
,
0000
0000
0000
0000
,
0000
0000
0000
0000
,
1000
0000
0100
0000
0010
0000
0001
0100
0001
0000
0000
0000
0100
0000
0010
0000
,
1000
0000
0100
0000
0010
0000
0001
0100
0001
1000
0000
1000
0010
0000
1000
0000
,
0001
0000
0010
0000
0100
0000
1000
0100
1000
0000
0000
0000
0010
0000
1000
0000
,
0001
0000
0010
0000
0100
0000
1000
0100
1000
0001
0000
0001
0100
0000
0001
0000
,
0010
0000
0001
0000
1000
0000
0001
1000
0001
0000
0000
0000
1000
0000
0100
0000
,
0010
0000
0001
0000
1000
0000
0001
1000
0001
0100
0000
0100
0010
0000
1000
0000
,
0010
0000
0001
0000
0010
0000
0100
0010
0100
0000
0000
0000
0010
0000
1000
0000
,
0001
1001
0000
0100
0010
0100
0110
0001
,
1001
0000
1100
0000
0001
0000
0100
0001
0100
0000
0000
0000
0010
0000
1000
0000
,
1001
0000
1100
0000
0001
0000
0100
0001
0100
0010
0000
0010
1000
0000
0001
0000
,
0101
0000
0110
0000
0010
0000
1000
0001
1000
0000
0000
0000
0010
0000
0001
0000
,
0101
0000
0110
0000
0010
0000
1000
0001
1000
0100
0000
0100
0010
0000
0100
0000
,
0110
0000
1100
0000
0001
0000
0100
0010
0100
0000
0000
0000
0001
0000
0100
0000
,
0110
0000
1100
0000
0001
0000
0100
0010
0100
0010
0000
0010
1000
0000
0001
0000
,
1001
0000
1010
0000
0010
0000
0100
0001
1000
0000
0000
0000
0001
0000
0100
0000
,
1001
0000
0011
0000
1000
0000
0100
1000
0001
0000
0100
0001
1000
0000
0100
0010
,
0001
0100
0001
0000
1000
0000
0100
1000
0000
0001
0100
0000
0010
1000
0010
0000
,
0100
0000
0001
0100
0000
0001
1000
0000
0010
0100
0010
0000
1000
0000
0100
1000
,
0000
0100
0010
0000
0001
0010
0001
0000
0100
0000
0010
1000
0000
0001
0100
0000
,
0010
1000
0010
0000
0100
0000
0001
0010
0000
0100
1000
0000
0001
0000
0010
0000
,
0100
0010
0100
0000
0010
0000
0001
1000
0000
0001
0100
0000
0010
1000
0010
0000
,
0100
0000
0001
1000
0000
0010
1000
0000
0010
0100
0010
0000
1000
0000
0010
1000
,
0000
0100
0001
0000
0100
1000
0100
0000
0010
0000
0100
0001
0000
1000
0010
0000
,
0100
0010
0100
0000
0001
0000
1000
0100
0000
0010
0100
0000
1000
0000
0001
0000
,
0100
0000
0002
0000
0000
0000
0000
0000
1003
0010
1000
0000
0010
0000
0100
0010
,
0000
0010
1000
0000
0100
0001
0100
0000
1000
0000
1000
0001
0000
0001
0100
0000
,
0010
1000
0010
0000
0100
0000
0010
1000
0000
1000
0100
0000
0010
0100
1000
0000
,
0010
0000
0100
0001
0000
0001
1000
0000
0001
1000
0100
0000
0010
0000
0100
1000
,
0000
0001
0010
0000
0001
0000
1000
0000
0100
1000
0100
1000
0100
0000
1000
0000
,
0001
0100
0001
0100
0002
0000
0000
0000
1003
0000
0000
0000
0201
0000
0000
0000
,
0310
0000
2010
0000
3100
0010
0120
0000
,
0031
1002
0103
2010
,
3001
0100
1002
0000
0103
0010
0110
1000
,
0012
0000
1003
0000
1000
1000
1000
0100
1000
0001
0100
0100
0100
0010
0100
0010
,
1000
1000
1000
0001
0100
0100
0100
0001
0010
0001
0010
0010
0010
0100
0010
0100
,
1000
0001
1000
0010
0100
0100
0001
1000
0100
1000
0100
0100
0010
0100
1000
0010
,
1000
0001
1000
0010
0110
0000
0000
0000
1010
0000
0101
0000
2002
0000
3003
0000
,
1100
1100
1100
0000
1000
0000
0100
0000
0010
0000
0100
0000
1000
0000
0100
0000
,
0010
0000
0001
0000
0100
0001
0100
0000
0001
0000
1000
0000
0001
0000
0100
0000
,
0010
0000
0100
0000
0001
0000
0100
0000
0010
0000
0100
0000
0010
1000
0010
0000
,
1000
0001
0100
0010
1000
0001
0100
0010
,
1000
0000
0001
0000
1000
0010
1000
0000
0010
0000
0100
0000
0001
0000
1000
0000
,
0010
0000
0100
0000
0001
0000
1000
0000
0010
0000
0100
0000
0001
1000
0001
0000
,
0010
0001
0100
0010
1000
0010
0100
0010
,
1000
0000
0100
0000
0010
0100
0010
0000
0100
0000
1000
0000
0010
0000
0100
0000
,
0001
0000
0010
0000
0001
0000
0010
0000
0100
0000
1000
0000
0001
0100
0001
0000
,
1000
0010
0100
0001
1000
0010
0100
0001
,
1000
0000
0100
0000
0010
0001
0010
0000
0001
0000
0010
0000
1000
0000
0010
0000
,
0001
0100
0001
0100
0001
0000
1000
0000
0100
0000
1000
0010
1000
0000
0100
0000
,
1000
0000
0001
0000
0101
0000
0001
0000
0010
0000
0100
0010
0100
0000
0010
0000
,
0001
0000
1000
0000
1100
0000
0100
0000
1000
0000
0010
0100
0010
0000
1000
0000
,
0001
0000
0100
0000
0001
0010
0001
0010
0001
0000
1000
0000
0001
0100
0001
0000
,
1000
0100
0010
0100
1000
0000
0001
0000
1000
0000
0100
0010
0001
0000
0100
0000
,
1010
0000
0100
0000
1001
0000
1000
0000
0010
0000
0100
0010
1000
0000
0001
0000
,
0100
0000
0010
0000
1001
0000
0001
0000
1000
0000
0100
0001
0100
0000
1000
0000
,
0001
0000
1000
0000
0001
0100
0001
0100
0010
1000
0001
1000
0001
0000
0100
0010
,
2000
0000
0000
0000
3000
0000
0000
0000
0010
0100
0001
1000
0001
0000
0100
0000
,
0001
0000
0010
0000
0000
0010
0001
0000
1000
0000
0100
1000
0010
0000
0100
0000
,
0001
0000
1000
0000
0000
1000
0010
0000
0100
0000
0010
1000
0100
0000
0010
0000
,
0001
0000
0100
0000
0000
0100
0001
0000
1000
0000
0001
0010
0001
0000
1000
0000
,
0001
0000
0010
0001
0010
0000
0001
0000
1000
0010
0100
0010
1000
0000
0001
0000
,
0100
0000
0001
0000
0000
0001
0010
0000
0001
0000
1000
0100
0010
0000
0100
0000
,
1000
0000
0010
0000
0000
0010
0100
0000
0001
0000
1000
0001
0100
0000
0001
0000
,
1000
0000
0010
0000
0000
0100
0001
0000
0010
0000
0100
0000
0110
0000
0110
0000
,
0001
0000
1000
0000
0010
0000
0100
0001
1000
0000
0001
1000
0010
1000
0010
1000
,
0100
0000
0010
0100
0000
0100
1000
0000
0100
0000
0010
0001
0100
0001
0100
0001
,
0010
0000
0100
0010
0000
0010
0001
0000
1000
0000
0010
0100
0001
0100
0001
0100
,
0010
0000
1000
0001
0000
0001
0010
0000
0001
0000
1000
0001
1000
0010
1000
0010
,
0100
0000
0010
1000
0000
1000
0001
0000
0100
0000
0010
0000
0110
0000
0001
0000
,
0200
0000
0000
0000
0310
0000
1000
0100
0010
0000
0001
0010
0100
0000
0110
0000
,
2000
0000
0000
0000
3010
0000
0100
0001
1000
0000
0001
1000
0020
0000
0000
0000
,
0130
0001
0011
0000
0100
1000
1010
0000
,
0110
0000
0000
0000
1001
0000
1001
0000
0110
0000
1001
0000
0011
0001
0000
1000
,
1000
0000
0010
0010
0100
0100
0000
0001
0001
0000
0010
0010
0100
0100
0000
1000
,
1000
0000
0100
0100
1000
1000
0000
0001
0001
0000
1000
1000
0100
0100
0010
0001
,
1000
0000
0001
0001
0100
0100
0010
1000
0001
0000
1000
1000
0100
0100
1000
0010
,
0100
0001
1000
0001
1001
0000
0001
0010
0100
1000
0001
0000
0220
0000
0000
0000
,
0000
0000
0000
0000
,
0000
0330
0000
0000
;

//---------------dance-single - t7r----------------
#NOTES:
     dance-single:
     t7r:
     Challenge:
     19:
     :
0000
0000
0000
0000
,
0000
0000
0000
0000
,
0000
0000
0000
0000
,
0000
0000
0000
0000
,
1000
0100
1000
0100
1000
0100
0010
0001
0010
0100
1000
0100
1000
0000
0000
0000
,
1000
0100
1000
0100
1000
0100
0010
0001
0010
0100
1000
0100
1000
0000
0000
0000
,
0001
0100
0001
0100
0001
0100
0010
1000
0010
0100
0001
0100
0001
0000
0000
0000
,
0001
0100
0001
0100
0001
0100
0010
1000
0010
0100
0001
0100
0001
0000
1001
0000
,
1000
0001
1000
0001
1000
0001
0100
0010
0100
0001
1000
0001
1000
0000
0000
0000
,
1000
0001
1000
0001
1000
0001
0100
0010
0100
0001
1000
0001
1000
0000
0000
0000
,
0001
0010
0001
0010
0001
0010
0100
1000
0100
0010
0001
0010
0001
0000
1000
0000
,
1001
0000
1001
0000
0010
0000
0100
0001
1000
0000
0001
1000
0001
1000
0010
0100
,
0001
0100
0001
0100
0001
0100
0010
1000
0100
0010
0100
1000
0100
0000
1000
0000
,
0001
0100
0001
0100
0001
0100
0010
1000
0100
0010
0000
0001
0010
0000
0001
0000
,
1000
0100
1000
0100
1000
0100
0010
0001
0100
0001
0010
0100
1000
0000
0000
0000
,
1000
0100
1000
0100
1000
0100
0010
0001
0100
0001
0000
1000
0001
0000
1001
0000
,
0010
0100
0010
0100
0010
0100
0010
1000
0001
0100
0001
1000
0100
0000
1000
0000
,
0010
0100
0010
0100
0010
0100
0010
1000
0001
1000
0000
0010
1000
0000
0001
0000
,
1000
0010
1000
0010
1000
0010
0100
0001
0010
1000
0010
0001
0100
0000
0010
0000
,
0101
0000
0101
0000
0001
0000
1000
0100
0001
0000
0100
0000
1000
0001
1000
0001
,
1000
0100
1000
0000
0100
0000
1000
0010
0000
0010
0100
0000
0001
1000
0001
0000
,
0100
0000
0010
1000
0000
0010
0100
0000
0001
1000
0001
0000
0100
0000
0010
1000
,
0000
0100
0001
0000
0100
1000
0100
0000
1000
0000
0001
0100
0000
0010
1000
0000
,
0001
0010
0001
0000
0100
0000
0100
0001
0000
1000
0001
0000
1000
0010
0100
0001
,
1000
0010
1000
0000
0110
0000
1000
0001
0000
0100
0001
0000
1000
0100
1000
0000
,
1001
0000
0100
0001
0000
1000
0001
0000
0010
0100
1000
0000
0101
0000
1000
0010
,
0000
0100
0001
0000
1000
0001
1000
0000
0011
0000
0010
0100
0000
1000
0001
0000
,
1000
0100
0010
0000
1100
0000
1000
0001
0000
0100
0001
0000
1000
0010
1000
0000
,
1001
0000
1000
0001
1000
0010
0100
0001
0100
0010
1000
0000
0011
0000
1000
0100
,
0000
0001
1000
0000
1000
0010
0010
0000
1001
0000
0100
0100
0000
0001
0001
0000
,
1000
1000
0010
0000
0110
0000
0001
0001
0000
0100
0100
0000
1000
1000
1000
0000
,
0110
0000
1000
1000
0000
0001
0001
0000
1000
0100
0001
0000
1100
0000
0001
0100
,
0000
0001
1000
0000
0001
0010
0100
1000
0100
0010
0001
1000
0010
0010
0100
0100
,
0001
0001
1000
1000
2001
0000
3010
0000
0102
0000
1003
0000
2100
0000
3010
0000
,
1002
0103
2001
3010
0101
1010
2100
3001
,
1002
0013
0102
1003
1200
0310
1200
0301
,
1001
0000
0000
0110
0000
0000
1002
0000
0000
0103
0000
0000
0101
0000
0000
1010
0000
0000
1100
0000
0000
0001
0010
0100
,
1000
0000
0100
0000
0110
0110
0110
0010
1001
0100
1010
1010
1010
0100
0101
0010
,
0011
0011
0011
0001
1001
1001
1001
0100
0110
0010
1010
1010
1010
1000
1100
0100
,
1001
1100
1001
0100
0101
0101
0101
0010
1010
1000
0110
0110
0110
0010
1001
1000
,
0011
0110
1100
0100
0120
0000
0130
0000
2000
0000
3001
0000
1020
0000
0130
0000
,
0011
0011
0011
0000
0001
0010
0001
0010
0001
0010
0001
0010
0100
1000
0100
0010
,
0001
1000
0100
0010
0001
1000
0100
0010
0100
1000
0100
1000
0001
0100
0001
0100
,
0001
0100
0001
0100
0010
1000
0010
0100
0001
1000
0010
0100
0001
1000
0010
0100
,
0001
1000
0001
1000
0010
0100
0010
0100
0010
0100
0010
0100
0001
1000
0100
0010
,
0100
1000
0001
1000
0100
0010
0100
1000
0001
0100
0010
1000
0001
0010
0001
0010
,
0001
0010
0001
0010
0100
1000
0010
0100
0001
1000
0100
0010
0100
1000
0010
1000
,
0010
1000
0010
1000
0010
1000
0010
0100
0001
0100
0010
1000
0100
0001
0100
1000
,
0010
0100
0010
1000
0001
0010
0100
1000
0100
0010
0100
0010
0100
0010
0100
0010
,
0001
1000
0010
0100
0001
1000
0010
0100
0010
1000
0010
0001
0010
1000
0100
1000
,
0010
0100
0010
0100
0010
0100
0010
0100
0001
1000
0010
1000
0100
0010
0100
1000
,
0001
0010
1000
0010
0001
0100
0010
1000
0010
0100
0001
1000
0100
1000
0100
1000
,
0010
0100
0001
1000
1001
0000
0010
1000
0100
0000
1000
0000
0001
0000
0100
0000
,
0011
0000
0001
0000
1100
0000
0100
0010
0001
0000
0100
0000
0010
0000
1000
0000
,
0110
0000
0100
0000
1010
0000
0010
1000
0001
0000
0100
0000
0001
0000
1000
0000
,
1001
0000
0100
0000
0001
0100
0010
1000
0001
0100
0010
1000
0001
0100
0001
0100
,
0001
1000
0001
1000
0001
0100
0001
0000
0100
0001
0010
0100
1000
0000
0100
0000
,
2200
0000
3300
0000
1000
0100
1000
0000
0100
1000
0100
0010
0001
0000
0010
0000
,
0001
0000
0010
0000
0001
0100
0001
0000
0100
0001
0010
0100
1000
0000
0100
0000
,
2200
0000
3300
0000
0001
0010
0001
0010
0100
1000
0100
1000
0001
0010
0100
1000
,
2002
0000
0000
0000
3003
0000
0000
0000
0010
0001
0010
0100
1000
0000
0001
0100
,
0001
0100
0001
0100
0010
1000
0001
0100
0001
0100
0010
1000
0001
0100
0010
1000
,
0100
0010
0001
1000
0100
0010
0100
1000
0001
0100
0010
1000
0010
0000
1000
0010
,
0100
0001
1000
0010
0100
0001
1000
0100
1000
0001
0100
0010
1000
0010
0100
0001
,
1000
0001
0010
0100
1000
0100
0010
0001
1000
0001
1000
0001
0100
0000
0001
0010
,
0001
0010
0100
1000
0100
1000
0010
0100
0001
1000
0010
1000
0001
0100
0010
1000
,
0100
0001
0100
1000
0010
0100
0001
1000
0001
1000
0010
1000
0100
0000
0010
0100
,
1000
0100
0010
0001
0100
0010
1000
0010
0100
0001
1000
0000
1001
0000
1001
0000
,
0010
0000
0100
0001
1000
0000
0001
1000
0100
1000
0010
1000
0001
0000
0100
0010
,
0100
0010
1000
0100
0010
1000
0010
0100
1000
0010
0001
0010
1000
0100
0001
0100
,
1000
0001
1000
0001
0010
0100
1000
0001
0100
0010
1000
0100
1000
0001
0010
0100
,
1000
0001
0100
0010
0100
0001
0100
0010
1000
0100
0010
0001
0010
0100
1000
0001
,
0010
0001
1000
0100
0010
0001
0100
1000
0100
0001
0010
0100
1100
0000
1100
0000
,
1001
0000
0000
0000
0001
0100
0001
0100
0010
1000
0100
0010
0011
0000
0011
0000
,
1001
0000
0000
0000
0100
0010
0100
0010
1000
0001
1000
0001
0101
0000
0001
1000
,
0100
0000
0010
0000
0011
0000
0100
0001
1000
0001
1000
0100
1000
0010
0100
0001
,
1000
0010
0100
0001
0010
0001
0100
0010
1000
0100
0001
0100
1001
1001
0010
0101
,
1001
0001
0110
0101
0110
0110
0010
1100
1100
1000
0101
1001
0110
0110
0001
1001
,
1001
0000
1001
0000
0010
0000
1010
0000
1010
0000
1010
0000
0100
0000
0101
0000
0101
0000
0010
0000
1000
0000
1100
0000
1001
0000
1001
0000
0010
0100
0010
1000
,
0001
0000
0000
0000
0001
0100
0001
1000
0100
0010
0100
1000
0001
1000
0001
1000
0001
0000
0000
0000
1000
0010
0100
0001
0100
0010
0100
0001
1000
0100
1000
0001
,
0100
0001
1000
0010
1000
0010
0100
0000
0110
0000
0010
0000
1000
0001
0010
0100
1000
0000
0100
0000
0010
0000
0000
0000
1001
0000
0000
0000
0000
0000
0000
0000
,
0001
0010
0100
1000
0100
0010
0001
1000
0010
0100
0001
1000
0001
0100
0010
1000
0100
0010
0200
0000
0000
0000
0000
0000
0000
0000
0000
0000
0000
0000
0000
0000
,
0000
0300
0000
0000
;
