#TITLE:ハリツヤランデヴー;
#ARTIST:Des-MASTERS;
#TITLETRANSLIT:HARI TSUYA RENDEZ-VOUS;
#BANNER:HARI TSUYA RENDEZ-VOUS.png;
#BACKGROUND:HARI TSUYA RENDEZ-VOUS-bg.png;
#JACKET:HARI TSUYA RENDEZ-VOUS-jacket.png;
#CDTITLE:./CDTITLES/BEATMANIA IIDX.PNG;
#MUSIC:HARI TSUYA RENDEZ-VOUS.ogg;
#SAMPLESTART:57.902;
#SAMPLELENGTH:15;
#BPMS:0=143;
#STOPS:45.500=0.41958041958041958041958041958042
,55.500=0.41958041958041958041958041958042
,65.500=0.83916083916083916083916083916084
,225.000=0.41958041958041958041958041958042
,235.000=0.41958041958041958041958041958042
,245.000=0.83916083916083916083916083916084
;

//---------------dance-single - t7r----------------
#NOTES:
     dance-single:
     t7r:
     Beginner:
     3:
     :
0000
0000
0000
0000
,
0000
0000
0000
0000
,
0000
0000
0000
0000
,
0000
0000
0000
0000
,
0000
0000
0000
0000
,
1000
0000
0100
0000
,
0010
0000
0001
0000
,
1000
0000
0100
0000
,
0010
0000
0001
0000
,
1000
1000
1000
0000
,
0001
0000
1000
0000
,
0000
0000
0000
0100
,
0100
0000
0010
0000
,
1000
0000
0001
0000
,
0000
0001
0001
0000
,
0010
0000
0001
0000
,
0100
0000
0000
0010
,
0010
0000
1000
0000
,
0001
0000
1000
0000
,
0100
0000
0000
0000
,
0000
0000
0000
0000
,
0000
1000
0000
0000
0000
0001
0000
0000
,
0000
1000
0000
0000
0000
0010
0000
0000
,
0000
0100
0000
0000
0000
0001
0000
0000
,
0000
0010
0000
0000
0000
0001
0000
0000
,
0000
0100
0000
0000
0000
0100
0000
0000
,
0000
0010
0000
0000
0000
0010
0000
0000
,
0000
1000
0000
0000
0000
1000
0000
0000
,
0000
0001
0000
0000
0000
0001
0000
0000
,
0000
1000
0000
0000
0000
0001
0000
0000
,
0000
1000
0000
0000
0000
0001
0000
0000
,
0000
0010
0000
0000
0000
0100
0000
0000
,
0000
0010
0000
0000
0000
0100
0000
0100
,
0000
0100
0000
0100
0000
0000
0000
0010
,
0000
0000
0000
0000
,
0000
0000
0000
0000
0000
0000
0000
1000
,
0000
0000
0000
0001
0000
0000
0000
0100
,
0000
0000
0000
0001
0000
0000
0000
1000
,
0000
0000
0000
0000
0000
0000
0000
0001
,
0000
0000
0000
1000
0000
0000
0000
0001
,
0000
0000
0000
0010
0000
0000
0000
0100
,
0000
0000
0000
0010
0000
0000
0000
1001
,
0000
0000
0000
0000
0000
0000
0000
0001
,
0000
0000
0000
0100
0000
0000
0000
0010
,
0000
0000
0000
1000
0000
0000
0000
0001
,
0000
0000
0000
1000
0000
0000
0000
0110
,
0000
0000
0000
0000
0000
0000
0000
0010
,
0000
0000
0000
1000
0000
0000
0000
0001
,
0000
0000
0000
0100
0000
0000
0000
0001
,
0000
0001
0000
0001
0000
0001
0000
0001
,
0000
0000
0000
1000
0000
0000
0000
0001
,
0000
0000
0000
1000
0000
0000
0000
1000
,
0000
0000
0000
1000
0000
0000
0000
1000
,
0000
0000
0000
1000
0000
0000
0000
1000
,
0000
1000
0000
1000
0000
0000
0000
0001
,
0000
0000
0000
0100
0000
0000
0000
0000
,
0000
0000
0000
0000
0000
0010
0000
0010
,
0000
0000
0000
0100
0000
0000
0000
0001
,
0000
0000
0000
1000
0000
0000
0000
0000
,
0000
0001
0000
0001
0000
0000
0000
0010
,
0000
0000
0000
0001
0000
0000
0000
0100
,
0000
0000
0000
0000
0000
0010
0000
0010
,
0000
0000
0000
0100
0000
0000
0000
0010
,
0000
0000
0000
1000
0000
0000
0001
0000
;

//---------------dance-single - t7r----------------
#NOTES:
     dance-single:
     t7r:
     Easy:
     5:
     :
0000
0000
0000
0000
,
0000
0000
0000
0000
,
0000
0000
0000
0000
,
0000
0000
0000
0000
,
0000
0000
0000
0000
,
2000
3000
0002
0003
,
2000
3000
0002
0003
,
0200
0300
0020
0030
,
0200
0300
0020
0030
,
1000
1000
1000
0000
,
0001
0100
0001
1000
,
0010
0100
0100
0100
,
0100
0000
0001
0010
,
0001
0100
0010
1000
,
0010
0010
0010
0000
,
0100
0010
1000
0100
,
0010
0100
1000
1000
,
1000
0000
0001
0010
,
0001
0100
0010
1000
,
0002
0003
0000
0000
,
0100
0000
0000
0000
0000
0000
0000
0001
,
0000
1000
0000
0001
0000
0000
0000
0100
,
0000
0010
0000
0100
0000
0000
0000
0010
,
0000
1000
0000
0100
0000
0000
0000
0010
,
0000
0001
0000
0100
0000
0000
0000
1001
,
0000
1000
0000
0100
0000
0000
0000
0001
,
0000
1000
0000
0010
0000
0000
0000
0100
,
0000
0001
0000
0010
0000
0000
0000
0010
,
0000
0001
0000
0100
0000
0010
0000
2000
,
0000
0001
0000
0000
0000
3001
0000
0002
,
0000
1000
0000
0000
0000
1003
0000
0200
,
0000
0010
0000
0000
0000
0310
0000
0200
,
0000
0001
0000
0000
0000
0301
0000
0002
,
0000
0003
0000
2000
0000
3000
0000
2002
,
0000
0000
0000
0000
,
0000
0000
0000
0000
0000
3003
0000
0000
,
0000
0100
0000
0000
0000
0100
0000
0000
,
0000
0010
0000
0000
0000
0010
0000
0002
,
0000
0003
0000
1000
0000
0001
0000
1000
,
0000
0000
0000
0001
0000
0100
0000
0010
,
0000
0000
0000
1000
0000
0100
0000
0010
,
0000
0100
0000
1000
0000
0001
0000
0220
,
0000
0330
0000
1000
0000
0001
0000
1000
,
0000
0000
0000
0001
0000
0010
0000
0100
,
0000
0000
0000
1000
0000
0100
0000
0010
,
0000
0100
0000
1000
0000
0001
0000
0202
,
0000
0303
0000
1000
0000
0010
0000
1000
,
0000
0000
0000
0001
0000
0100
0000
1000
,
0000
0000
0000
0001
0000
0100
0000
1000
,
0000
0010
0000
1000
0000
0100
0000
0020
,
0000
0030
0000
2000
0000
3000
0000
0002
,
0000
0003
0000
0200
0000
0300
0000
0020
,
0000
0030
0000
2000
0000
3000
0000
0002
,
0000
0003
0000
2000
0000
3000
0000
0001
,
0000
0001
0000
0001
0000
0000
0000
1000
,
0000
0010
0000
1000
0000
0001
0000
0100
,
0000
0001
1000
1000
0000
0001
0000
0100
,
0000
0000
0000
0010
0000
0100
0000
0001
,
0000
1000
0000
0100
0000
0010
0001
0010
,
0000
0100
0000
1000
0000
0000
0000
0100
,
0000
0010
0000
1000
0000
0010
0000
0001
,
0000
0100
0010
0100
0000
0010
0000
1000
,
0000
0001
0000
0100
0000
0001
0000
1000
,
0000
0010
0000
0100
0000
0010
0100
0000
;

//---------------dance-single - t7r----------------
#NOTES:
     dance-single:
     t7r:
     Medium:
     8:
     :
0000
0000
0000
0000
,
0000
0000
0000
0000
,
0000
0000
0000
0000
,
0000
0000
0000
0000
,
0000
0000
0000
0000
,
0002
0000
0003
1000
2000
0000
3000
0001
,
0002
0000
0003
1000
2000
0000
3000
0010
,
0020
0000
0030
0100
0200
0000
0300
0001
,
0002
0000
0003
1000
2000
0000
3000
0001
,
1000
0000
0001
0000
1000
0000
0001
0100
,
0000
0100
0001
0000
0100
0000
0010
0000
,
1000
0000
0100
0100
1000
0000
0010
0000
,
0100
0000
0001
0010
0000
0010
0001
0000
,
1000
0000
0100
0000
0010
0000
0001
0001
,
1000
0000
0010
0000
0100
0000
0010
1000
,
0000
1000
0010
0000
0100
0000
0001
1000
,
0000
1000
0001
1000
1000
0000
0010
0000
,
0100
0000
0010
1000
0000
0001
0100
0000
,
0001
0000
1000
0000
0100
0000
0010
0002
,
0000
0000
0003
0000
,
0000
0000
0000
0000
0000
0000
0000
0001
,
0000
1000
0000
0001
0000
0100
0000
0010
,
0000
1000
0000
0100
0010
0100
0000
1000
,
0000
0001
0000
1000
0000
0010
0000
0100
,
0000
0001
0000
1000
0001
1000
0000
0001
,
0000
0010
0000
0100
0000
1000
0000
0100
,
0010
0100
0000
1000
0000
0100
0000
0022
,
0000
0033
0000
0001
0000
0100
0000
0010
,
0000
1000
0000
0001
0000
1000
0000
1002
,
0000
0003
0000
2000
0000
3000
0000
0020
,
0000
0030
0000
0200
0000
0300
0000
0002
,
0000
0013
0000
0200
0000
1300
0000
0002
,
0000
0103
0000
0020
0000
1030
0000
0002
,
0000
1003
0000
0002
0000
1003
0000
2002
,
0000
0000
0000
0000
,
0000
3003
0000
0010
0100
0010
0100
0000
,
0000
0100
0000
0010
0000
0001
1000
0000
,
0001
0000
1000
0000
0001
0000
0000
2002
,
0000
3003
0000
1000
0100
0000
1000
0000
,
0010
0100
0001
2000
,
3000
0000
0000
0001
0000
0001
0010
0000
,
0001
0000
0101
0000
1100
0000
0000
0022
,
0000
0000
0000
0000
0000
0033
0000
0001
,
0000
0000
0000
1000
0000
0001
0100
0000
,
0010
0000
0000
1000
0000
0100
0001
0000
,
0010
0000
1000
0000
0010
0000
0000
0202
,
0000
0303
0000
1000
0000
0001
1000
0000
,
0010
1000
0100
2000
,
0000
3001
0000
0010
0200
0000
0320
0000
,
0230
0000
0301
0000
2002
0000
3003
2000
,
0000
3000
0000
0002
0000
0003
0000
0020
,
0000
0030
0000
0200
0000
0300
0000
0020
,
0000
0030
0000
0002
0000
0003
0000
2000
,
0000
3000
0000
0002
0000
0003
0000
1000
,
0000
0010
0000
0100
0000
0001
1000
0000
,
1000
0001
0000
1000
0000
0100
0000
0010
,
0000
0100
1000
0100
0000
0010
0000
0100
,
0000
0010
0001
0000
0100
0001
0000
1000
,
0000
0001
0000
1000
0000
0010
0100
0100
,
0000
0010
0000
1000
0000
0001
0100
0000
,
0001
1000
0000
0010
0000
1000
0000
0100
,
0010
0100
0010
1001
0000
0001
0000
0100
,
0000
0001
1000
0000
0010
0100
0001
0200
,
0000
0302
0000
1003
0000
0001
1000
0000
;

//---------------dance-single - t7r----------------
#NOTES:
     dance-single:
     t7r:
     Hard:
     12:
     :
0000
0000
0000
0000
,
0000
0000
0000
0000
,
0000
0000
0000
0000
,
0000
0000
0000
0000
,
0000
0000
0000
0000
,
0001
0002
0103
0010
1000
2000
3100
0010
,
0001
0002
0103
0010
1000
2000
3010
0100
,
0001
0002
0013
0100
1000
2000
3010
0100
,
0001
0002
0013
0001
1000
2000
3010
0100
,
0001
0000
0011
0000
0001
0100
0000
2010
,
0000
3100
1000
0001
0100
0000
0110
0000
,
0001
0010
0100
1000
0001
0000
0110
0000
,
1000
0010
0000
0102
0000
1003
0100
0010
,
0001
0000
1100
0000
1000
0100
0010
0001
,
1010
0000
0101
0000
1000
0100
0000
0012
,
0000
1003
0010
0100
0001
0000
0110
0000
,
0001
1000
0010
0100
0011
0000
0101
0000
,
1000
0100
1000
0002
0000
0103
0010
0000
,
0110
0000
0010
1000
0001
0100
0001
1000
,
0000
1001
0000
0110
0000
1001
0000
1100
,
0000
0011
0000
1000
1000
1000
0100
0010
,
0000
0011
0000
0001
0100
0001
0010
0100
,
0000
0110
0000
0010
0001
1000
0010
0100
,
0000
0110
0000
0010
1000
0100
1000
0001
,
0010
0100
1000
0100
0010
0001
1000
0001
,
0000
1001
0000
0010
0100
0001
0100
0010
,
0000
1010
0000
1000
0100
0010
0100
1000
,
0000
1100
0000
0001
0010
0100
1000
0001
,
0001
0100
0100
0010
0010
1000
1000
0001
,
0000
0001
0010
0000
0000
0010
0100
0000
0000
0100
1000
0000
0000
1000
0010
0000
,
0000
0010
1000
0000
0000
1000
0001
0000
0000
0001
0100
0000
0000
0100
0002
0000
,
0000
0013
0010
0010
0010
0100
0100
0010
,
0001
1000
0100
1000
0010
0100
0001
1000
,
1000
0000
0001
0000
0001
0000
0100
0010
0100
0000
0001
0000
0000
0000
2010
0000
,
0000
0001
0000
0100
0000
3001
0000
1000
,
0001
0100
0000
0001
1000
0010
0100
0210
,
0000
0001
0000
0310
0000
1000
0010
2000
,
0100
0000
0001
0000
3100
0000
0010
0210
,
0000
0301
0000
0010
0100
2000
0100
0000
,
0010
0000
3001
0100
0001
0010
0000
0012
,
0000
1003
0000
0100
0010
0100
0002
0000
,
0010
0000
1000
0000
0103
0010
0000
0120
,
0000
0000
1030
0000
0000
0000
0001
0000
1000
0001
1000
0000
0001
0000
0100
0000
,
0000
0110
0000
0010
1000
0010
0100
0001
,
0000
0101
0000
0001
0010
0100
0010
0000
,
0100
1000
0001
0000
0100
0010
0000
0120
,
0000
1030
0000
0001
1000
0010
1000
0001
,
0000
0011
0000
1000
0100
0010
0100
1000
,
0000
0110
0000
0001
0010
0100
0010
0000
,
1001
0000
0110
0000
2001
0000
0000
3010
,
0010
1000
0010
0100
0100
0001
0010
0001
,
0001
1000
0100
1000
1000
0010
0100
0010
,
1010
0100
0010
0100
0101
0001
0010
0001
,
0011
1000
0100
1000
1100
1000
0001
0100
,
0000
0110
0000
0001
0010
0100
2000
0000
,
3001
0100
0001
0010
0000
0011
0000
1000
,
0100
0010
0001
1001
0000
0110
0000
0001
,
0100
0010
0200
0000
0301
1000
0001
0010
,
0000
0011
0000
1000
0001
0100
0010
1010
,
0000
1100
0000
0001
0010
0100
0020
0000
,
0031
1000
0100
1000
0000
1001
0000
0100
,
0010
0000
1000
0000
0010
0000
0110
0000
0000
0000
0001
1000
0100
1000
0001
0000
,
0100
0010
2000
0000
3001
0010
0100
2000
,
0000
3001
0001
1000
0100
0001
0010
0000
;

//---------------dance-single - t7r----------------
#NOTES:
     dance-single:
     t7r:
     Challenge:
     15:
     :
0000
0000
0000
0000
,
0000
0000
0000
0000
,
0000
0000
0000
0000
,
0000
0000
0000
0000
,
0000
0000
0000
0000
,
0001
0002
0103
0010
1000
2000
3100
0010
,
0001
0002
0103
0010
1000
2000
3010
0100
,
0001
0102
1003
0100
0010
0120
0130
1000
,
0001
0000
0100
0000
0001
0100
0000
0001
1000
0001
1000
0001
0100
0010
0100
0010
,
1000
0010
0110
0010
1000
0100
0010
0120
,
1000
0031
0101
0010
0100
0010
1001
0001
,
0101
0000
0000
0000
0000
0000
0000
0000
0010
0000
0000
0000
0000
0000
0000
0000
1000
0000
0000
0000
0000
0000
0000
0000
1100
0001
0000
0000
0010
0000
0000
0000
0100
0000
0000
0000
0000
0000
0000
0000
0010
0000
0000
0000
0000
0000
0000
0000
0011
0000
0000
0000
0000
0000
0000
0000
0001
0000
0000
0000
0000
0000
0000
0000
,
1000
0001
1000
2010
0001
3100
0110
0100
,
1000
0010
1010
0010
1000
0001
0100
1001
,
1010
0001
0100
0001
0011
0001
1000
0210
,
1000
0301
0010
0001
0101
0010
1000
0001
,
1001
0000
0010
0000
0100
0000
0101
0000
1001
0000
0000
0000
1000
0100
0010
0100
,
1000
0001
0100
0201
0010
0301
1100
0010
,
1010
0001
1001
0010
0100
0010
1000
1010
,
0000
1100
0000
1001
0000
0011
0000
1001
,
0000
0000
0110
0000
0000
0000
1000
0000
1000
0000
1000
0000
0001
0100
0001
0000
,
0010
0000
0001
0000
0100
0010
1000
0000
0010
0000
0100
0000
0001
0000
1000
0000
,
0100
0000
1000
0000
0100
0010
0001
0000
0100
0000
0010
0000
1000
0000
0010
0000
,
0100
0000
0001
0000
1000
0001
0100
0000
0001
0000
1000
0000
0010
0000
1000
0000
,
0100
1000
0100
0000
1000
0000
0001
0000
0100
0001
0100
0000
0001
0000
1000
0000
,
0001
1000
0010
0000
1000
0000
0001
0000
0100
0000
0001
0000
1000
0000
0001
0000
,
1000
0001
0010
0000
0001
0000
1000
0000
0100
0000
0010
0000
0001
0000
1000
0000
,
0100
1000
0010
0000
0100
0000
0001
0000
0010
0001
0100
0000
0001
0000
0010
0000
,
0010
0100
1000
0000
1000
0010
0100
0000
0100
0001
0010
0000
0010
0001
1000
0000
,
0001
0100
0001
0000
0001
1000
0001
0000
0001
0010
0001
0000
0001
1000
0010
0000
,
0010
1000
0010
0000
0010
0100
0010
0000
0010
0001
0010
0000
0010
1000
0100
0000
,
0100
0010
0100
0000
0100
0000
1000
0000
1000
0000
0001
0000
0001
0000
1000
0000
,
0010
0000
0010
0000
0010
0000
0100
0000
0100
0001
0100
0000
0001
0000
1000
0001
,
1000
0001
0100
0010
0100
0010
1000
0100
0010
0000
0110
0000
0000
0000
1002
0000
,
0000
0000
0013
0000
0000
0001
0010
0000
0001
0000
0100
0000
0010
0000
1000
0000
,
0100
0010
0001
0000
0010
0000
0001
0000
1000
0010
0100
0000
0010
0000
2010
0000
,
0000
0000
3100
0000
0000
1000
0001
0000
0100
0010
1000
0000
0010
0100
0010
0000
,
1000
0000
0100
0000
0010
0000
0001
0000
0001
0010
0100
0000
0010
0000
0120
0000
,
0000
0000
0031
0000
0000
0001
0100
0000
0010
0000
0100
0000
0001
0000
1000
0000
,
0100
1000
0010
0100
0001
0010
0001
2001
,
0000
0000
3010
0000
0000
0010
0100
0000
0001
0000
1000
0000
0100
0000
0010
0000
,
0001
0100
1000
0100
0001
0010
1000
0120
,
0000
0000
0031
0000
0000
0001
1000
0000
0001
1000
0001
0000
0010
0000
0001
0000
,
1000
0100
1000
0000
0001
0000
0010
0000
0100
0010
0001
0000
0010
0000
0100
0000
,
1000
0001
0100
0000
0001
0000
1000
0000
0001
1000
0010
0000
1000
0000
0100
0000
,
0010
0100
1000
0000
0001
0000
0100
0000
0100
0000
0010
0000
0100
0000
2100
0000
,
0000
0000
3010
0000
0000
0010
1000
0000
0001
0100
0001
0000
1000
0000
0100
0000
,
1000
0000
0001
0000
0100
0010
1000
0000
0010
0000
0100
0000
0001
0010
0001
0000
,
0000
0000
1001
0000
0000
1000
0010
0000
1000
0000
0100
0000
1000
0000
0100
0000
,
1100
0000
0011
0001
1001
0001
0101
0110
,
0120
1000
1030
0110
0210
0001
0301
0101
,
0102
0010
0013
1100
2100
0010
3010
1001
,
1002
0010
0103
1001
2001
0010
3100
0001
,
0001
0000
1001
0000
1001
0000
0010
0000
0110
0000
0001
1000
0001
1000
0001
0000
,
0100
0101
0001
0010
0001
0010
0012
1000
,
0100
1003
0010
0100
0010
1010
0001
0100
,
0001
0000
0000
0000
0000
0000
0000
0000
1000
0000
0000
0000
0000
0000
0000
0000
1001
0001
0000
0000
0010
0000
0000
0000
0100
0000
0000
0000
0000
0000
0000
0000
0010
0000
0000
0000
0000
0000
0000
0000
0011
0000
0000
0000
0000
0000
0000
0000
0001
0000
0000
0000
0000
0000
0000
0000
1000
0000
0000
0000
0000
0000
0000
0000
,
0001
1001
2010
0001
0100
3001
0100
0110
,
0010
1010
0010
0110
0100
0101
1100
1001
,
0010
1010
1000
1100
0010
0100
0102
0010
,
1000
0103
1000
1001
0010
0100
0001
0101
,
0001
1000
0100
0000
1000
0000
1001
0000
0010
0000
1000
0100
0001
0100
1000
0000
,
0010
1000
2001
0010
0100
3001
0100
0110
,
0001
1000
0100
0000
1000
0001
0010
0000
0001
0000
0100
0000
1000
0000
0000
0000
;
