#TITLE:GOLDEN CROSS;
#ARTIST:dj REMO-CON VS dj TAKA;
#BANNER:GOLDEN CROSS.png;
#BACKGROUND:GOLDEN CROSS-bg.png;
#JACKET:GOLDEN CROSS-jacket.png;
#CDTITLE:./CDTITLES/BEATMANIA IIDX.PNG;
#MUSIC:GOLDEN CROSS.ogg;
#SAMPLESTART:84.8;
#SAMPLELENGTH:15;
#BPMS:0=150;

//---------------dance-single - t7r----------------
#NOTES:
     dance-single:
     t7r:
     Beginner:
     2:
     :
0000
0000
0000
0000
,
0000
0000
0000
0000
,
0000
0000
0000
0000
,
1000
0000
0000
0000
,
1000
0000
0000
0000
,
0001
0000
0000
0000
,
0001
0000
0000
0000
,
0100
0000
0000
0000
,
0100
0000
0000
0000
,
0010
0000
0000
0000
,
0000
0000
0000
0000
,
0100
0000
0100
0000
,
0100
0000
0000
0000
,
0010
0000
0010
0000
,
0010
0000
0000
0000
,
1000
0000
1000
0000
,
1000
0000
0000
0000
,
0001
0000
0001
0000
,
0001
0000
0000
0000
,
1000
0000
1000
0000
,
0001
0000
0001
0000
,
0100
0000
0100
0000
,
0001
0000
0001
0000
,
1000
0000
1000
0000
,
0100
0000
0100
0000
,
1000
0000
1000
0000
,
0010
0000
0000
0000
,
0100
0000
0100
0000
,
0010
0000
0010
0000
,
0100
0000
0100
0000
,
0001
0000
0001
0000
,
1000
0000
0000
0000
,
0001
0000
0000
0000
,
1000
0000
1000
0000
,
0001
0000
1000
0000
,
0010
0000
0000
0000
,
0000
0000
0000
0000
,
0000
0000
0000
0000
,
0000
0000
0000
0000
,
0100
0000
0000
0000
,
0010
0000
0000
0000
,
1000
0000
0000
0000
,
0001
0000
0000
0000
,
1000
0000
1000
0000
,
1000
0000
0000
0000
,
0001
0000
0001
0000
,
0001
0000
0000
0000
,
0100
0000
0100
0000
,
0100
0000
0000
0000
,
0010
0000
0010
0000
,
0010
0000
0000
0000
,
0000
0000
0000
0000
,
0000
0000
0000
0000
,
1001
0000
0000
0000
,
0010
0000
0000
0000
,
0100
0000
0000
0000
,
0001
0000
0001
0000
,
1000
0000
0000
0000
,
0100
0000
0000
0000
,
1000
0000
0100
0000
,
0010
0000
0000
0000
,
0001
0000
0001
0000
,
0010
0000
0010
0000
,
0100
0000
0100
0000
,
1000
0000
1000
0000
,
0100
0000
1000
0000
,
0010
0000
0100
0000
,
0001
0000
0100
0000
,
0010
0000
0000
0000
,
0000
1000
0000
0001
,
0000
1000
0000
0001
,
0001
0000
0000
0000
,
0100
0100
0100
0000
,
0010
0000
0000
0000
;

//---------------dance-single - t7r----------------
#NOTES:
     dance-single:
     t7r:
     Easy:
     6:
     :
0000
0000
0000
0000
,
0000
0000
0000
0000
,
0000
0000
0000
0000
,
1000
1000
1000
1000
,
0001
0001
0001
0001
,
0100
0100
0100
0100
,
0010
0010
0010
0010
,
1001
1000
1000
0100
,
0100
0010
0010
0001
,
0001
0100
0100
0010
,
0020
0000
0200
0330
,
0010
1000
0001
0100
,
0010
1000
0001
0100
,
0010
1000
0001
0100
,
0010
1000
0001
1000
,
1001
0010
0100
1000
,
0001
0010
0100
1000
,
0001
0100
0010
1000
,
0002
0000
2000
3003
,
2000
0000
3100
0000
,
0020
0000
0031
0000
,
0200
0000
0310
0000
,
2000
0000
3001
1000
,
1002
0000
0013
0000
,
0200
0000
1300
0000
,
0020
0000
0130
0000
,
0002
0000
2000
3003
,
2000
3000
0200
0300
,
0020
0030
0002
0003
,
0002
0003
0020
0030
,
0200
0300
2000
3000
,
1002
0000
0010
0013
,
2000
0000
0100
3100
,
1000
1000
0010
0010
,
0100
0001
1000
0001
,
0020
0000
0000
0000
,
0030
0000
0000
0000
,
0000
0000
0000
0000
,
0000
0000
0000
0000
,
0100
0000
0100
0200
,
0310
0000
0010
0020
,
0031
0000
0001
0002
,
1003
0000
0001
0000
,
1000
1000
0010
0010
,
0100
0100
0001
0000
,
0001
0001
0010
0000
,
0100
0100
1000
0000
,
0010
0010
0100
0100
,
0001
0001
1000
0000
,
0100
0100
0010
0001
,
2000
0000
0002
3003
,
0000
0100
0000
0010
,
0000
0000
0000
0000
,
0110
0001
1000
0001
,
0010
0001
1000
0100
,
1000
0010
0100
0001
,
1000
0100
0010
0001
,
1001
0010
0100
1000
,
0010
0100
0002
0003
,
1000
0100
1000
0010
,
0200
0000
0020
0330
,
1000
0010
0100
0001
,
1000
0010
0100
0001
,
1000
0100
0010
0001
,
1000
0100
0010
0001
,
1001
0010
0100
1000
,
0001
0010
0100
1000
,
0001
0100
0010
1000
,
0002
0000
2000
3003
,
1000
0100
1000
0010
,
0100
0001
0010
0001
,
1000
0100
0010
0001
,
1000
0100
0001
0100
,
0220
0000
0000
0000
,
0330
0000
0000
0000
;

//---------------dance-single - t7r----------------
#NOTES:
     dance-single:
     t7r:
     Medium:
     8:
     :
0000
0000
0000
0000
,
0000
0000
0000
0000
,
0000
0000
0000
0000
,
1000
1000
0001
0001
,
1000
1000
0001
0001
,
1000
1000
0001
0001
,
1000
0000
1000
0000
0001
0000
0100
0100
,
0010
0010
0100
0100
,
0010
0010
0100
0100
,
0010
0010
0100
0100
,
0002
0000
2000
3003
,
1001
0000
0010
1000
0010
0000
0100
0001
,
0100
0000
0010
1000
0010
0000
0100
0001
,
0100
0000
0001
0010
0001
0000
1000
0100
,
1000
0000
0001
0001
1000
0000
0010
0100
,
0010
0000
0100
0001
0100
0000
0010
1000
,
0010
0000
1000
0001
1000
0000
0001
0100
,
0001
0000
1000
0010
1000
0000
0001
1000
,
0200
0000
0020
0330
,
0010
0000
0001
0100
0020
0000
1030
0000
,
0001
0000
0100
0010
2000
0000
3001
0000
,
1000
0000
0100
0010
0002
0000
0013
0000
,
0100
0000
0010
0010
0001
0000
1000
0010
,
0100
0000
0010
1000
0200
0000
0310
0000
,
0001
0000
0010
0001
0200
0000
0310
0000
,
1000
0000
0001
1000
0020
0000
0130
0000
,
0002
0000
2000
3003
,
0001
0001
0000
0010
0010
0010
0000
0100
,
0100
0100
0000
1000
1000
1000
0000
0010
,
0010
0010
0000
0100
0100
0100
0000
0001
,
0001
0001
0000
1000
0001
1000
0000
0001
,
2000
0000
0010
0000
0000
0000
3010
0100
,
0002
0000
0010
0000
0000
0000
1003
0001
,
1000
1000
1000
1000
0100
0100
0100
0100
,
0010
0010
0010
0010
0001
1000
0001
0000
,
2002
0000
0000
0000
,
3003
0000
0000
0000
,
0000
0000
0000
0000
,
0000
0000
0000
0000
,
0010
0000
0000
0010
0000
0000
0020
0000
,
0130
0000
0000
0100
0000
0000
0200
0000
,
0301
0000
0000
0001
0000
0000
0002
0000
,
1003
1000
2000
3000
,
0001
1000
0001
1000
,
0010
0000
0100
0000
0010
0100
0010
0000
,
0100
0010
0100
0010
,
1000
0000
0001
0001
1000
0000
0001
0010
,
0001
1000
0100
0020
,
0031
1000
0001
0200
,
0310
1000
0001
2000
,
3001
0000
0000
0001
0000
0000
0001
0000
1000
0000
0000
1000
0000
0000
1000
0000
,
0000
0010
0000
0100
,
0000
0000
0000
0000
0000
0020
0000
0000
,
1030
0010
0000
1000
0100
1000
0000
0001
,
0010
0001
0000
0100
0001
0100
0000
0010
,
1000
0010
0000
1000
0001
1000
0000
0001
,
0010
0001
0100
0100
0010
1000
0000
1000
,
0001
1000
0000
0100
0010
0100
0000
1000
,
0010
0000
0100
0000
0000
0000
0010
0000
1000
0000
0000
1000
0000
0000
1000
0000
,
0001
0010
0000
0001
0100
0001
1000
0000
,
0002
0000
2000
3003
,
0000
0010
0100
0010
0000
1000
0010
0200
,
0000
0301
0010
0001
0000
0100
0001
0020
,
0000
0031
1000
0001
0000
1000
0100
0010
,
0100
0000
1000
1000
0001
0000
0100
0100
,
0010
1000
0010
1000
0000
0001
0010
0002
,
0000
1003
0100
0010
0000
0001
1000
0002
,
0000
0103
0010
2000
0000
3100
0010
0001
,
0200
0000
0020
0330
,
1000
0000
0010
0010
1000
0000
0001
0001
,
0010
0000
0001
0001
0100
0000
0001
1000
,
1000
0001
0000
1000
0000
0110
0000
0010
,
1000
0100
0001
0000
0001
0100
1000
0000
,
0220
0000
0000
0000
,
0330
0000
0000
0000
;

//---------------dance-single - t7r----------------
#NOTES:
     dance-single:
     t7r:
     Hard:
     15:
     :
0000
0000
0000
0000
,
0000
0000
0000
0000
,
0000
0000
0000
0000
,
0010
1000
0100
1000
0010
1000
0100
1000
,
0010
0100
0001
0100
0010
0100
0001
0100
,
0010
1000
0001
1000
0010
1000
0001
1000
,
0010
1000
0100
0100
0010
0001
0100
0100
,
0110
1000
0100
1000
0010
0100
0001
0010
,
0010
0000
0001
0000
0100
0000
0001
1000
0001
0000
1000
0000
0100
0000
0100
0000
,
1000
0010
0100
0010
1000
0100
0010
0001
,
1000
0000
0100
1000
0100
0000
1000
0000
0002
0000
0000
0000
0000
0000
1003
0000
,
0110
0001
0100
0010
0100
0001
0100
0010
,
0100
0001
0010
0001
0100
0001
0010
0001
,
1000
0100
1000
0010
1000
0100
1000
0010
,
0100
0010
1000
1000
0010
1000
0100
0100
,
0110
0001
0100
0001
0010
0001
0100
0010
,
1000
0100
0010
0100
1000
0010
0100
0010
,
1000
0000
0100
0000
0010
0000
0001
0000
1000
0000
0001
0100
0001
0000
1000
0000
,
0001
0000
0010
0001
0010
0000
0001
0000
2000
0000
0000
0000
0000
0000
3001
0000
,
0110
0000
0001
0000
0100
0000
0010
0000
1000
0100
0000
0100
0020
0000
0000
0000
,
0130
0000
1000
0000
0010
0000
0100
0000
0001
0010
0000
0010
0002
0000
0000
0000
,
0103
0000
0001
0000
0010
0000
0100
0000
1000
0010
0000
0010
2000
0000
0000
0000
,
3010
0100
0001
0001
0010
0001
1000
1000
,
1001
0000
0010
0000
0100
0000
0010
0000
1000
0010
0000
0010
0200
0000
0000
0000
,
0310
0000
1000
0000
0100
0000
0010
0000
0001
0100
0000
0100
0020
0000
0000
0000
,
1030
0010
0000
0010
0100
0000
0001
0000
0010
0100
0000
0100
1000
0000
0001
0000
,
1000
0000
0010
1000
0010
0000
1000
0000
0002
0000
0000
0000
0000
0000
1003
0000
,
0110
0010
1000
0100
1100
0100
1000
0010
,
0110
0010
0100
0001
0101
0001
0010
0001
,
0011
0001
0010
0100
0110
0100
0010
0001
,
1001
0001
1000
1000
1010
0010
0100
0100
,
0010
0000
1000
0000
0000
0001
0100
0000
0001
0000
1000
0000
0001
0010
0001
0010
,
0001
0000
1000
0000
0000
0001
0010
0000
0001
0000
0100
0000
0010
1000
0001
1000
,
0100
0110
0100
1100
1000
1001
0001
1001
,
1000
0000
0100
1000
0100
0000
1000
0000
0001
0010
0000
0010
0001
0000
1000
0000
,
0002
0000
0000
0203
0000
0310
2000
0000
,
3002
0000
0000
0203
0000
0310
2000
0000
,
3200
0000
0000
0320
0000
0130
2000
0000
,
3001
0000
0000
0001
0000
0000
0001
0000
1000
0000
0000
1000
0000
0000
1000
0000
,
0100
0000
0000
0100
0010
0000
0100
1000
0000
1000
0010
0000
0200
0000
0000
0000
,
0301
0000
0000
0001
0010
0000
0100
0010
0000
0010
0001
0000
2000
0000
0000
0000
,
3010
0000
0000
0010
0100
0000
0001
1000
0000
1000
0001
0000
0020
0000
0000
0000
,
0031
0000
0000
0001
0100
0000
0001
0000
1000
0000
0000
1000
0010
0000
1000
0000
,
0002
0000
1003
0010
0100
0010
2000
0000
,
3002
0000
0103
0010
1000
0010
0200
0000
,
0320
0000
1030
0100
0010
0100
2000
0000
,
3001
0000
0000
0001
0010
0000
0010
0000
0001
0000
0000
0001
1000
0000
0001
0000
,
2000
0000
3100
0010
0100
1000
0002
0000
,
2003
0000
3010
0100
0010
1000
0002
0000
,
0023
0000
0000
0000
0000
0000
0130
0000
0000
0010
0000
0000
0001
0000
0000
1000
0000
0000
0001
0000
1000
0000
0001
0000
,
0010
0000
0000
0010
0000
0000
0010
0000
0100
0000
0000
0100
0000
0000
0100
0000
,
0000
0000
0000
1000
0000
0000
0000
0000
0000
0010
0100
0010
,
0100
0000
0000
0000
0001
0000
0000
0000
1000
0000
0000
0000
0000
0000
0000
0002
0000
0000
0000
0000
0000
0000
0000
0000
,
0013
0001
0000
0001
0100
0000
0010
0000
1000
0100
0000
0100
0010
0000
0100
0000
,
1000
0010
0000
0010
0100
0000
0010
0000
1000
0001
0000
0001
0010
0000
0001
0000
,
0100
0010
0000
0010
1000
0000
0010
0000
0100
0001
0000
0001
0010
0000
0100
0000
,
0010
0001
0000
0001
1000
0000
1000
0000
0010
0100
0000
0100
0010
0000
0010
0000
,
1000
0100
0000
0100
0010
0000
0001
0000
1000
0010
0000
0010
1000
0000
0001
0000
,
0100
0010
0000
0010
1000
0000
0001
0000
0010
0000
0000
0110
0000
0000
0011
0000
,
0001
0100
0000
0100
0010
0000
1000
0000
0001
1000
0001
1000
0001
0000
1000
0000
,
1001
0000
0010
1000
0010
0000
1000
0000
0000
0001
0010
0001
0010
0000
0001
0000
,
1001
0000
0100
0010
0100
0000
0010
0000
1000
0000
0010
1000
0010
0000
1000
0000
,
0001
0000
0010
0001
0010
0000
0001
0000
1000
0000
0100
1000
0100
0000
1000
0000
,
0010
0000
0100
0010
0100
0000
0001
0000
0100
0000
0001
0010
0001
0000
1000
0000
,
0001
0000
1000
0001
0100
0000
0100
0000
0010
0000
1000
0010
0100
0000
0100
0000
,
0110
0000
0010
1000
0010
0000
1000
0000
0001
0000
0010
0001
0010
0000
0001
0000
,
1000
0000
0100
1000
0100
0000
1000
0000
0001
0000
0100
0001
0100
0000
0001
0000
,
1000
0000
0010
1000
0001
0000
0001
0000
0010
0000
0001
1000
0010
0000
0010
0000
,
1000
0000
0100
0010
0000
0000
0010
0001
0000
0000
0001
0100
0000
0000
0100
0010
,
1000
0000
0010
0100
0001
0000
1000
0001
0100
0000
0001
0010
0100
0000
0010
0001
,
1000
0000
0100
1000
0010
0000
0100
0001
1000
0000
0010
0100
0001
0000
1000
0000
,
1001
1100
1000
1001
0001
0101
0001
1001
,
0010
0100
0010
0100
0010
0000
0100
0001
0000
0001
1000
0000
0001
0010
0100
0000
,
0220
0000
0000
0000
,
0330
0000
0000
0000
;

//---------------dance-single - t7r----------------
#NOTES:
     dance-single:
     t7r:
     Challenge:
     18:
     :
0000
0000
0000
0000
,
0000
0000
0000
0000
,
0000
0000
0000
0000
0000
0110
0000
0000
,
1010
0000
0001
0010
0100
0000
0010
0001
1000
0000
0001
0010
0100
0000
0010
0001
,
1000
0000
0010
0100
0001
0000
1000
0010
0100
0000
0010
0100
0001
0000
1000
0010
,
0100
0000
0010
1000
0001
0000
1000
0001
0100
0000
0010
1000
0001
0000
1000
0001
,
0100
0000
0001
1000
0100
0000
0100
0000
0110
0000
0001
0100
0010
0000
0010
0000
,
1010
0000
1000
0100
0010
0000
0001
0100
0010
0000
1000
0100
0010
0000
0001
0000
,
0101
0000
0000
0000
0000
0000
0001
0000
0000
0000
0000
0000
0010
0000
0000
0000
0000
0000
0001
0000
0010
0000
0100
0000
1000
0000
0000
0000
0000
0000
0010
0000
0000
0100
0000
0000
0001
0000
0000
0000
0000
0000
0001
0000
0000
0000
0000
0000
,
0011
0000
0001
1000
0100
0000
1000
0001
0010
0000
0001
0100
0001
0000
1000
0010
,
1000
0100
1000
0100
0010
0100
1000
0010
0100
0010
1000
0001
0000
0001
0010
0001
,
1000
0000
0001
0100
0010
0000
1000
0010
0100
0000
0010
1000
0100
0000
0010
0001
,
0100
0000
0010
1000
0001
0000
0100
0001
1000
0000
0001
0010
0100
0000
0010
0001
,
0100
0000
0010
1000
0001
0000
1000
0100
0010
0000
0100
1000
0010
0000
0100
0001
,
1000
0000
0001
1000
0010
0000
0010
0000
0110
0000
0010
1000
0100
0000
0100
0000
,
0110
0000
0001
0100
0010
0000
1000
0010
0100
0000
0010
1000
0100
0000
1000
0001
,
0010
0000
0001
1000
0010
0000
0100
0001
0010
0000
0100
1000
0010
0000
0100
0001
,
1000
0000
0000
0000
0000
0000
0010
0000
0000
1000
0000
0000
0100
0000
0000
0000
0000
0000
0010
0000
0000
0001
0000
0000
1000
0000
0000
0000
0000
0000
0001
0000
0100
0000
0010
0000
1000
0000
0000
0000
0000
0000
0001
0000
0000
1000
0000
0000
,
0001
0010
0001
0010
0100
1000
0100
1000
0010
0100
0001
0100
0000
0100
0010
1000
,
0001
0010
0100
0010
0001
0100
0010
1000
0001
0010
0000
0010
0001
0010
0100
0010
,
0001
0100
0010
1000
0001
0100
0010
1000
0001
0100
0000
0100
0001
1000
0100
1000
,
0010
1000
0001
0100
0010
1000
0001
0100
0010
1000
0000
1000
0001
1000
0100
0010
,
0100
1000
0010
0100
0001
0000
0001
0000
0100
0001
0010
0001
1000
0000
1000
0000
,
1001
0000
1000
0010
0100
0010
1000
0100
0010
0001
0000
0001
1000
0001
0100
0010
,
1000
0100
0010
0001
1000
0100
0010
0001
1000
0010
0000
0010
1000
0001
0100
0001
,
0010
0001
0000
0001
1000
0001
0100
0001
1000
0010
0000
0010
1000
0100
1000
0010
,
0100
0000
0001
0100
0001
0010
0001
1000
0001
0000
1000
0100
1000
0010
1000
0001
,
1000
0000
1100
0000
0010
0001
0100
0001
0010
0000
0011
0000
0001
0100
0001
0010
,
0001
0000
1001
0000
1000
0010
0100
0010
1000
0000
1010
0000
0010
1000
0100
1000
,
0010
0000
0110
0000
0100
0001
0010
0001
0100
0000
0101
0000
0001
0010
0100
0010
,
0001
0000
1000
0001
0100
0000
0100
0000
0110
0000
0010
1000
0100
0000
0100
0000
,
0110
0000
0001
0000
0000
0100
0001
0000
0100
0000
0010
0000
1000
0001
1000
0001
,
1000
0000
0100
0000
0000
0010
0100
0000
1000
0000
0010
0000
0100
0001
1000
0001
,
1000
1010
1000
1010
1000
1001
1000
1001
,
1000
0100
1000
0100
0010
0001
0010
0001
1000
0100
0010
0100
1000
0010
0100
0001
,
0020
0000
0000
0032
0000
1003
0020
0000
,
2030
0000
0000
3200
0000
0310
0002
0000
,
0203
0000
0000
0320
0000
1030
0002
0000
,
0103
0000
0010
0100
0000
0010
0100
0000
0001
0000
0010
0100
0000
0010
0100
0000
,
1000
0000
0100
0010
0001
0000
0100
0010
0000
0010
1000
0000
0020
0000
0000
0000
,
1030
0000
0010
0100
0001
0000
0010
0100
0000
0100
1000
0000
0200
0000
0000
0000
,
0310
0000
0001
0100
0010
0000
0100
0001
0000
0001
1000
0000
0002
0000
0000
0000
,
1003
0000
0010
1000
0000
0010
1000
0000
0001
0000
0100
0001
0000
0100
0001
0000
,
1000
0000
0100
1000
0100
0000
1000
0010
1000
0000
0001
0000
0020
0000
0000
0000
,
0031
0000
0100
0001
0100
0000
0001
0010
0001
0000
1000
0000
0020
0000
0000
0000
,
1030
0000
0100
1000
0100
0000
0010
0100
0010
0000
0001
0000
0200
0000
0000
0000
,
0310
0000
0100
0001
0000
1000
0001
0010
0001
0000
1000
0001
0000
1000
0100
1000
,
0010
0000
0100
0010
0100
0000
0001
0010
0001
0000
0100
0000
0020
0000
0000
0000
,
1030
0000
0100
1000
0100
0000
0010
0100
0010
0000
0001
0000
2000
0000
0000
0000
,
3001
0000
0000
0000
0000
0000
0100
0000
0000
0001
0000
0000
0100
0000
0000
0000
0000
0000
0001
0000
0000
0010
0000
0000
0100
0000
0000
0000
0000
0000
0010
0000
0000
0000
0000
0000
0001
0000
0000
0000
0001
0000
0000
0000
0001
0000
0000
0000
,
1000
0000
0010
0100
0000
0100
0010
1000
0100
0000
0010
0100
0000
0100
1000
0000
,
0000
0000
0000
0001
0000
0000
0000
0000
0000
0010
0010
0010
,
0010
0000
0000
0000
0100
0000
0000
0000
0100
0000
0000
0000
0000
0000
0000
0020
0000
0000
0000
0000
0000
0000
0000
0000
,
0031
0100
0001
0100
0001
0010
0001
0010
0001
1000
0001
1000
0001
0100
0001
0100
,
0001
0010
0001
0010
0001
0100
0001
0100
0001
0010
0001
0010
0001
1000
0001
1000
,
0010
0100
0010
0100
0010
1000
0010
1000
0001
1000
0001
1000
0100
1000
0100
1000
,
0100
0010
0100
1000
0010
0000
0110
0000
0100
0001
0100
0010
1000
0000
1001
0000
,
1000
0100
1000
0100
1000
0010
1000
0010
1000
0001
1000
0001
1000
0100
1000
0100
,
1000
0010
0100
0010
1000
0100
0010
0100
1000
0000
0100
0010
0000
0100
1000
0000
,
0001
0000
0000
0100
0000
0000
0001
0000
0000
0010
0000
0000
0001
0000
0000
1000
0000
0000
0001
0000
0000
0100
0000
0000
0001
0000
0010
0000
0100
0000
1000
0000
0000
0000
0000
0000
1000
0000
0000
0000
0000
0000
0110
0000
0000
0000
0000
0000
,
1010
0000
1000
0100
0020
0000
0031
0000
0000
0001
1000
0001
0020
0000
0031
0000
,
1001
0000
0010
0100
0002
0000
1003
0000
0001
0010
0100
0010
0002
0000
1003
0000
,
0010
0000
0100
0010
2000
0000
3010
0000
1000
0100
0010
0100
2000
0000
3001
0000
,
0100
0000
0001
0010
0200
0000
0310
0000
0001
0100
0010
1000
0002
0000
1003
0000
,
0001
0010
0100
0010
0002
0000
1003
0000
0010
1000
0100
1000
0020
0000
1030
0000
,
1001
0000
0100
0010
2000
0000
3010
0000
0100
0001
1000
0001
0020
0000
0031
0000
,
1000
0000
0100
1000
0002
0000
0103
0000
0010
1000
0100
1000
0020
0000
1030
0000
,
0001
0100
0010
0100
0002
0000
1003
0000
0100
1000
0010
1000
0200
0000
0301
0000
,
0100
1000
0100
1000
0000
1000
0010
0100
0010
1000
0001
1000
0000
1000
0001
0010
,
0001
0100
0001
0100
0001
0010
0100
1000
0001
0100
0001
0100
0001
0010
0100
1000
,
0001
0010
0001
0010
0001
0100
0010
1000
0001
0010
0001
0010
0001
0000
1001
0000
,
0110
1010
0100
0101
0010
0011
1000
1100
,
0001
0100
1000
0100
0001
0010
1000
0010
0001
0100
0010
1000
0001
1000
0001
1000
,
0002
0000
0000
0000
,
0003
0000
0000
0000
;
