#TITLE:GOLD RUSH;
#ARTIST:DJ YOSHITAKA-G feat.Michael a la mode;
#BANNER:GOLD RUSH.png;
#BACKGROUND:GOLD RUSH-bg.png;
#JACKET:GOLD RUSH-jacket.png;
#CDTITLE:./CDTITLES/BEATMANIA IIDX.PNG;
#MUSIC:GOLD RUSH.ogg;
#SAMPLESTART:13.704;
#SAMPLELENGTH:15;
#BPMS:0=162;

//---------------dance-single - t7r----------------
#NOTES:
     dance-single:
     t7r:
     Beginner:
     2:
     :
0000
0000
0000
0000
,
0000
0000
0000
0000
,
0000
0000
0000
0000
,
0000
0000
0000
0000
,
0000
0000
0000
0000
,
0001
0000
1000
0000
,
0001
0000
0100
0000
,
0010
0000
0010
0000
,
0010
0000
0100
0000
,
0100
0000
0000
0000
,
0001
0000
0100
0000
,
1000
0000
0100
0000
,
1000
0000
0001
0000
,
1000
0000
0010
0000
,
0001
0000
1000
0000
,
0001
0000
0100
0100
,
0100
0000
0010
0000
,
1000
0000
0010
0000
,
0001
0000
0100
0000
,
0001
0000
1000
1000
,
1000
0000
0010
0000
,
1000
0000
0100
0000
,
0001
0000
0010
0000
,
0100
0000
0001
0001
,
0001
0000
1000
0000
,
0010
0000
0100
0000
,
1000
0000
0001
0000
,
1000
0000
0001
0001
,
0001
0000
0000
0000
,
1000
0000
0000
0000
,
0010
0000
0000
0000
,
0100
0000
0000
0000
,
1001
0000
0000
0000
,
0001
0000
0000
0000
,
1000
0000
0000
0000
,
0100
0000
0000
0000
,
0110
0000
0000
0000
,
0010
0000
0000
0000
,
1000
0000
0000
0000
,
0001
0000
0000
0000
,
1001
0000
0000
0000
,
0100
0000
0000
0000
,
0010
0000
1001
0000
,
0100
0000
1001
0000
,
0110
0000
0000
0000
,
0000
0000
0000
0000
,
0000
0000
0000
0000
,
0000
1000
0000
0001
,
0000
0100
0000
0010
,
0000
0100
0000
0001
,
0000
1000
0000
0100
,
0100
0000
1000
0000
,
0010
0000
0100
0000
,
0001
0000
0010
0000
,
0001
0000
0000
0100
,
0100
0100
0000
0010
,
0000
1000
0000
0001
,
0000
1000
0000
0100
,
0000
0010
0000
0001
,
0001
0000
0010
0000
,
0001
0000
0100
0000
,
1000
0000
0001
0000
,
1000
0000
0100
0000
,
0110
0000
0000
0000
;

//---------------dance-single - t7r----------------
#NOTES:
     dance-single:
     t7r:
     Easy:
     5:
     :
0000
0000
0000
0000
,
0000
0000
0000
0000
,
0000
0000
0000
0000
,
0000
0000
0000
0000
,
0000
0000
0000
0000
,
1000
0000
0100
0000
,
0010
0000
0001
0000
,
1000
0000
0100
0000
,
0010
0010
0001
0001
,
2002
0000
0000
3003
,
0020
0000
0000
0030
,
0200
0000
0000
0300
,
0010
0000
1000
0000
,
0010
0000
0100
0001
,
0100
0000
0001
0000
,
1000
0000
0001
0010
,
0100
0000
1000
0000
,
0100
0000
0010
0001
,
0100
0000
1001
0000
,
0010
0000
1001
0000
,
0110
0000
1001
0000
,
1000
0000
0100
1000
,
0001
0000
0100
0000
,
0001
0000
0010
0100
,
1000
0000
0100
0000
,
0010
0000
0001
0010
,
0001
0000
0100
0000
,
0010
0000
1001
0000
,
0100
0000
0000
0000
,
0010
0000
0000
0000
,
0100
0000
0000
0000
,
0010
0000
0000
1000
,
1001
0000
0010
0000
,
0110
0000
0010
0000
,
1001
0000
0001
0000
,
1001
0000
1000
0000
,
1100
0000
0010
0000
,
0101
0000
0010
0000
,
1001
0000
0100
0000
,
0110
0000
0010
0000
,
1001
0000
0001
0000
,
0101
0000
0010
0000
,
1100
0000
1001
0000
,
0110
0000
1001
0000
,
0202
0000
0000
0000
,
0000
0000
0000
0000
,
0000
0000
0303
0010
,
1000
0000
0001
0000
,
1000
0100
0010
0001
,
0010
0000
0100
0000
,
1000
0100
1000
0001
,
0100
0000
0001
0000
,
0100
0001
1000
0010
,
0100
0000
0010
0000
,
1000
0010
0100
0001
,
1001
0000
0110
0000
,
1000
0010
1000
0001
,
0101
0000
1100
0000
,
1000
0100
0010
0001
,
0110
0000
1001
0000
,
0001
1000
0001
0010
,
0110
0000
1001
0000
,
0110
0000
1001
0000
,
2002
0000
0000
0000
,
0000
0000
0000
3003
;

//---------------dance-single - t7r----------------
#NOTES:
     dance-single:
     t7r:
     Medium:
     9:
     :
0000
0000
0000
0000
,
0000
0000
0000
0000
,
0000
0000
0000
0000
,
0000
0000
0000
0000
,
0000
0000
0000
0000
,
0001
1000
0001
0010
,
0100
1000
0100
0010
,
1001
0000
0110
0000
,
1001
0000
0000
1100
0000
0000
0101
0000
0000
0001
0000
0001
,
0200
0000
0000
0300
,
0010
1000
0010
0000
1000
0000
0100
0000
,
0010
0001
0010
0000
0100
0000
1000
0000
,
0001
0010
0100
0000
0110
0000
1001
0000
,
1000
0010
0100
0000
0001
0100
0010
0000
,
1000
0010
0100
0000
1001
0000
0110
0000
,
0001
0010
0100
0000
1000
0100
0010
0001
,
0100
0010
1000
0000
1010
0000
0101
0000
,
0001
0100
0001
0000
1000
0100
1000
0000
,
0001
0010
0100
0000
0110
0000
1001
0000
,
1000
0010
0100
0000
0110
0000
1001
0000
,
0001
1000
0100
0000
1100
0000
0101
0000
,
1000
0100
1000
0000
0001
0100
0001
0000
,
1000
0010
1000
0000
1001
0000
0110
0000
,
0001
0100
0010
0000
1000
0010
0100
0001
,
1000
0100
1000
0000
0011
0000
1100
0000
,
0001
0100
0001
0000
1010
0000
0101
0000
,
1000
1001
0001
1001
,
0010
0000
0110
0000
0010
0100
0010
1000
,
0002
0000
0000
1000
0000
0000
1000
0000
0000
0000
1000
0000
1000
0000
1003
0000
,
0200
0000
0000
0010
0000
0000
0010
0000
0000
0000
0010
0000
0010
0000
0310
0000
,
0002
0000
0000
0100
0000
0000
0010
0000
0000
0000
1000
0000
1000
0000
1003
0000
,
2000
0000
0000
0100
0000
0000
0010
0000
0000
0000
0001
0000
3001
0000
0100
0000
,
0010
0000
0000
1000
0000
0000
0010
0000
0000
0000
0000
0000
0101
0000
0000
0000
,
0001
0000
0000
0010
0000
0000
0100
0000
0000
0000
0000
0000
1100
0000
0000
0000
,
1000
0000
0000
0100
0000
0000
0010
0000
0000
0000
0000
0000
0011
0000
0000
0000
,
0001
0000
0000
1000
0000
0000
0001
0000
0000
0000
0000
0000
0110
0000
0000
0000
,
0010
0000
0100
0000
0000
0010
0000
0100
,
0010
0000
1000
0010
0000
0100
0000
0010
,
0100
0000
0000
0001
0000
0000
0100
0000
0000
0000
0000
0000
0101
0000
0000
0000
,
0001
0000
0000
1000
0000
0000
0001
0000
0000
0000
0000
0000
1001
0000
0000
0000
,
1000
0000
0100
0000
0000
1000
0000
0100
,
0010
0000
0001
0010
0000
0110
0000
1000
,
0001
1001
1000
1001
,
0110
1001
0110
1001
,
2020
0000
0000
0000
,
0000
0000
0000
0000
,
0000
0000
0000
3030
,
0001
0100
0001
0000
1100
0000
0101
0000
,
1000
0010
0100
0000
0001
0100
0010
0000
,
1000
0100
1000
0000
1100
0000
0101
0000
,
1000
0100
1000
0000
1000
0100
0010
0001
,
0010
0001
0100
0000
0101
0000
1010
0000
,
0010
1000
0100
0000
1000
0001
0100
0001
,
0010
0100
1000
0000
1100
0000
0011
0000
,
0010
0001
0100
0000
0101
0000
1010
0000
,
0001
0000
1000
0000
0100
0000
0000
1000
0000
0000
0100
0000
0010
0000
0000
0001
,
0000
0000
0010
0000
0100
0000
0000
1000
0000
0000
0100
0000
0010
0000
0001
0000
,
0010
0000
0001
0000
0100
0000
0000
0010
0000
0000
1000
0000
0010
0000
0000
0100
,
0000
0000
0001
0000
0100
0000
0000
0001
0000
0000
1000
0000
0001
0000
0100
0000
,
0001
0000
1000
0000
0100
0000
0000
1000
0000
0000
0100
0000
0010
0000
0000
1001
,
0000
0000
0010
0000
0100
0000
0000
1001
0000
0000
1000
0000
0100
0000
1000
0000
,
0001
0100
0001
0000
1000
0010
1000
0000
,
0001
1001
1000
1001
,
0220
0000
0000
0000
,
0000
0000
0000
0330
;

//---------------dance-single - t7r----------------
#NOTES:
     dance-single:
     t7r:
     Hard:
     12:
     :
0000
0000
0000
0000
,
0000
0000
0000
0000
,
0000
0000
0000
0000
,
0000
0000
0000
0000
,
0000
0000
0000
0000
,
1000
0000
0000
0100
0000
0000
0010
0000
0000
0000
0001
0000
0010
0000
0100
0000
,
1000
0000
0000
0001
0000
0000
0100
0000
0000
0000
0001
0000
0100
0000
0001
0000
,
1001
0000
0000
0010
0000
0000
0100
0000
0010
0000
0000
0100
0000
0000
0010
0000
,
1000
0000
0000
1001
0000
0000
0110
0000
0000
0001
1000
0001
,
0200
0000
0000
0300
,
0001
0000
0010
0000
0001
0000
0000
1000
0000
0000
0001
0000
1000
0000
0000
0010
,
0000
0000
0100
0000
0010
0000
0000
1000
0000
0000
0010
0000
1000
0000
0100
0000
,
1000
0000
0100
0000
1000
0000
0000
0001
0000
0000
0100
0000
0001
0000
0000
1000
,
0000
0000
0001
0000
0010
0000
0000
0100
0000
0000
0010
0000
0001
0000
0100
0000
,
0001
0000
0100
0000
0001
0000
0000
1000
0000
0000
0010
0000
0100
0000
0000
0010
,
0000
1000
0100
0000
0010
0010
0010
0010
,
1001
0000
0001
0000
0100
0000
0000
0010
0000
0000
1000
0000
0010
0000
0000
0100
,
0000
0000
0001
0000
0100
0000
0000
0001
0000
0000
1000
0000
0100
0000
0010
0000
,
0001
0100
0101
0000
1000
0100
1001
0000
,
1000
0010
0110
0000
0010
1000
1001
0100
,
0010
0000
0001
0000
0100
0000
0000
0001
0000
0000
1000
0000
0010
0000
0000
1010
,
0000
0000
0100
0000
0010
0000
0000
0110
0000
0000
0010
0000
0100
0000
0001
0000
,
1000
0000
0001
0000
0100
0000
0000
0001
0000
0000
1000
0000
0001
0000
0000
1001
,
0000
0000
0001
0000
0010
0000
0000
0110
0000
0000
0010
0000
0100
0000
1000
0000
,
0100
0000
0010
0000
0001
0000
0000
0010
0000
0000
0001
0000
0100
0000
0000
1001
,
0000
0000
1000
0000
0100
0000
0000
1001
0000
0000
0010
0000
0100
0000
0010
0000
,
1000
0010
0110
0000
0001
0100
0110
0000
,
0010
1000
1001
0000
0110
0000
1001
0010
,
2000
0000
0000
0100
0000
0000
0001
0000
0000
0000
3100
0000
0010
0000
0001
0000
,
0200
0000
0000
0010
0000
0000
1000
0000
0000
0000
0310
0000
0100
0000
0001
0000
,
1002
0000
0000
0010
0000
0000
1000
0000
0000
0000
0103
0000
1000
0000
0100
0000
,
0020
0000
0000
0001
0000
0000
1000
0000
0000
0000
0031
0000
0010
0000
0100
0000
,
1100
0000
0000
0010
0000
0000
0010
0000
0000
0000
0100
0000
0001
0000
0000
0000
,
0101
0000
0000
0010
0000
0000
0010
0000
0000
0000
0100
0000
1000
0000
0000
0000
,
1010
0000
0000
0100
0000
0000
0100
0000
0000
0000
0001
0000
0100
0000
0000
0000
,
0011
0000
0000
0100
0000
0000
0100
0000
0000
0000
1000
0000
0100
0000
0000
0000
,
1001
0000
0110
0000
0010
1000
0100
1000
,
0001
0000
0100
0001
0000
1001
0000
0100
,
0020
0000
0000
1000
0000
0000
1000
0000
0000
0000
0130
0000
0010
0000
0001
0000
,
0020
0000
0000
0100
0000
0000
1000
0000
0000
0000
0130
0000
0010
0000
1000
0000
,
1001
0000
0001
0100
0000
0001
0100
0001
,
0010
0000
0100
1000
0000
1100
0000
1000
,
0100
0110
1001
1100
,
0101
0000
0000
1100
0000
0000
1010
0000
1000
0001
1000
0001
,
0020
0000
0000
0000
,
0100
0000
0100
0000
0100
0000
0000
0100
0000
0000
0100
0000
0001
0000
0000
0001
,
0000
0000
0001
0000
1000
0000
0000
1000
0000
0000
1030
0000
0010
0000
0100
0000
,
1001
0000
0001
0000
0100
0000
0000
0101
0000
0000
0001
0000
1000
0000
0000
1100
,
0000
0000
1000
0000
0010
0000
0000
0110
0000
0000
0010
0000
0100
0000
0001
0000
,
1000
0000
0001
0000
0100
0000
0000
0101
0000
0000
0001
0000
0100
0000
0000
1010
,
0000
0000
1000
0000
0100
0000
0000
0011
0000
0000
0001
0000
0010
0000
0100
0000
,
1000
0000
0001
0000
0100
0000
0000
1001
0000
0000
0010
0000
0100
0000
0000
0110
,
0000
0000
0010
0000
1000
0000
0000
1010
0000
0000
1000
0000
0100
0000
0010
0000
,
0001
0100
0110
0000
1000
0010
1001
0000
,
1000
0100
0110
0000
0001
0100
1001
0010
,
1000
0000
0100
0000
1000
0000
0000
1100
0000
0000
1000
0000
0010
0000
0000
0110
,
0000
0000
0001
0000
0100
0000
0000
1100
0000
0000
0010
0000
0100
0000
0001
0000
,
0100
0000
0001
0000
1000
0000
0000
1001
0000
0000
0001
0000
0010
0000
0000
0101
,
0000
0000
1000
0000
0100
0000
0000
1010
0000
0000
1000
0000
0010
0000
0100
0000
,
0001
0000
0100
0000
1001
0000
0000
1100
0000
0000
1000
0000
0101
0000
0000
0011
,
0000
0000
0001
0000
1100
0000
0000
1010
0000
0000
1000
0000
0100
0000
0010
0000
,
0001
0100
1001
0000
1000
0100
1001
0000
,
0010
0100
1010
0000
0010
0100
0101
0001
,
2002
0000
0000
0000
,
0000
0000
0000
3003
;

//---------------dance-single - t7r----------------
#NOTES:
     dance-single:
     t7r:
     Challenge:
     14:
     :
0000
0000
0000
0000
,
0000
0000
0000
0000
,
0000
0000
0000
0000
,
0000
0000
0000
0000
,
0000
0000
0000
0000
,
1000
0000
0000
1010
0000
0000
1100
0000
0000
0000
1000
0000
0100
0000
0010
0000
,
0001
0000
0000
0011
0000
0000
0101
0000
0000
0000
0001
0000
0100
0000
0010
0000
,
1000
0000
0000
0001
0100
0000
0001
0000
0010
0000
0000
0100
0010
0000
0001
0000
,
1000
0000
0001
0100
0000
0010
1000
0000
0001
1000
0100
0010
,
0200
0000
0000
0300
,
1000
0000
1000
0000
1000
0001
0000
0001
0000
0000
0001
0000
0001
0100
0000
0100
,
0000
0000
0100
0000
0100
0010
0000
0010
0000
0000
0010
0000
1000
0000
0001
0000
,
1001
0000
1000
0000
0100
1000
0000
1000
0000
0000
1000
0000
0010
0100
0000
0001
,
0000
0000
0100
0000
0001
1000
0000
0001
0000
0000
1000
0000
0010
0000
0100
0000
,
0010
0000
0010
0000
1000
0010
0000
0010
0000
0000
0100
0000
0010
1000
0000
0001
,
0000
0000
1000
0000
0100
0000
0100
1000
0000
1000
0001
0000
0100
0000
0001
0000
,
1000
0000
1000
0000
0010
0100
0000
0100
0000
0000
0100
0000
0010
1000
0000
0001
,
0000
0000
0001
0000
0100
0001
0000
0010
0000
0000
0001
0000
0010
0000
0100
0000
,
1000
0100
0110
0000
0010
0001
1001
0000
,
0001
0100
0010
1000
0001
1000
0001
1001
,
1001
0000
0001
0000
0100
0001
0000
0100
0000
0000
0100
0000
0100
0010
0000
1000
,
0000
0000
1000
0000
1000
0001
0000
1000
0000
0000
0001
0000
0100
0000
0001
0000
,
0010
0000
0010
0000
0100
0010
0000
0100
0000
0000
0010
0000
0001
1000
0000
0001
,
0000
0000
1000
0000
1000
0000
0010
1000
0000
1000
0010
0000
1000
0000
0001
0000
,
1000
0000
0100
0000
1000
0001
0000
0001
0000
0000
0001
0000
0100
0010
0000
0010
,
0000
0000
0010
0000
1000
0010
0000
1000
0000
0000
0001
0000
1000
0000
0100
0000
,
1000
0001
0101
0000
0001
1000
1100
0000
,
0010
0000
0000
0100
0010
0000
0000
0001
1000
0000
0000
0010
1000
0000
0001
0000
,
0100
0000
0000
0110
0000
0000
1010
0000
0000
0000
0010
0000
0100
0000
0001
0000
,
0100
0101
0000
1001
0000
0001
1000
0100
,
1000
0000
0000
1100
0000
0000
1001
0000
0000
0000
1000
0000
0010
0000
0100
0000
,
0010
0110
0000
0110
0000
0010
1000
0001
,
0102
0000
0000
0010
0000
0000
0013
0000
0000
0000
0100
0000
0010
0000
1000
0000
,
2100
0000
0000
0001
0000
0000
3001
0000
0000
0000
0001
0000
0100
0000
0001
0000
,
1002
0000
0000
0100
0000
0000
0103
0000
0000
0000
0010
0000
1000
0000
0010
0000
,
0210
0000
0000
0010
0000
0000
1300
0000
0000
0000
0010
0000
0100
0000
0001
0000
,
1001
0000
0001
0100
0000
0001
1000
0100
,
0011
0000
0001
1010
0000
0101
0000
1100
,
0100
0000
0000
0110
0000
0000
0110
0000
0000
0000
0010
0000
0001
0000
1000
0000
,
0001
0000
0000
0101
0000
0000
0101
0000
0000
0000
0010
0000
1000
0000
0100
0000
,
1100
0000
1000
0100
0000
1000
0001
0100
,
1010
0000
0100
0011
0000
1100
0000
1001
,
0001
0000
0000
0100
0001
0000
1000
0000
0010
0000
0000
0100
0010
0000
1000
0000
,
0010
0000
0100
0001
0000
1000
0001
0000
1000
0010
0100
0010
,
0100
0000
0000
0000
0000
0000
0000
0000
0000
0100
0000
0000
0000
0000
0000
0000
0000
0000
0100
0000
0000
0000
0000
0000
0000
0000
0000
0000
0000
0000
0000
0000
0200
0000
0000
0000
0000
0000
0000
0000
0000
0000
0000
0000
0000
0000
0000
0000
,
0310
0000
0010
0000
1000
0010
0000
0010
0000
0000
0100
0000
0001
0100
0000
0001
,
0000
0000
0001
0000
0001
1000
0000
0001
0000
0000
1000
0000
0010
0000
0100
0000
,
1001
0000
1001
0000
0001
0100
0000
0001
0000
0000
1000
0000
0010
1000
0000
0010
,
0000
0000
0100
0000
0001
0100
0000
0001
0000
0000
1000
0000
0100
0000
0010
0000
,
0100
0000
0100
0000
1000
0100
0000
1000
0000
0000
0010
0000
0100
0001
0000
0100
,
0000
0000
0100
0000
0001
0000
1000
0001
0000
0001
1000
0000
0010
0000
0100
0000
,
0001
0000
0001
0000
0100
0001
0000
0100
0000
0000
0010
0000
1000
0010
0000
0100
,
0000
0000
0010
0000
1000
0001
0000
1000
0000
0000
0001
0000
0100
0000
0010
0000
,
1000
0100
0011
0000
0001
0100
1001
0000
,
1000
0010
0110
0010
0100
0001
1001
0001
,
0101
0000
0101
0000
0001
0010
0000
0100
0000
0000
1000
0000
0100
1000
0000
0010
,
0000
0000
0100
0000
0001
1000
0000
0001
0000
0000
1000
0000
0010
0000
0100
0000
,
1001
0000
1001
0000
1000
0100
0000
1000
0000
0000
0100
0000
0010
0001
0000
0100
,
0000
0000
0010
0000
1000
0010
1000
0001
0000
0001
0100
0000
0001
0000
1000
0000
,
0011
0000
0011
0000
0001
0100
0000
0001
0000
0000
1000
0000
0010
0100
0000
0010
,
0000
0000
1000
0000
0100
0010
0000
0001
0000
0000
0010
0000
0100
0000
1000
0000
,
1001
0010
0100
0010
1001
0100
0010
0100
,
1010
0100
0011
0100
1000
0001
1001
0110
,
2002
0000
0000
0000
,
0000
0000
0000
3003
;
