#TITLE:GENOCIDE;
#ARTIST:dj Killer;
#BANNER:GENOCIDE.png;
#BACKGROUND:GENOCIDE-bg.png;
#JACKET:GENOCIDE-jacket.png;
#CDTITLE:./CDTITLES/BEATMANIA IIDX.PNG;
#MUSIC:GENOCIDE.ogg;
#SAMPLESTART:74.057;
#SAMPLELENGTH:15;
#DISPLAYBPM:88:175;
#BPMS:0=87.5,20=175;

//---------------dance-single - t7r----------------
#NOTES:
     dance-single:
     t7r:
     Beginner:
     2:
     :
0000
0000
0000
0000
,
0000
0000
0000
0000
,
0000
0000
0000
0000
,
0000
0000
0000
0000
,
0000
0000
0000
0000
,
0100
0000
0000
0000
,
0010
0000
0000
0000
,
1000
0000
0000
0000
,
0001
0000
0000
0000
,
1000
0000
0000
0000
,
0100
0000
0000
0000
,
0010
0000
0000
0000
,
0001
0000
0000
0000
,
0010
0000
0000
0000
,
0100
0000
0000
0000
,
0010
0000
0000
0000
,
0001
0000
0000
0000
,
1000
0000
0000
0000
,
0001
0000
0000
0000
,
0100
0000
0000
0000
,
0010
0000
0000
0000
,
0000
0100
0000
0100
,
0000
0010
0000
0010
,
0000
1000
0000
1000
,
0000
0001
0000
0001
,
0001
0000
1000
0000
,
0001
0000
0100
0000
,
0010
0000
1000
0000
,
0001
0000
1000
0000
,
0001
0000
0010
0000
,
0100
0000
1000
0000
,
0001
0000
0010
0000
,
0100
0000
1000
0000
,
0001
0000
0100
0000
,
0001
0000
1000
0000
,
0001
0000
0100
0000
,
0001
0000
1000
0000
,
0001
0000
0000
0000
,
1000
0000
0000
0000
,
0001
0000
0000
0000
,
0110
0000
0000
0000
,
0100
0000
0010
0000
,
1000
0000
0001
0000
,
0100
0000
0010
0000
,
1000
0000
0001
0000
,
1000
0000
0001
0000
,
0100
0000
0001
0000
,
1000
0000
0001
0000
,
0100
0000
0100
0000
,
0010
0000
1000
0000
,
0001
0000
0100
0000
,
0001
0000
1000
0000
,
0001
0000
1000
0000
,
0100
0000
0010
0000
,
0001
0000
0010
0000
,
0100
0000
1000
0000
,
0000
0100
0000
0100
,
0100
0000
0010
0000
,
0001
0000
1000
0000
,
0100
0000
1000
0000
,
0001
0000
0100
0000
,
0001
0000
1000
0000
,
0001
0000
0010
0000
,
0100
0000
1000
0000
,
0100
0000
0010
0000
,
0001
0000
0000
0000
;

//---------------dance-single - t7r----------------
#NOTES:
     dance-single:
     t7r:
     Easy:
     6:
     :
0000
0000
0000
0000
,
0000
0000
0000
0000
,
0000
0000
0000
0000
,
0001
0000
0000
0000
,
1000
0000
0000
0000
,
0100
0010
1000
0001
,
1000
0000
1000
0000
,
0001
1000
0001
0100
,
0001
0000
0001
0000
,
1000
0100
0010
0001
,
0020
0000
0000
0030
,
0100
0000
0000
0000
,
0010
0001
1000
0100
,
0010
0001
1000
0001
,
0200
0000
0000
0300
,
0010
0000
0000
0000
,
0100
0010
1000
0001
,
1000
0100
0010
0001
,
0020
0000
0000
0030
,
0100
0000
0000
0000
,
1000
1000
0001
0001
,
1000
0000
1000
0000
,
0001
0000
0001
0000
,
1000
0000
0100
0000
,
0010
0000
0001
0000
,
1000
1000
0100
0100
,
0010
0010
0001
0001
,
1000
1000
0100
0100
,
0010
0010
0001
0001
,
1000
1000
0010
0010
,
0100
0100
0001
0001
,
1000
1000
0010
0010
,
0100
0100
0001
0001
,
1000
1000
0100
0100
,
0010
0010
0001
0001
,
1000
1000
0100
0100
,
0010
0010
0001
0001
,
2000
0000
0000
3000
,
0002
0000
0000
0003
,
0200
0000
0000
0300
,
0020
0000
0000
0030
,
0100
0010
1000
0001
,
1000
0100
0010
0001
,
0100
0010
1000
0001
,
1000
0100
0010
0001
,
0100
0010
1000
0001
,
0100
0010
1000
0001
,
1000
0100
0010
0001
,
1000
0100
0010
0001
,
0020
0030
0002
0003
,
2000
3000
0200
0300
,
0020
0030
0200
0300
,
2000
3000
0002
0003
,
0200
0300
0020
0030
,
2000
3000
0002
0003
,
2000
3000
0002
0000
,
0003
1000
0100
1000
,
0001
0001
0100
0100
,
0010
0010
1000
1000
,
0001
0001
0100
0100
,
0010
1000
0001
1000
,
0001
0001
0100
0010
,
1000
1000
0100
0010
,
0001
0001
0100
0010
,
1000
1000
0010
0100
,
2002
0000
0000
0000
,
0000
0000
0000
3003
;

//---------------dance-single - t7r----------------
#NOTES:
     dance-single:
     t7r:
     Medium:
     8:
     :
0000
0000
0000
0000
,
0000
0000
0000
0000
,
0000
0000
0000
0000
,
1000
0100
1000
0001
0100
0001
1000
0001
,
1000
0010
0100
0001
2002
0000
3003
0000
,
1000
0001
0100
0010
,
1000
0100
0010
0001
,
1000
0001
0100
0010
,
1000
0000
0010
0100
0000
0100
0000
0000
,
0010
1000
0001
1000
,
0100
0010
0001
1000
,
0100
0010
0001
1000
,
0001
0000
0100
0001
0000
0001
0000
0000
,
1000
0001
0000
1000
0000
0001
0100
0000
,
0001
1000
0000
0100
0000
1000
0100
0000
,
1000
0010
0000
0100
0000
0010
1000
0000
,
0010
0100
0000
0001
0000
0100
0001
0000
,
1000
0100
0000
0010
0000
0001
0010
0000
,
0001
0010
0000
0100
0000
1000
0100
0000
,
1000
0001
0000
0100
0000
0001
1000
0000
,
0001
1000
0001
1000
,
0001
0100
0000
0010
0000
0100
0000
0010
,
0000
1000
0000
0010
0000
1000
0000
0001
,
0000
1000
0000
0100
0000
0010
0000
0001
,
0000
0010
0000
0100
1000
0000
0001
0000
,
1000
0000
0001
0000
0100
0001
0100
0000
,
0010
0000
1000
0000
0001
1000
0100
0000
,
1000
0000
0100
0000
0010
0001
0010
0000
,
0001
0000
0010
0000
0100
1000
0001
0000
,
0100
0000
0010
0000
1000
0010
0100
0000
,
0010
0000
0100
0000
0001
0100
0001
0000
,
1000
0000
0001
0000
0100
0001
1000
0000
,
0100
0000
0010
0000
0001
0010
0100
0000
,
1000
0000
0100
0000
1000
0100
1000
0000
,
0001
0000
0100
0000
0010
0100
0010
0000
,
1000
0000
0010
0000
1000
0001
0100
0000
,
0001
1000
0001
1000
,
0001
0200
0000
0000
0310
2000
0000
0000
,
3001
2000
0000
0000
3100
0020
0000
0000
,
0031
0020
0000
0000
0130
2000
0000
0000
,
3100
0020
0000
0000
0130
0020
0000
0000
,
0031
2000
0000
0000
3001
0020
0000
0000
,
0130
2000
0000
0000
3100
2000
0000
0000
,
3001
0200
0000
0000
0301
0200
0000
0000
,
0310
2000
0000
0000
3010
0200
0000
0000
,
0310
2000
0000
0000
3001
2000
0000
0000
,
3001
1000
0001
0100
,
0001
0010
0100
1000
,
0001
0010
0001
0000
1000
0100
1000
0001
,
0200
0310
2000
3010
,
0200
0301
2000
3100
,
0020
0031
0002
0013
,
0200
0310
0001
0010
,
0200
1300
2000
3100
,
2000
3001
0002
0103
,
0220
0330
2002
0000
,
3003
0011
1001
0101
,
0001
0100
0001
1000
0001
1000
0100
1000
,
0000
0100
0010
1000
0010
0100
0000
0001
,
0000
0100
0001
0000
1000
0100
0000
1000
,
0001
0000
0100
0000
0001
0100
0010
1000
,
0010
1000
0100
0000
0010
0001
0010
0001
,
1000
0100
1000
0000
0001
0100
0000
0001
,
1000
0001
0100
0000
0001
1000
0001
0000
,
1000
0100
0010
0000
0001
0010
0100
0000
,
2002
0000
0000
0000
,
0000
0000
0000
3003
;

//---------------dance-single - t7r----------------
#NOTES:
     dance-single:
     t7r:
     Hard:
     13:
     :
0000
0000
0000
0000
,
0000
0000
0000
0000
,
0000
0000
0000
0000
,
0001
0000
1000
0000
0001
0000
0010
0000
0100
0010
0001
0000
0010
0000
0100
0000
,
1000
0001
0100
0000
0001
0000
1000
0000
2002
0000
0000
0000
3003
0000
0000
0000
,
0001
0100
0010
0000
1000
0010
0100
0001
,
1000
0000
0001
0100
0000
0100
0001
0000
,
1000
0100
0010
0000
0001
0010
0100
1000
,
0100
0000
1000
0100
0000
0100
1000
0001
,
0100
0001
1000
0000
0010
0100
0010
1000
,
0010
0000
0100
0001
0000
0001
0100
0000
,
0001
0100
0010
0000
1000
0100
0001
0100
,
1000
0001
1000
0001
0100
0010
0100
0010
,
1000
0010
0000
0110
0000
0010
0100
0001
,
0100
0001
0000
1001
0000
0001
0010
0100
,
1000
0100
0000
1010
0000
1000
0010
0100
,
0001
0100
0000
0011
0000
0001
0010
0100
,
1000
0100
1000
0000
0001
0100
1000
0000
,
0100
0001
0100
0000
1000
0100
0001
0000
,
0010
0001
0010
0100
1000
0100
1000
0000
,
0001
1000
0001
0100
0001
0000
1001
0000
,
0001
0010
0000
0011
0000
0001
0010
0100
,
0000
1100
0000
1010
0000
1000
0010
1000
,
0000
1001
0000
0101
0000
0001
0100
0010
,
0000
0110
0000
1001
0000
1000
0001
0100
,
0001
0000
0000
0000
1001
0000
0000
0000
0001
0000
0000
0010
0000
0000
0100
0000
,
1000
0000
1100
0000
1000
0100
1000
0100
,
0010
0000
0000
0000
1001
0000
0000
0000
0010
0000
0000
0100
0000
0000
0010
0000
,
1000
0000
1001
0000
1000
0001
0100
0001
,
1000
0000
0000
0000
1010
0000
0000
0000
0010
0000
0000
0110
0000
0000
0010
0000
,
1000
0000
1100
0000
0001
0010
0100
1000
,
0100
0000
0000
0000
0011
0000
0000
0000
0001
0000
0000
1001
0000
0000
0001
0000
,
1000
0000
0101
0000
1000
0010
0100
0001
,
0100
0000
0000
0000
0110
0000
0000
0000
1010
0000
0000
1100
0000
0000
1000
0000
,
0001
0000
0101
0000
0001
1000
0001
0010
,
0100
0000
0000
0000
0110
0000
0000
0000
0011
0000
0000
0110
0000
0000
0001
0000
,
0010
0100
1000
0100
1000
0001
0100
0001
,
1000
0010
0200
0000
0301
0100
0020
0000
,
1030
0010
2000
0000
3001
1000
0002
0000
,
1003
0100
2000
0000
3100
0010
0200
0000
,
0310
0020
0000
0000
0031
0002
0000
0000
,
1003
0100
0020
0000
0031
0100
0020
0000
,
1030
0001
2000
0000
3001
1000
0002
0000
,
1003
0100
0020
0000
0031
0010
0200
0000
,
1300
0100
2000
0000
3100
1000
0020
0000
,
1030
0010
0100
0100
0001
0010
0100
0100
,
1000
1000
0001
0001
0100
0100
0010
0010
,
1001
0100
0001
0100
0010
1000
0010
1000
,
0001
1000
0100
0010
0001
0010
0100
1000
,
0100
0100
0010
0000
0001
0001
1000
0000
,
1000
0000
1000
0000
0001
0000
0100
0000
0001
0000
0010
0000
0001
1000
0000
1000
,
0010
0010
1000
0000
0001
0001
0100
0000
,
0010
0000
0010
0000
0100
0000
0010
0000
1000
0000
0001
0000
1000
0100
0000
0100
,
0010
0010
0001
0000
0001
0001
0010
0000
,
0100
0000
0100
0000
1000
0000
0100
0000
1000
0000
0010
0000
1000
0001
0000
0001
,
2000
0001
3001
0000
0210
0010
1000
0000
,
0301
0000
0000
0000
1000
0000
0001
0000
0010
0000
0100
0000
1000
0010
0000
1000
,
0001
0010
0001
0100
0010
1000
0001
1000
,
0001
0100
0001
1000
0001
0100
0010
1000
,
0100
0010
0001
0010
0100
1000
0100
1000
,
0001
0000
1000
0000
0100
0000
1000
0000
0001
0000
0010
0000
0100
1000
0000
1000
,
0001
0100
0001
0100
0010
1000
0010
1000
,
0001
0010
0100
1000
0001
0010
0001
1000
,
0010
1000
0001
0100
0001
0010
0100
1000
,
0001
0000
1000
0010
1000
0000
0001
0010
0001
0000
1000
0100
1000
0000
0001
2000
,
0002
0000
0000
0000
,
0000
0000
0000
3003
;

//---------------dance-single - t7r----------------
#NOTES:
     dance-single:
     t7r:
     Challenge:
     17:
     :
0000
0000
0000
0000
,
0000
0000
0000
0000
,
0000
0000
0000
0000
,
0001
0100
0010
0100
0001
0010
0100
1000
1100
1000
0100
0010
0001
0100
0001
1000
,
1001
0001
0010
0100
1000
0010
0100
0010
0220
0000
0000
0000
0330
0000
0000
0000
,
1010
0000
0010
0000
1000
0000
0000
0000
0001
0000
0010
0000
0001
0100
0000
0001
,
0010
0000
0100
0000
0010
0000
0001
0000
0000
0000
1000
0000
0100
1000
0000
0010
,
1000
0000
0010
0000
0100
0000
0000
0000
0010
0000
1000
0000
0100
0010
0000
0100
,
1000
0000
0001
0000
0010
0000
0100
0000
0000
0000
0010
0000
0001
0100
0000
0001
,
1000
0000
0010
0000
0100
0000
0000
0000
0010
0000
1000
0000
0001
0010
0000
0001
,
0100
0000
0010
0000
1000
0000
0100
0000
0000
0000
0010
0000
0100
1000
0000
0010
,
0100
0000
0010
0000
1000
0000
0000
0000
0001
0000
0010
0000
0100
0010
0000
0001
,
1000
0000
1000
0000
0010
0000
0010
0000
0100
0001
0100
0000
0001
1000
0001
1000
,
0001
0010
0100
0000
0010
0001
1000
0000
0001
0000
0100
0000
0010
1000
0000
0001
,
1000
0100
1000
0000
0010
0100
0001
0000
0100
0000
0010
0000
1000
0100
0000
0010
,
0100
1000
0001
0000
0100
0010
0100
0000
0010
0000
1000
0000
0001
0100
0000
0001
,
1000
0001
0010
0000
0001
0100
0010
0000
0100
0000
0001
0000
1000
0100
0000
1000
,
0010
0100
0010
0000
1000
0100
0010
0000
0100
0000
1000
0000
0001
0010
0000
1000
,
0010
0001
1000
0000
0001
0100
0010
0000
1000
0000
0100
0000
0010
0100
0000
1000
,
0010
0100
0001
0000
0010
0100
1000
0000
0001
0000
0100
0000
1000
0100
0000
0001
,
1000
0000
1000
0000
0010
0100
0010
0000
0100
0010
1000
0001
1000
0100
0010
0001
,
1000
0000
0100
0000
0010
0000
0110
0000
0100
0000
1000
0000
0010
0100
0000
0001
,
0010
0000
0100
0000
0010
0000
0011
0000
0001
0000
1000
0000
0001
0100
0000
0001
,
1000
0000
0010
0000
0100
0000
0110
0000
0010
0000
1000
0000
0100
1000
0000
0001
,
1000
0000
0100
0000
0010
0000
0110
0000
0100
0000
1000
0010
0000
1000
0001
0100
,
0001
0000
0010
0001
0010
0000
0001
0100
0001
0000
0100
0010
0000
0010
1000
0000
,
0010
0000
1000
0100
1000
0000
0001
1000
0001
0000
1000
0010
0000
0010
0100
0010
,
1000
0000
0100
0010
0100
0000
1000
0100
1000
0000
0100
0010
0000
0010
0001
0100
,
0001
0000
0100
0001
1000
0000
0010
0100
0001
0000
0001
0000
0010
0100
1000
0100
,
0010
0000
0001
0100
0010
0000
1000
0010
0100
0000
0010
1000
0000
0001
1000
0001
,
0010
0000
0001
1000
0100
0000
1000
0001
0010
0000
0001
0100
0000
0001
0010
0100
,
1000
0000
0100
0010
0001
0000
1000
0010
0100
0000
0010
1000
0000
0001
0010
0001
,
1000
0000
0010
1000
0100
0000
0010
0001
0100
0000
0010
0100
0001
1000
0100
1000
,
0001
0000
0010
0001
0010
0000
0001
0100
0001
0000
1000
0010
0000
0100
0010
1000
,
0100
0000
1000
0100
1000
0000
0010
1000
0010
0000
1000
0010
0000
0100
0010
1000
,
0001
0000
1000
0100
0010
0000
0001
0010
0100
0000
0010
0001
0000
1000
0010
0100
,
0010
0000
0010
0000
0100
0010
0100
0000
0001
1000
0001
0000
1000
0100
0010
0001
,
1000
0000
1100
0000
0001
0000
1000
0000
0100
1000
0100
0000
0010
0100
0000
0100
,
1000
0000
1010
0000
0001
0000
1000
0000
0100
0010
0100
0000
1000
0001
1000
0000
,
0001
0000
0101
0000
1000
0000
0100
0000
0010
0100
0010
0000
0001
0100
0000
0100
,
0001
1001
1000
1000
0010
0110
0100
0100
,
0010
0100
0001
0000
0010
0100
0010
0100
0010
0001
1000
0000
0010
0100
0010
0100
,
0010
1000
0001
0000
1000
0100
1000
0100
0010
0100
1000
0000
0001
0100
0001
0100
,
0010
0100
0001
0000
0010
0001
0010
0001
1000
0001
0010
0000
0001
1000
0001
1000
,
0010
1000
0100
0000
0010
0100
0010
0100
1000
0010
0100
0000
0001
0100
0001
0100
,
0010
0100
0001
0000
1000
0100
1000
0100
0010
0100
1000
0000
0001
0010
0001
0010
,
1000
0010
0001
0000
1000
0100
1000
0100
0001
0100
1000
0000
0001
0100
0001
0100
,
0010
0010
0100
0100
0001
0001
1000
1000
,
0001
0010
0001
0010
0100
1000
0100
1000
0001
0010
0100
1000
0001
0010
0100
1000
,
0001
0000
0100
0010
1000
0000
0100
0010
0001
0000
1000
0000
0100
1000
0000
1000
,
0010
0000
0100
0010
1000
0000
0010
0100
0001
0000
0010
0000
0001
0010
0000
0010
,
0001
0000
1000
0100
1000
0000
0001
0100
0001
0000
1000
0000
0010
0100
0000
0100
,
0001
0000
1000
0010
1000
0000
0001
0010
0001
0000
1000
0100
0010
0100
0000
0100
,
1000
0000
0100
1000
0010
0000
0100
0001
0010
0000
0001
0000
0100
0010
0000
0010
,
1000
0000
0001
0010
0100
0000
0010
0001
1000
0000
0010
0000
0100
0001
0000
0001
,
1000
0000
0001
0100
0001
0000
1000
0010
1000
0000
0001
0000
0010
0001
0000
0001
,
0100
0000
0001
1000
0010
0000
1000
0001
0100
0000
0001
1000
0100
1000
0000
1000
,
0100
0000
1000
0000
1100
0000
0100
0010
0001
0000
0100
0001
0010
0001
0000
0001
,
1000
0000
0001
0000
0101
0000
0001
1000
0010
0000
1000
0010
0100
0010
0000
0010
,
1000
0000
0100
0010
0001
0000
1000
0010
0100
0000
0010
1000
0001
0010
0000
0010
,
0001
0000
1000
0100
0001
0000
0100
1000
0010
0000
0100
0000
0001
1000
0000
1000
,
0001
0000
0100
0001
0010
0000
0100
1000
0010
0000
0100
0001
0010
0100
0000
0100
,
0010
0000
0001
1000
0100
0000
1000
0001
0010
0000
0001
1000
0010
1000
0000
1000
,
0010
0000
0100
0010
1000
0000
0100
0010
0001
0000
1000
0100
0001
0000
1000
0010
,
0001
0100
1000
0100
0001
0010
1000
0010
0001
0100
0010
1000
0001
0100
0010
2000
,
0002
0000
0000
0000
,
0000
0000
0000
3003
;
