#TITLE:Fluorescent Adolescent;
#ARTIST:Arctic Monkeys;
#BANNER:Fluorescent Adolescent.png;
#BACKGROUND:Fluorescent Adolescent-bg.png;
#JACKET:Fluorescent Adolescent-jacket.png;
#CDTITLE:./CDTITLES/NONE.PNG;
#MUSIC:Fluorescent Adolescent.ogg;
#OFFSET:-0.004;
#SAMPLESTART:71.69;
#SAMPLELENGTH:15;
#DISPLAYBPM:112;
#BPMS:0=112.15;

//---------------dance-single - t7r----------------
#NOTES:
     dance-single:
     t7r:
     Beginner:
     1:
     :
0000
0000
0000
0000
,
0000
0000
0000
0000
,
0000
0000
0000
0000
,
0000
0000
0000
0000
,
0000
0000
0000
0000
,
0000
0100
0000
0010
,
0000
1000
0000
0001
,
0000
1000
0000
0100
,
0000
0010
0000
0001
,
0001
0000
0000
0000
,
0000
0000
0000
0000
,
0000
0000
0000
0000
,
0000
0000
0000
0010
,
0010
0000
1000
0000
,
0001
0000
1000
0000
,
0100
0000
0010
0000
,
0001
0000
0010
0000
,
0100
0000
0000
0000
,
0010
0000
0000
0000
,
0000
1000
0000
0001
,
0000
0100
0000
0010
,
0010
0000
0000
1000
,
1000
0000
0000
0001
,
0001
0000
0000
0000
,
0100
0000
0000
0000
,
0000
0000
0000
0000
,
0010
0000
1000
0000
,
1000
0000
0001
0000
,
0100
0000
0001
0000
,
1000
0000
0010
0000
,
0100
0000
0000
0100
,
0100
0000
0000
0010
,
0010
0000
0000
0000
,
0000
0000
0000
1000
,
1000
0000
0001
0000
,
0100
0000
0001
0000
,
1000
0000
0100
0000
,
1000
0000
0010
0000
,
0100
0000
0000
0000
,
0000
0010
0000
0000
,
0100
0000
1000
0000
,
0001
0000
0100
0000
,
0010
0000
0000
0000
,
1000
0000
0000
0000
,
0001
0000
0000
0000
,
0100
0000
0000
0000
,
0001
0000
0000
0000
,
1000
0000
0000
0000
,
0010
0000
0000
0000
,
0100
0000
0000
0000
,
0010
0010
0000
0000
;

//---------------dance-single - t7r----------------
#NOTES:
     dance-single:
     t7r:
     Easy:
     3:
     :
0000
0000
0000
0000
,
0000
0000
0000
0000
,
0000
0000
0000
0000
,
0000
0000
0000
0000
,
0000
0000
0000
0010
,
0010
0000
0100
0010
,
1000
0000
1000
0001
,
0100
0000
0100
0001
,
1000
0000
1000
0010
,
0200
0000
0000
0300
,
0020
0000
0000
0030
,
2000
0000
0000
3000
,
0002
0000
0000
0003
,
1000
0010
0100
0100
,
0010
1000
0001
0001
,
1000
0100
0010
0010
,
0001
0010
0100
0100
,
0010
1001
0000
0000
,
1000
1001
0000
0000
,
0000
1001
0000
1001
,
0000
0110
0000
0110
,
0010
1000
0001
0100
,
0001
1000
0001
0100
,
0020
0000
0000
0030
,
0200
0000
0000
0300
,
0000
0000
0000
0000
,
0010
1000
0001
0001
,
0100
0001
1000
1000
,
0010
0100
0010
0010
,
1000
0010
0100
0001
,
1000
0001
1000
1000
,
0001
0010
0100
0100
,
0010
0020
0000
0030
,
0000
0000
0000
0100
,
1001
1000
0001
0100
,
0001
1000
0001
0100
,
0010
1000
0010
0100
,
0010
0001
0010
0100
,
0010
1001
0000
0000
,
0100
1001
0000
0000
,
1000
1000
0001
0001
,
0100
0001
1000
0010
,
0200
0000
0000
0300
,
0020
0000
0000
0030
,
2002
0000
0000
3003
,
2000
0000
0000
3000
,
0002
0000
0000
0003
,
0200
0000
0000
0300
,
0002
0000
0000
0003
,
1000
1000
0001
1000
,
0001
0001
0001
0000
0000
0000
0000
0000
;

//---------------dance-single - t7r----------------
#NOTES:
     dance-single:
     t7r:
     Medium:
     6:
     :
0000
0000
0000
0000
,
0000
0000
0000
0000
,
0000
0000
0000
0000
,
0000
0000
0000
0000
,
0000
0000
0010
0100
,
0010
0000
0010
0000
1000
0001
0100
0000
,
0001
0000
0001
0000
1000
0100
0010
0000
,
0100
0000
0100
0000
1000
0010
1000
0000
,
0010
0000
0100
0000
0001
1000
0001
0000
,
2000
0100
0000
3100
,
0200
0010
0000
0310
,
0020
0001
0000
0031
,
0002
1000
0000
1003
,
1000
0000
0100
0000
1000
0010
1000
0000
,
0010
0000
0100
0000
0001
0100
0001
0000
,
1000
0000
0001
0000
1000
0001
1000
0000
,
0001
0000
1000
0000
0001
0100
1000
0000
,
2200
3300
0000
0000
,
0000
0010
0010
0000
0000
0000
0000
0000
,
0000
0100
0100
0000
0000
0010
0010
0000
,
0000
1000
1000
0000
0000
0001
0001
0000
,
1000
0100
1000
0000
0010
0000
0100
0000
,
0001
0100
0001
0000
1000
0000
0001
0000
,
2002
0000
0000
3003
,
0220
0000
0000
0330
,
0000
0000
0000
0000
,
0010
0000
0100
0000
0001
1000
0100
0000
,
1000
0000
0001
0000
1000
0001
0100
0000
,
0001
0000
0100
0000
0010
1000
0100
0000
,
1000
0000
0100
0000
0010
0001
0100
0000
,
0001
0000
1000
0000
0001
1000
0001
0000
,
1000
0000
0010
0000
0100
0001
0100
0000
,
0001
0001
0001
0000
0000
0000
0000
0000
,
2000
3000
0002
0003
,
1001
0000
0100
0000
0010
0100
0010
0100
,
0020
0000
0030
0000
1000
0001
1000
0001
,
2000
3001
0002
0103
,
0002
1003
0020
1030
,
0010
0100
0100
0000
0000
0000
0000
0000
,
0010
1000
1000
0000
0000
0000
0000
0000
,
0001
0000
0100
0000
0001
1000
0001
0000
,
2000
3000
0020
0030
,
0200
0000
0000
0310
0000
0000
0000
0000
,
2000
0000
0000
3001
0000
0000
0001
0000
,
0002
0000
0000
0103
0000
0000
0000
0000
,
0200
0000
0000
0301
0000
0000
1000
0000
,
0020
0000
0000
0130
0000
0000
0000
0000
,
0020
0000
0000
1030
0000
0000
0010
0000
,
0200
0000
0000
0310
0000
0000
0000
0000
,
0020
0000
0000
0130
0000
0000
0000
0000
,
1000
0001
1001
0000
0000
0000
0000
0000
;

//---------------dance-single - t7r----------------
#NOTES:
     dance-single:
     t7r:
     Hard:
     8:
     :
0000
0000
0000
0000
,
0000
0000
0000
0000
,
0000
0000
0000
0000
,
0000
0000
0000
0000
,
0000
0000
0000
0000
1000
0100
1000
0100
,
1000
0001
0001
0000
0100
0001
1000
0010
,
0100
0010
0010
0000
1000
0010
0100
0001
,
1000
0100
0100
0000
0010
0001
0100
0001
,
1000
0001
0001
0000
0100
0001
0010
0100
,
2000
0001
0001
3001
,
0002
0100
0100
0103
,
0200
0010
0010
0310
,
0020
0000
1000
0000
1000
0000
1030
0010
,
0100
0001
1000
0000
0001
0100
0001
1000
,
0100
0010
0010
0000
0001
0010
0100
1000
,
0100
1000
1000
0000
0010
1000
0001
0100
,
0010
0100
0100
0000
0010
1000
0001
1000
,
0001
1001
1001
0000
0000
0000
0000
0000
,
0000
0010
0110
0000
0000
0000
0000
0000
,
1000
0001
1001
0000
0000
1000
1001
0000
,
0002
0203
0320
2030
,
3010
0100
0001
0000
1000
0001
0100
0000
,
0001
1000
0100
0000
1000
0100
0010
0001
,
0020
0000
0000
0130
,
0200
0000
0000
0300
,
0000
0000
0000
0000
,
1000
0100
0010
0002
0000
0000
0003
0000
,
0001
0010
0100
0000
2000
0000
3001
0000
,
0010
0100
1000
0000
0200
0000
0300
0000
,
0010
0001
1000
0020
0000
0000
0030
0000
,
1000
0100
0010
0000
0001
0010
0001
0100
,
0010
0010
1000
0000
1000
0010
1000
0100
,
0010
0010
0001
0000
0001
0010
0100
1000
,
0002
0000
1003
0000
0020
0000
0130
0010
,
1001
1000
0010
0000
0001
1000
0001
0010
,
0100
1000
0010
0000
0100
0001
0100
0010
,
2000
3020
0230
0302
,
0103
0001
1000
0000
0001
1000
0010
0000
,
1000
1001
1001
0000
0000
0000
0000
0000
,
0001
1001
1001
0000
0000
0000
0000
0000
,
1000
0010
0100
0000
0001
0100
0010
0000
,
0200
0302
2003
3010
,
2010
0000
0000
3010
0000
0000
0000
0000
,
0102
0000
0000
0013
0000
0000
0110
0000
,
2001
0000
0000
3001
0000
0000
0000
0000
,
0012
0000
0000
0103
0000
0000
0110
0000
,
2100
0000
0000
3001
0000
0000
0000
0000
,
2001
0000
0000
3010
0000
0000
1001
0000
,
0102
0000
0000
1003
0000
0000
0010
0000
,
0120
0000
0000
0130
0000
0000
0000
0000
,
1001
1001
1001
0000
0000
0000
0000
0000
;

//---------------dance-single - t7r----------------
#NOTES:
     dance-single:
     t7r:
     Challenge:
     14:
     :
0000
0000
0000
0000
,
0000
0000
0000
0000
,
0000
0000
0000
0000
,
0000
0000
0000
0000
,
0000
0000
0000
0000
0001
0100
0100
0001
,
1000
0000
0001
1000
0100
0000
0010
0001
0010
0001
0010
0000
0001
0000
0010
0000
,
0100
0000
1000
0010
0100
0000
0010
1000
0010
1000
0010
0000
1000
0000
0001
0000
,
0100
0000
0001
1000
0010
0000
1000
0001
1000
0001
1000
0000
0100
0000
0010
0000
,
0100
0000
1000
0001
0010
0000
0001
0100
0001
0100
0001
0000
1000
0000
0001
0000
,
1000
0000
0100
0000
1000
0100
1000
0000
0100
0000
1000
0000
0100
1000
0100
0000
,
0010
0000
0001
0000
0100
0001
0100
0000
0001
0000
0010
0000
0001
0100
0001
0000
,
1000
0000
0001
0000
0100
0010
0100
0000
0010
0000
0100
0000
0001
1000
0001
0000
,
0100
0000
0010
0000
0100
1000
0100
0000
0010
0000
1000
0100
1000
0001
0010
0000
,
0110
0000
0010
0001
0100
0000
0010
1000
0100
0010
0001
0000
1000
0000
0001
0000
,
1000
0000
0010
0100
0001
0000
1000
0010
0100
0001
1000
0000
0001
0000
0010
0000
,
0001
0000
0100
0001
1000
0000
0001
0010
0100
1000
0001
0000
1000
0000
0100
0000
,
1000
0000
0010
0100
0001
0000
0100
0010
1000
0010
0100
0000
0001
0000
1000
0000
,
0001
1001
2001
0000
0010
0000
3001
0000
,
1000
1001
1002
0000
0010
0000
1003
0000
,
0100
0110
0120
0000
1030
1001
2100
0000
,
3001
0000
1001
0000
0012
0000
0000
0000
0103
0000
0110
0000
2010
0000
0000
3001
,
1000
0000
0001
0010
0100
0000
0010
0001
1000
0000
0001
0000
0100
0000
1000
0000
,
0100
0000
0001
1000
0010
0000
1000
0100
0010
0000
0100
0000
1000
0000
0100
0000
,
0201
0010
1000
0301
,
2001
0000
0000
0100
0020
0000
0000
0000
,
0000
0000
0000
3030
,
0101
0000
0010
0100
0001
0000
2010
0000
3001
0010
0001
0000
1000
0100
0010
0000
,
1100
0000
0010
0001
0010
0000
0012
0000
1003
0010
1000
0000
0001
0100
0010
0000
,
0210
0000
0301
1000
0100
0000
1000
0010
0100
0001
1000
0000
0001
0000
1000
0100
,
0020
0000
0230
0000
2300
0000
3002
0000
0013
0001
0100
0010
1000
0001
0100
1000
,
0100
0000
0010
0100
2010
0000
3002
0000
0103
0010
1000
0000
0001
1000
0100
0000
,
2100
0000
0010
0000
3010
0000
0100
0001
1002
0000
0013
0000
2001
0000
3100
0000
,
0110
0110
0220
0000
0000
0000
0330
0000
,
0000
0000
0000
0000
,
1001
0000
0010
1000
0001
0000
0100
0001
0010
0001
1000
0000
0001
1000
0100
0000
,
1000
0100
0010
0000
0001
0000
0100
0001
0010
0001
0100
0000
0001
1000
0100
1000
,
0001
0010
0100
0000
0010
0000
0001
0100
0010
1000
0100
0000
1000
0000
0100
0010
,
0001
0100
0010
0000
1000
0000
0100
0001
0100
1000
0001
0000
0100
0000
0010
1000
,
0100
1100
0012
0000
1000
0000
0103
0000
,
0100
0101
2010
0000
0001
0000
3100
0000
,
0110
0000
0010
0100
0001
0000
1000
0001
0100
0010
1000
0000
0001
0000
0100
0001
,
0010
0100
1000
0000
0010
0000
1000
0100
0010
0001
1000
0000
0010
0100
0001
0100
,
0120
0000
1030
0102
0000
1003
1100
0000
,
0012
0000
1003
2010
0000
3100
0110
0000
,
1002
0000
0103
2010
0000
3001
0110
0000
,
2100
0000
3001
0012
0000
0103
0110
0000
,
1002
0000
0103
1020
0000
0130
1001
0000
,
1200
0000
0310
2001
0000
3010
0101
0000
,
1200
0000
0310
2100
0000
3001
1001
0000
,
0201
0000
0310
0210
0000
0301
1001
0000
,
0110
0110
0110
0000
0000
0000
0000
0000
;
