#TITLE:FOR THE FINAL;
#ARTIST:あさき;
#ARTISTTRANSLIT:Asaki;
#BANNER:FOR THE FINAL.png;
#BACKGROUND:FOR THE FINAL-bg.png;
#JACKET:FOR THE FINAL-jacket.png;
#CDTITLE:./CDTITLES/GUITAR FREAKS & DRUMMANIA.PNG;
#MUSIC:FOR THE FINAL.ogg;
#SAMPLESTART:37.059;
#SAMPLELENGTH:15;
#BPMS:0=136;

//---------------dance-single - t7r----------------
#NOTES:
     dance-single:
     t7r:
     Beginner:
     1:
     :
0000
0000
0000
0000
,
0000
0000
0000
0000
,
0000
0000
0000
0000
,
0000
0000
0000
0000
,
0000
0000
0000
0000
,
0001
0000
0000
0000
,
0100
0000
0000
0000
,
0010
0000
0000
0000
,
1000
0000
0000
0000
,
0001
0000
0000
0000
,
1000
0000
0000
0000
,
0100
0000
0000
0000
,
0010
0000
0000
0000
,
1001
0000
0000
0000
,
0100
0000
0000
0000
,
0010
0000
0000
0000
,
1000
0000
0000
0000
,
0001
0000
0000
0000
,
0100
0000
0000
0000
,
0010
0000
0000
0000
,
1000
0000
0000
0000
,
0001
0000
0000
0000
,
0001
0000
0000
0000
,
1000
0000
0000
0000
,
1000
0000
0000
0000
,
0100
0000
0000
0000
,
0100
0000
0000
0000
,
0010
0000
0000
0000
,
0010
0000
0001
0000
,
1000
0000
1000
0000
,
1000
0000
1000
0000
,
0001
0000
0001
0000
,
0001
0000
0001
0000
,
0100
0000
0100
0000
,
0100
0000
0100
0000
,
0010
0000
0010
0000
,
0010
0000
0010
0000
,
1000
0000
0000
0000
,
0001
0000
0000
0000
,
0100
0000
0000
0000
,
0010
0000
0100
0000
,
1001
0000
0000
0000
;

//---------------dance-single - t7r----------------
#NOTES:
     dance-single:
     t7r:
     Easy:
     3:
     :
0000
0000
0000
0000
,
0000
0000
0000
0000
,
0000
0000
0000
0000
,
0000
0000
0000
0000
,
0000
0000
0000
0000
,
0020
0000
0000
0000
,
0000
0130
0100
0100
,
0200
0000
0000
0000
,
0300
0001
0001
0001
,
0002
0000
0000
0000
,
0003
1000
1000
1000
,
0020
0030
2000
3000
,
0000
0000
0000
1001
,
0002
0000
0000
0003
,
0200
0000
0000
0300
,
0020
0000
0000
0030
,
2000
0000
0000
3100
,
2000
0000
0000
3000
,
0020
0000
0000
0030
,
0200
0000
0000
0300
,
0001
0000
1000
0001
,
1001
0010
0000
0010
,
0100
0001
0000
0001
,
0100
0010
0000
0010
,
1000
0200
2300
3001
,
1001
0100
0000
0100
,
0001
1000
0000
1000
,
0010
1000
0000
0001
,
0100
0010
2002
3003
,
0001
0001
1000
1000
,
0001
1000
0001
1000
,
0001
0001
1000
1000
,
0001
1000
0001
2001
,
3010
0010
0100
0100
,
0010
0100
0010
0100
,
0010
0010
0100
0100
,
0010
1000
0001
1001
,
2000
0000
0000
3000
,
0020
0000
0000
0030
,
0200
0000
0000
0300
,
0002
0000
0000
0003
,
2002
0000
0000
3003
;

//---------------dance-single - t7r----------------
#NOTES:
     dance-single:
     t7r:
     Medium:
     8:
     :
0000
0000
0000
0000
,
0000
0000
0000
0000
,
0000
0000
0000
0000
,
0000
0000
0000
0000
,
0000
0000
0000
0000
,
2000
0001
0001
0001
,
0100
0010
0001
3100
,
0002
1000
1000
1000
,
0100
0010
1000
0103
,
0020
0100
0100
0100
,
0001
1000
0100
1030
,
0200
0010
0010
0010
,
1000
0001
0010
0301
,
2001
0001
0001
0001
,
3100
0010
0100
0010
,
1002
1000
1000
1003
,
0100
0010
0100
0010
,
2100
0100
0100
3100
,
0010
0100
1000
0001
,
0102
0100
0100
0103
,
0010
1000
2002
3003
,
0001
0000
1000
0000
0001
0100
0001
0000
,
0001
0000
1000
0000
0001
0100
0001
0000
,
1000
0000
0001
0000
1000
0100
1000
0000
,
0010
0200
0320
1030
,
1001
0000
0100
0000
0010
1000
0100
0000
,
1000
0000
0100
0000
0010
0001
0100
0000
,
0001
0000
0100
0000
0010
1000
0001
0000
,
1000
0000
0001
0000
0100
0000
0000
1001
0000
0000
1000
0000
0001
0000
1000
0000
,
0002
0010
0010
0010
0100
0100
1000
1003
,
2000
0010
0010
0010
0100
0100
0001
3001
,
0200
0010
0010
0010
1000
1000
0001
0301
,
0020
0100
0100
0130
1000
1000
2002
3003
,
0110
0010
0100
0100
0001
0001
1000
1000
,
0100
0010
0001
1000
1000
0100
0100
0100
,
0010
0100
1000
0010
0010
0100
0100
0001
,
1000
0000
0001
0000
0100
0000
0000
0101
0000
0000
0001
0000
1000
0000
0100
0000
,
0020
0100
0100
0130
,
2000
0001
0001
3001
,
0002
0100
0100
0103
,
0020
0100
0001
1030
,
2002
0000
0000
3003
;

//---------------dance-single - t7r----------------
#NOTES:
     dance-single:
     t7r:
     Hard:
     12:
     :
0000
0000
0000
0000
,
0000
0000
0000
0000
,
0000
0000
0000
0000
,
0000
0000
0000
0000
,
0000
0000
0000
0000
,
2001
0000
3010
0010
0010
0010
0010
0010
,
0200
0010
1000
0301
,
1002
0000
0103
0100
0100
0100
0100
0100
,
0020
1000
0100
0031
,
1200
0000
1300
1000
1000
1000
1000
1000
,
0002
0010
0100
1003
,
0021
0000
0031
0001
0001
0001
0001
0001
,
2000
0000
0000
0000
3010
0000
0000
0000
0110
0000
0000
0001
1000
0000
0001
0000
,
0101
0000
0000
0001
1000
0000
0010
0000
0100
0000
0001
0000
1000
0000
0100
0000
,
0010
0012
0100
0013
,
1100
0000
0000
1000
0010
0000
0100
0000
0001
0000
1000
0000
0001
0000
0010
0000
,
0120
1000
0001
0130
,
0101
0000
0000
0100
0001
0000
0010
0000
0100
0000
1000
0000
0100
0000
0010
0000
,
0001
2100
0010
3001
,
0101
0000
0000
0001
1000
0000
0001
0000
0100
0000
0010
0000
1000
0000
0001
0000
,
1001
0000
0010
0000
1000
0100
0000
1001
0000
0000
0010
0100
0010
0100
0010
0100
,
0001
0000
1000
0000
0100
0000
0010
0100
0000
0010
0100
0000
1000
0000
0001
0000
,
0100
0000
0010
0000
1000
0000
0001
0100
0000
0100
0000
0001
1000
0000
0001
0000
,
0010
0000
0100
0000
1000
0000
0100
0010
0000
0100
0010
0000
0001
0000
1000
0000
,
0100
0000
0010
0000
0100
0000
1000
0010
0000
0010
0000
0100
0001
0000
0000
0000
,
1001
0000
1000
0000
0001
0000
0100
0001
0000
0100
0001
0000
0010
0000
1000
0000
,
0010
0000
0001
0000
0100
0000
0010
1000
0000
1000
0000
0001
0100
0000
0001
0000
,
1000
0000
0100
0000
0001
0000
0100
1000
0000
0100
1000
0000
0010
0000
0100
0000
,
0001
0000
1000
0000
1001
0000
0000
0110
0000
0000
0010
1000
0010
1000
0010
1000
,
0001
0001
0100
0001
0001
1000
0001
1000
,
0010
0010
1000
0100
0100
0010
0100
1000
,
0001
0001
0100
0010
0010
1000
0001
1000
,
0100
0100
0010
0001
0100
0010
2020
3030
,
1001
1000
0100
0010
0010
0100
1000
0001
,
0100
0100
0001
0010
0010
0001
1000
0100
,
0010
0010
0100
1000
1000
0001
0100
0001
,
1000
0000
0010
0000
0100
0000
0001
1001
0000
0000
0001
0010
0001
0010
0100
1000
,
0100
0000
0000
0100
1000
0000
0010
0000
0100
0000
0001
0000
1000
0000
0001
0000
,
2100
0010
0001
3100
,
0011
0000
0000
0001
1000
0000
0010
0000
1000
0000
0100
0000
0010
0000
0100
0000
,
1000
0000
0000
1000
0100
0000
0010
0000
0001
0000
1000
0000
0001
0000
0000
0000
,
2002
0000
0000
3003
;

//---------------dance-single - t7r----------------
#NOTES:
     dance-single:
     t7r:
     Challenge:
     15:
     :
0000
0000
0000
0000
,
0000
0000
0000
0000
,
0000
0000
0000
0000
0000
0000
0000
0000
0000
0000
0000
0000
0000
0000
0001
0001
,
0002
0000
0000
0003
,
2002
0000
0000
0000
0000
0000
0000
0000
3003
0000
0000
0000
0000
0000
0000
0000
2010
0000
0000
0000
0000
0000
3000
0001
1000
0000
0000
0000
0000
0000
0000
0000
,
0012
0000
0103
0101
0001
0010
0100
1000
,
0100
0010
0120
0000
0032
0000
1003
0000
,
0120
0000
1030
1100
1000
0100
0010
0001
,
1000
0010
0102
0000
2003
0000
3100
0000
,
0210
0000
0301
1001
0010
0100
0010
1000
,
0001
0100
2010
0000
3002
0000
0013
0000
,
0021
0000
0031
1001
0010
0001
1000
0100
,
0001
0000
0100
0000
1000
0000
0010
0000
0100
0000
0001
1000
0001
0000
1000
0000
,
1001
0000
0000
1000
0100
0000
0011
0000
0100
0000
1000
0000
1010
0000
0100
0000
,
0001
1000
2010
0000
3200
0000
0310
0100
,
1100
0000
0000
0100
1000
0000
0100
0000
0010
0000
0001
0000
1001
0000
0010
0100
,
0001
0010
0012
0000
1003
0100
1010
0000
,
0110
0000
0000
0100
0001
0000
1001
0000
0100
0000
0010
0000
0101
0000
0001
0000
,
0010
0000
0100
0000
2001
0000
0000
0000
3010
0000
0100
0001
1000
0000
0001
0010
,
0100
0000
0010
0001
0010
0000
0100
0000
1000
0000
0100
0010
0001
0000
1000
0001
,
0100
0000
0101
0000
1000
0010
0000
1001
0000
0100
0001
1000
0001
1000
0001
1000
,
0001
0000
0010
0100
1000
0000
0100
0010
0000
0001
0100
0100
0010
0000
0100
0010
,
1000
0100
1000
0000
0001
0000
1000
0010
0000
1000
0100
0100
0010
0000
0001
1000
,
0100
0000
0010
0001
0100
0000
0010
1000
0000
0001
0010
0010
0100
0000
0010
0001
,
1000
0100
0001
0100
1000
0000
0001
0010
1000
0010
0001
0000
1001
0000
0000
0000
,
1010
0000
0001
0100
0010
0000
1000
0100
0000
0010
0100
0100
1000
0000
0001
0010
,
0100
0010
0001
0000
1000
0000
0001
0100
0000
0010
0100
0100
0001
0000
1000
0010
,
0001
0010
1000
0000
0001
0000
1000
0100
0000
0001
0100
0100
1000
0000
0001
1000
,
0100
1000
0010
0000
0100
0010
0000
1001
0000
0010
1000
0001
0010
0100
0010
0100
,
0010
0001
0010
0001
1000
0100
1000
0100
1000
0010
1000
0010
0001
0010
0001
0010
,
1000
0100
0010
0100
0010
0100
0001
0100
0010
0100
0010
0100
1000
0100
0010
0001
,
1000
0010
1000
0010
0001
0010
0001
0010
1000
0100
1000
0100
0001
0100
0001
0100
,
0010
0001
0100
0001
0010
1000
0100
1000
0010
0001
0100
0001
0020
0000
0000
0000
,
0031
0010
0100
1000
0001
0010
0100
1000
0001
0001
0010
0010
0100
0100
1000
1000
,
0010
1000
0100
0001
0100
1000
0010
0001
0010
1000
0100
0001
0010
1000
0010
0001
,
0100
0100
0100
0100
0010
0010
0010
0010
1000
1000
1000
1000
0001
0001
0001
0001
,
0010
0001
0100
1000
0010
0000
0100
0011
0000
1000
0001
1000
0001
1000
0010
0100
,
0101
0000
0001
0100
0010
0000
0100
0000
0001
0000
0010
0100
1000
0000
0100
0010
,
0001
1000
2010
3100
0012
0103
2001
3010
,
1001
0000
1000
0010
0100
0000
0010
0000
1000
0000
0001
0010
0100
0000
0010
0000
,
0001
0000
0100
0010
1000
0000
0011
0000
0100
0000
0001
0010
0100
0000
1010
0000
,
2002
0000
0000
3003
;
