#TITLE:Don't be afraid myself;
#ARTIST:platoniX with ray.D;
#BANNER:Don't be afraid myself.png;
#BACKGROUND:Don't be afraid myself-bg.png;
#JACKET:Don't be afraid myself-jacket.png;
#CDTITLE:./CDTITLES/BEATMANIA IIDX.PNG;
#MUSIC:Don't be afraid myself.ogg;
#SAMPLESTART:54.364;
#SAMPLELENGTH:15;
#BPMS:0=165;

//---------------dance-single - t7r----------------
#NOTES:
     dance-single:
     t7r:
     Beginner:
     2:
     :
0000
0000
0000
0000
,
0000
0000
0000
0000
,
0000
0000
0000
0000
,
0000
0000
0000
0000
,
0000
0000
0000
0000
,
0000
0000
0000
0000
,
0100
0000
0000
0000
,
0010
0000
0000
0000
,
1000
0000
0000
0000
,
0001
0000
0000
0000
,
1000
0000
0000
0000
,
0001
0000
0000
0000
,
0100
0000
0000
0000
,
0001
0000
1000
0000
,
0010
0000
0000
0000
,
1000
0000
0000
0000
,
0100
0000
0010
0000
,
0001
0000
0100
0000
,
0010
0000
0000
0000
,
1000
0000
0000
0000
,
0001
0000
0000
0000
,
0001
0000
0000
0000
,
1000
0000
0000
0000
,
1000
0000
0000
0000
,
0100
0000
0000
0000
,
0100
0000
0000
0000
,
1000
0000
0010
0000
,
0100
0000
0001
0000
,
1001
0000
0000
0000
,
0100
0000
0000
0000
,
0110
0000
0000
0000
,
0010
0000
0000
0000
,
1001
0000
0000
0000
,
0001
0000
0000
0000
,
1000
0000
0000
0000
,
1000
0000
1000
0000
,
0001
0001
0001
0000
,
0000
0000
0000
0000
,
0110
0000
0000
0000
,
0010
0000
0000
0000
,
0100
0000
0000
0000
,
0010
0000
1000
0000
,
0001
0000
0000
0000
,
0001
0000
0000
0000
,
1000
0000
0000
0000
,
0100
0000
0100
0000
,
1001
0000
0000
0000
,
0000
0000
0000
0000
,
0110
0000
0000
0000
,
0000
0000
0000
0000
,
0010
0000
0000
0000
,
0100
0000
0000
0000
,
0001
0000
0000
0000
,
1000
0000
1000
1000
,
1000
0000
0000
0000
,
0000
0000
0000
0000
,
0001
0000
0000
0000
,
0100
0000
0001
0000
,
1000
0000
0000
0000
,
0010
0000
0000
0000
,
1000
0000
0000
0000
,
0100
0000
0000
0000
,
1000
0000
0000
0000
,
0001
0000
0000
0000
,
0100
0000
0000
0000
,
0001
0000
1000
0000
,
0001
0000
0001
0000
,
0001
0000
0001
0000
,
1000
0000
1000
0000
,
1000
0000
1000
0000
,
0001
0000
0000
0000
,
0100
0000
0000
0000
,
0001
0000
0000
0000
,
1000
0000
0000
0000
,
0010
0000
0000
0000
,
1000
0000
0000
0000
,
0001
0000
0000
0000
,
1000
0000
0000
0000
,
0100
0000
0100
0000
,
0100
0000
0010
0000
,
0000
1001
0000
0000
;

//---------------dance-single - t7r----------------
#NOTES:
     dance-single:
     t7r:
     Easy:
     6:
     :
0000
0000
0000
0000
,
0000
0000
0000
0000
,
0000
0000
0000
0000
,
0000
0000
0000
0000
,
0000
0000
0000
0000
,
0000
0000
0000
0000
,
1000
1000
0001
0100
,
0001
0001
1000
0100
,
1000
0010
0200
0300
,
0010
0100
2002
3003
,
0001
0001
1000
0100
,
1000
1000
0001
0100
,
0010
0010
1000
0010
,
0100
0100
0001
1000
,
0001
0001
1000
0100
,
0010
0010
0100
1000
,
0010
0010
1000
0001
,
0100
0100
0010
0100
,
2002
0000
0000
3003
,
0220
0000
0000
0330
,
0010
0010
0010
0010
,
1000
1000
0001
0001
,
1000
1000
1000
1000
,
0100
0100
0010
0010
,
1001
0001
0001
0001
,
0100
0100
0001
0001
,
1000
1000
1000
1000
,
0010
1000
0001
0100
,
1001
0000
0000
0000
,
0110
0000
0010
0100
,
1001
0000
0000
0000
,
1100
0000
0001
0100
,
0101
0000
0000
0000
,
1010
0000
0010
1000
,
1001
0000
0110
0000
,
1000
1000
0001
0001
,
0100
0010
2002
3003
,
0000
0000
0000
1000
,
1001
0000
0010
0100
,
1001
0000
0100
0010
,
0100
0100
0010
0010
,
1000
0001
0100
0001
,
1000
0100
1000
0100
,
0001
0100
0001
0100
,
1000
0010
1000
0010
,
0001
0010
0001
0010
,
1001
0000
0010
0100
,
0001
1000
0100
0010
,
0200
0300
1000
0100
,
0010
0100
1000
0010
,
2000
3000
0001
0100
,
0002
0003
2000
3000
,
0020
0030
0100
0010
,
1000
0001
1001
0110
,
1001
0000
1000
1000
,
1000
1000
1000
1000
,
0001
0001
0001
0001
,
0001
0001
0001
0001
,
1000
0010
0100
0001
,
2002
0000
0000
3003
,
0010
1000
0001
0100
,
0220
0000
0000
0330
,
1010
0000
0000
0000
,
0101
0000
0000
0000
,
1100
0000
0000
0000
,
0020
0030
0002
0003
,
0100
0100
0100
0010
,
0100
0100
0100
0010
,
1000
1000
1000
0001
,
1000
0100
0010
0001
,
1001
0000
0010
0100
,
1001
0000
0100
0010
,
1001
0010
1000
0001
,
0100
0001
1000
0100
,
1000
0100
0010
0001
,
1000
0100
1000
0100
,
1000
0010
0100
0001
,
1000
0010
1000
0001
,
0100
0100
0100
0100
,
0010
0000
0000
0000
0100
0000
0000
0000
0001
0000
0000
0001
0000
0000
0001
0000
,
0000
2002
0000
0000
,
0000
0000
0000
0000
,
0000
3003
0000
0000
;

//---------------dance-single - t7r----------------
#NOTES:
     dance-single:
     t7r:
     Medium:
     9:
     :
0000
0000
0000
0000
,
0000
0000
0000
0000
,
0000
0000
0000
0000
,
0000
0000
0000
0000
,
0000
0000
0000
0000
,
0000
0000
0000
0000
0000
0000
0000
1000
,
0010
0000
1000
0000
0100
0000
0010
0001
,
0100
0000
0001
0000
1000
0000
0010
1000
,
0001
0000
1000
0000
0020
0000
0030
0100
,
0001
1001
0220
0330
,
1000
0000
0000
1000
0000
0000
1000
0000
0000
0010
0000
0000
0100
0000
0001
0000
,
1000
0000
0000
1000
0000
0000
1000
0000
0000
0001
0000
0000
1000
0000
0100
0000
,
0010
0000
0000
0100
0000
0000
0010
0000
0000
0001
0000
0000
1000
0000
0100
0000
,
1000
0000
0000
0001
0000
0000
1000
0000
0000
0010
0000
0000
0100
0000
0001
0000
,
0100
0000
0000
0100
0000
0000
0100
0000
0000
0100
0000
0000
0010
0000
0100
0000
,
0010
0000
0000
0010
0000
0000
0010
0000
0000
0010
0000
0000
1000
0000
0001
0000
,
1000
0000
0100
0000
0010
0001
1000
0000
,
0001
0000
0100
0000
0010
1000
0001
0000
,
1000
2000
0000
0000
0000
0000
3000
0000
,
0001
0002
0000
0000
0000
0000
0003
0000
,
1001
1000
0010
1000
,
0001
0100
0001
0001
,
1000
0100
0010
0001
,
1000
0100
0010
0100
,
1001
0010
0100
0010
,
1000
0010
0100
0001
,
1000
0001
0100
0001
,
1000
0100
0010
0000
0001
0010
0100
0000
,
1001
0000
0000
0010
0000
0100
0000
0110
,
0000
1000
0002
0000
0000
0000
0003
0000
,
1100
0000
0000
0001
0000
0010
0000
0001
,
0000
0100
0020
0000
0000
0000
0030
0000
,
0101
0000
0000
1000
0000
0001
0000
1000
,
0000
0001
2000
0000
0000
0000
3000
0000
,
0010
0000
0000
0000
0100
0000
0000
0000
0010
0000
0000
0010
0000
0000
0100
0000
,
0001
0000
0000
1000
0200
0000
0300
0000
,
2000
0000
0000
0000
3000
0000
0000
0000
0001
0000
0000
0001
0000
0000
0002
0000
,
0000
0000
0000
0003
0000
0000
0000
0000
,
1001
0000
0000
0000
0010
1000
0001
0000
,
0110
0000
0000
0000
0010
0100
0001
0000
,
0101
0001
1000
0010
,
1000
0100
0010
0001
,
1000
0100
1000
0000
0001
0100
0001
0000
,
1000
0010
1000
0000
0001
0010
0001
0000
,
1000
0100
0010
0001
,
1000
0001
1000
0100
1000
0001
1000
0000
,
1001
0000
0010
0100
0001
1000
0000
0001
,
0100
0000
0001
0010
0100
0000
1000
0100
,
0010
0000
1000
0010
1000
0001
0100
0001
,
1000
0000
0001
1000
0001
0000
1000
0010
,
0001
0000
0010
1000
0100
0001
0000
1000
,
0100
0000
0000
0000
1001
0000
0010
0100
,
0000
0100
0001
0000
0000
1000
0100
1000
,
0001
0100
0010
1000
0001
0000
1001
0000
,
0010
0010
0010
0100
,
0001
0001
0001
1000
,
0010
1000
0100
0001
,
0100
1000
0010
0001
,
1010
0000
0000
0101
0000
0000
0010
0000
,
2002
0000
0000
3003
,
0001
1000
0001
0100
0001
0010
0001
0100
,
0020
0000
0000
0030
,
1010
0000
0000
0000
,
1100
0000
0000
0000
,
0011
0000
0000
0000
,
0020
0030
0200
0300
,
0001
0001
1000
1000
,
0100
0100
0010
0010
,
0100
1000
0001
0100
,
0010
0100
0010
0000
1000
0001
0100
0000
,
1001
0000
0010
0000
0100
0001
1000
0000
,
1001
0000
0100
0000
1000
0100
0001
0000
,
1000
0000
0001
1000
0000
1010
0000
1001
,
0000
0101
0000
1001
0000
0001
0000
1000
,
0100
0010
0001
0000
0010
0100
1000
0000
,
0001
0100
0001
0000
1000
0010
1000
0000
,
0010
1000
0001
0000
0100
0001
1000
0000
,
0001
0010
0100
0000
1000
0100
0010
0000
,
0001
0100
0100
0100
0100
0100
0100
0100
,
0100
0000
0100
0000
0100
0000
0100
0000
0010
0000
0000
0110
0000
0000
1001
0000
,
0000
0220
0000
0000
,
0000
0000
0000
0000
,
0000
0330
0000
0000
;

//---------------dance-single - t7r----------------
#NOTES:
     dance-single:
     t7r:
     Hard:
     14:
     :
0000
0000
0000
0000
,
0000
0000
0000
0000
,
0000
0000
0000
0000
,
0000
0000
0000
0000
,
0000
0000
0000
0000
,
0000
0000
0000
0000
0000
0000
0000
0000
0000
0000
0000
0000
0000
0000
0010
1000
,
0010
0000
0100
0000
0001
0000
1000
0000
0001
0000
0010
0000
0100
0000
1000
0100
,
1000
0000
0100
0000
0010
0000
0001
0000
0100
0000
0010
0000
1000
0000
0010
0100
,
0010
0000
1000
0000
0001
0000
0100
0000
0002
0000
0000
0000
0003
0000
1000
0010
,
1000
0000
0001
0100
0001
0000
1000
0001
2000
0000
0000
0000
3001
1000
0001
1000
,
0001
0000
0000
0001
0100
0000
0001
0000
1000
0001
0000
0001
1000
0000
0100
0000
,
0010
0000
0000
0010
0100
0000
1000
0000
0100
1000
0000
1000
0001
0000
0100
0000
,
0010
0000
0000
1000
0010
0000
0100
0000
0001
0010
0000
0010
0001
0000
1000
0000
,
0001
0000
0000
0100
0001
0000
0100
0000
0010
0100
0000
0100
0010
0000
1000
0000
,
0100
0010
0000
0001
0010
0000
0100
1000
0000
0001
1000
0000
0010
0000
0100
0000
,
0010
1000
0000
0010
0100
0000
0001
1000
0000
0001
0100
0000
0001
0000
0010
0000
,
0100
0000
0000
0010
0001
0000
0100
0000
0010
1000
0010
0000
1000
0000
0001
0000
,
0100
0010
0100
0010
0100
0000
0001
1000
0000
0100
0000
2001
0000
0000
0000
0000
,
3010
0000
0020
0000
0000
0000
0000
0000
0000
0000
0000
0000
0030
0000
0000
0010
,
0100
0200
0000
0000
0000
0000
0300
0100
,
0010
0010
1000
0001
0100
0100
0001
1000
,
0001
0001
0010
0100
1000
1000
0100
0100
,
1000
1000
0010
0100
0001
0001
1000
0001
,
0010
0010
0001
0010
0100
1000
0100
0010
,
0001
0001
0100
0001
1000
1000
0010
0001
,
0010
0010
1000
0100
0001
0001
0100
1000
,
0010
0010
0100
0001
1000
1000
0001
0100
,
0001
1000
0001
0010
0100
1000
0100
0010
,
0011
0000
0001
0101
0000
1001
0000
0110
,
0000
1000
1100
0000
0010
0001
0100
0010
,
1010
0000
0001
0101
0000
1001
0000
1100
,
0000
0100
1100
0000
0100
0010
0001
0100
,
0110
0000
0010
1010
0000
1000
0001
0011
,
0000
0100
0110
0000
0010
0100
0001
0100
,
0020
0000
0000
0000
0000
0000
0000
0000
1000
0000
0000
1000
0000
0000
0001
0000
,
0001
0000
0000
0100
0200
0000
0330
0000
,
1000
0000
0001
1000
0001
0000
1000
0001
0010
0000
0000
0110
0000
0000
2002
0000
,
0000
0000
3003
0001
0001
0100
0001
1000
,
0100
0000
0000
0100
1000
0000
0010
0000
0100
0000
0001
0000
1000
0000
0001
0000
,
0010
0000
0000
0010
0001
0000
0010
0000
0100
0000
1000
0000
0001
0000
1000
0000
,
0010
0000
0000
1000
0010
0000
0100
0000
0001
0000
0000
0001
1000
0000
0001
0000
,
0100
0000
0000
0001
0100
0000
0010
0000
1000
0010
0000
0010
1000
0000
0001
0000
,
1000
0000
0000
0100
0010
0000
0100
0000
1000
0000
0010
0000
0100
0000
0001
0000
,
1000
0000
0000
0001
0100
0000
0001
0000
0010
0000
0001
0000
0100
0000
0010
0000
,
1000
0100
2000
0000
3001
0100
0002
0000
,
0013
0001
1000
0001
0100
0010
1000
0001
,
1001
0000
0010
0001
0100
1000
0100
0001
,
0020
0000
0130
1000
0010
0001
0010
1000
,
0200
0000
1300
1000
0010
0100
0001
0001
,
0100
0010
0010
1000
0001
0001
0010
0001
,
0200
0000
0301
1000
1000
0001
0100
0010
,
2000
0000
3010
0000
0201
0000
0301
0100
,
0000
0100
0002
0000
1003
0100
0010
0001
,
0100
0001
1000
0001
0100
0000
0120
0000
,
1030
0000
0010
0000
0100
0001
0000
1000
0001
0000
1000
0100
0000
0010
0100
0000
,
1000
0000
0010
0000
0100
0010
0000
1000
0010
0000
0100
0001
0000
1000
0001
0000
,
0010
0000
0001
0000
0010
0100
0000
0010
0001
0000
0100
0010
0000
1000
0001
0000
,
0100
0000
0001
0000
1000
0010
0000
0100
0001
0000
1000
0100
0000
0010
0100
0000
,
1100
0100
0010
1001
0000
0001
0101
0000
,
2020
0000
0000
3030
,
0010
0000
0100
0000
0001
0000
1000
0000
0010
0000
0100
0000
0001
1000
0001
1000
,
0002
0000
0000
0003
,
2002
0000
0000
3003
,
0220
0000
0000
0330
,
2020
0000
0000
3030
,
0002
0003
0200
0300
,
0012
1000
0100
1003
,
2001
0100
0001
3010
,
0102
0010
1000
0103
,
1000
0000
0001
0100
0001
0000
1000
0000
0100
0000
1000
0001
1000
0000
0000
0000
,
1001
0000
0000
0001
0100
0000
0001
0000
1000
0001
0000
0001
1000
0000
0010
0000
,
0100
0000
0000
0010
0100
0000
0010
0000
1000
0010
0000
0010
1000
0000
0001
0000
,
0010
0000
0000
0010
0100
0000
1000
0000
0001
1000
0000
0100
1000
0000
0001
0000
,
1000
0000
0000
0010
0100
0000
0010
0000
1000
0100
0000
0010
0001
0000
1000
0000
,
1001
0000
0000
0010
0100
0000
0010
0000
1000
0100
0000
0100
0010
0000
0100
0000
,
0010
0000
0000
0010
0001
0000
0100
0000
0010
1000
0000
1000
0010
0000
1000
0000
,
1100
0000
0000
0100
1000
0000
0001
0000
0100
0001
0000
0010
1000
0000
0010
0000
,
0001
0000
0000
1000
0010
0000
0100
0000
0001
0100
0000
1000
0100
0000
0010
0000
,
1000
1000
1000
1000
1000
1000
0001
0001
,
0100
0000
0010
0000
1000
0000
0001
1000
0001
0000
0000
0110
0000
0000
1001
0000
,
0000
0220
0000
0000
,
0000
0000
0000
0000
,
0000
0330
0000
0000
;

//---------------dance-single - t7r----------------
#NOTES:
     dance-single:
     t7r:
     Challenge:
     17:
     :
0000
0000
0000
0000
,
0000
0000
0000
0000
,
0000
0000
0000
0000
,
0000
0000
0000
0000
,
0000
0000
0000
0000
,
0000
0000
0000
0000
0000
0000
0000
0000
0000
0000
0000
0000
0000
0000
0001
0010
,
0001
0000
1000
0000
0100
0000
0001
0000
0100
0000
1000
0000
0010
0000
0100
0001
,
1000
0000
0010
0000
0001
0000
0010
0000
1000
0000
0100
0000
0010
0000
0100
1000
,
0010
0000
0100
0001
0010
0000
0100
1000
0002
0000
0000
0000
0103
0000
0010
1000
,
0100
0000
0010
0001
0100
0000
0010
1000
0002
0000
0000
0000
1003
0100
1000
0100
,
0010
0000
0100
1000
0000
0000
1020
0000
0000
1030
0010
0000
1000
0100
1000
0000
,
0010
0000
0100
0001
0000
0000
0021
0000
0000
0031
0010
0000
0001
0100
0001
0000
,
1000
0000
0010
0100
0000
0010
1000
0000
0001
0010
0000
0010
0001
0000
1000
0000
,
0001
0000
0010
0100
0000
0010
0001
0000
1000
0100
0000
0100
1000
0000
0001
0000
,
1000
0010
0000
0010
0001
0000
0001
0010
0000
0010
1000
0000
0100
0000
0001
0000
,
0100
1000
0000
1000
0010
0000
0010
0100
0000
0100
0001
0000
0010
0000
0001
0000
,
1000
0000
0100
1000
0100
0000
1000
0000
0001
0100
0001
0000
1000
0000
0010
0000
,
0100
0010
0100
0010
1000
0001
1000
0001
1000
0100
0010
0001
2000
0000
0000
0000
,
3001
0000
0012
0000
0100
0000
0000
0000
0010
0000
0000
0000
1003
0000
0000
0001
,
1000
0000
2001
0000
0100
0000
0000
0000
3010
0000
0000
0000
0100
0010
0100
0010
,
1000
0100
1000
0000
0010
0000
0010
0000
1000
0100
1000
0000
0010
0000
0010
0000
,
1000
0100
1000
0000
0001
0000
0001
0000
1000
0100
0010
0000
0001
0010
0100
0000
,
0010
0001
0010
0000
0001
0000
0001
0000
1000
0010
1000
0000
0010
0000
0010
0000
,
0100
0010
0100
0000
0001
0000
0001
0000
1000
0100
1000
0000
0001
0100
0001
0000
,
1000
0001
0010
0000
0001
0000
0001
0000
1000
0100
1000
0000
0010
0000
0010
0000
,
0100
0001
0100
0000
0001
0000
0001
0000
0010
0100
1000
0000
0100
0010
0001
0000
,
1000
0100
1000
0000
0001
0000
0001
0000
0100
0010
1000
0000
0010
0000
0010
0000
,
0100
0001
1000
0100
1000
0001
0010
0001
1000
0100
1000
0100
0010
0001
0010
0001
,
1000
0000
1010
0120
0000
1030
0010
0210
,
0000
0000
0301
0000
0012
0000
0000
0000
1003
0000
1000
0000
0100
1000
0100
1000
,
0020
0000
0130
0102
0000
1003
0001
2001
,
0000
0000
3001
1000
0002
0000
0000
0000
0103
0000
0100
0000
0010
0100
0001
1000
,
0002
0000
0013
0120
0000
0130
1000
1020
,
0000
0000
0130
0000
0102
0000
0000
0000
1003
0000
1000
0000
0001
1000
0100
0000
,
2200
0000
0000
0000
3300
0000
0000
0000
0110
0000
0000
0011
0000
0000
0110
0000
,
0101
0000
0001
0000
0001
0000
1000
0001
0100
0000
0100
0000
0010
0000
0010
0000
,
1000
0100
1000
0100
0010
0100
0010
0100
1000
0000
0000
1001
0000
0000
0210
0000
,
0000
0000
0000
0001
0001
1000
1000
0301
,
0101
0000
0000
0001
0100
0000
0001
0000
0010
0001
0000
0001
0010
0001
1000
0000
,
1001
0000
0000
1000
0100
0000
1000
0000
0010
1000
0000
1000
0010
1000
0001
0000
,
0101
0000
0001
0010
0000
0010
0100
0000
0010
0001
0000
0001
1000
0001
0100
0000
,
0010
0000
1000
0010
0000
0010
0100
0000
0010
1000
0000
1000
0001
0000
1000
0000
,
0001
0010
0000
0010
1000
0000
1000
0010
0000
0010
0001
0000
0100
0000
0010
0000
,
1000
0100
0000
0100
0001
0000
0001
0100
0000
0100
1000
0000
0010
0000
0100
0000
,
0010
1000
0000
0001
0100
0000
0001
0000
0010
0001
0000
0001
1000
0000
0001
0000
,
1000
0100
1000
0100
0010
0100
0010
0100
1000
0100
0010
0100
1000
0010
0100
0001
,
1000
0010
0100
0001
0001
0010
0100
1000
,
0001
0010
0200
0000
0310
0001
0100
1000
,
0100
0001
0020
0000
0031
1000
0010
0100
,
0001
0010
0010
0100
0100
1000
1000
0010
,
0010
0100
0001
0001
1000
0010
0100
0001
,
1000
0100
0001
0100
2000
0000
3010
0200
,
0000
0301
0020
0000
0000
0031
0100
0001
,
1000
0010
0001
0010
1000
0100
0002
0000
,
0103
1000
0100
0000
1000
0010
0000
0010
1000
0000
0001
0100
0000
0100
0001
0000
,
0010
0001
0010
0000
0001
1000
0000
1000
0001
0000
0100
0010
0000
0010
0100
0000
,
0010
1000
0100
0000
0010
0001
0000
0001
1000
0000
0001
0100
0000
0100
0010
0000
,
0100
0001
0010
0000
0100
0010
0000
0010
0001
0000
1000
0100
0000
0100
1000
0000
,
0110
0000
0001
1000
0100
0000
1001
0000
0010
0100
0001
0000
0010
0000
0001
0000
,
1100
0000
0001
0010
0100
0000
0010
0000
0001
0000
0100
0010
1000
0000
0001
0000
,
1000
0010
1000
0010
0100
0001
0100
0001
1000
0100
0010
0100
1000
0010
0100
0001
,
2000
0000
0000
0001
0001
0001
0010
3001
,
1010
0001
0100
0010
0100
0001
0010
1000
,
0011
1000
0100
0010
0100
1000
0010
0001
,
1100
0001
0100
0010
0100
0001
1000
0010
,
0101
0010
1000
0100
0010
0100
1000
0001
,
0101
0000
0000
0001
0100
0000
0001
0000
0010
0000
0001
0000
1000
0001
1000
0000
,
0010
0000
0000
0010
1000
0000
0010
0000
0100
0000
0010
0000
1000
0100
1000
0000
,
0010
0000
0000
0010
0100
0000
0001
0000
1000
0000
0001
0000
1000
0100
1000
0000
,
0001
0100
0001
0100
0001
0010
0001
0010
0100
1000
0001
1000
0010
0100
0001
1000
,
0001
0000
0000
0010
0100
0000
0010
0000
0001
1000
0100
0000
1000
0001
0100
0000
,
0110
0000
0000
0010
1000
0000
0100
0000
0010
0100
1000
0000
0010
0100
0001
0000
,
0101
0000
0000
0001
0100
0000
0001
0000
0010
0001
0000
1000
0001
1000
0100
0000
,
1000
0000
0000
0010
0100
0000
0010
0000
1000
0010
0000
1000
0001
0010
0001
0000
,
1000
0000
0001
0100
0001
0000
1000
0010
1000
0001
0000
0001
0010
0000
0001
0000
,
1000
0000
0001
0010
0001
0000
1000
0100
0010
0100
0000
0100
1000
0000
0010
0000
,
0100
0000
0010
1000
0100
0000
0110
0000
0001
0100
0010
0000
0100
0000
0001
0000
,
1001
0000
0010
1000
0001
0000
0101
0000
0001
0010
0100
0000
0110
0000
0010
0000
,
0011
0000
0001
0100
1000
0000
1000
0100
0001
0000
0001
0010
1000
0000
1000
0010
,
0001
0100
0001
0100
0010
1000
0001
0010
0100
0000
0000
1100
0000
0000
0011
0000
,
0000
2002
0000
0000
,
0000
0000
0000
0000
,
0000
3003
0000
0000
;
