#TITLE:Do it!! Do it!!;
#ARTIST:Kraken;
#BANNER:Do it!! Do it!!.png;
#BACKGROUND:Do it!! Do it!!-bg.png;
#JACKET:Do it!! Do it!!-jacket.png;
#CDTITLE:./CDTITLES/BEATMANIA IIDX.PNG;
#MUSIC:Do it!! Do it!!.ogg;
#OFFSET:-2.401;
#SAMPLESTART:82.4;
#SAMPLELENGTH:15;
#SELECTABLE:YES;
#BPMS:0=300;

//---------------dance-single - ----------------
#NOTES:
     dance-single:
     :
     Beginner:
     4:
     0.165,0.357,0.009,0.000,0.000:
0000
0000
0000
0000
,
0000
0000
0000
0000
,
0000
0000
0000
0000
,
0000
0000
0000
0000
,
0000
0000
0000
0000
,
0000
0000
0000
0000
,
1000
0000
0000
0000
,
0100
0000
0000
0000
,
1000
0000
0000
0000
,
0100
0000
0000
0000
,
0010
0000
0000
0000
,
0001
0000
0000
0000
,
0010
0000
0000
0000
,
0001
0000
0000
0000
,
1000
0000
0000
0000
,
0001
0000
0000
0000
,
1000
0000
0000
0000
,
0001
0000
0001
0000
,
1000
0000
0000
0000
,
0001
0000
0000
0000
,
0001
0000
0000
0000
,
0100
0000
0000
0000
,
0010
0000
0000
0000
,
0000
0000
0000
0000
,
0100
0000
0000
0000
,
0000
0000
0000
0000
,
0010
0000
0000
0000
,
1000
0000
0000
0000
,
0001
0000
0000
0000
,
0100
0000
0000
0000
,
0010
0000
0000
0000
,
1000
0000
0000
0000
,
0010
0000
0000
0000
,
0100
0000
0000
0000
,
0001
0000
0000
0000
,
0100
0000
0000
0000
,
0001
0000
0000
0000
,
0010
0000
0000
0000
,
0100
0000
1000
0000
,
1000
0000
1000
0000
,
1000
0000
0000
0000
,
0100
0000
0000
0000
,
0010
0000
0000
0000
,
0010
0000
0000
0000
,
0010
0000
0000
0000
,
0001
0000
0000
0000
,
1000
0000
0000
0000
,
0001
0000
0000
0000
,
1000
0000
0000
0000
,
1000
0000
0000
0000
,
0001
0000
0000
0000
,
0100
0000
0000
0000
,
0001
0000
0000
0000
,
1000
0000
0000
0000
,
0001
0000
0000
0000
,
1000
0000
0000
0000
,
0010
0000
0000
0000
,
0000
0000
0000
0000
,
0100
0000
0000
0000
,
0000
0000
0000
0000
,
0000
0000
0000
0000
,
0000
0000
0000
0000
,
0000
0000
0000
0000
,
0000
0000
0000
0000
,
0000
0000
0000
0000
,
0000
0000
0000
0000
,
0000
0000
0000
0000
,
0000
0000
0000
0000
,
0010
0000
0000
0000
,
0000
0000
0000
0000
,
0100
0000
0000
0000
,
0000
0000
0000
0000
,
0010
0000
0000
0000
,
0000
0000
0000
0000
,
1000
0000
0000
0000
,
0000
0000
0000
0000
,
0001
0000
0000
0000
,
0000
0000
0000
0000
,
0001
0000
0000
0000
,
0000
0000
0000
0000
,
0100
0000
0000
0000
,
0010
0000
0010
0000
,
0100
0000
0000
0000
,
0001
0000
0001
0000
,
1000
0000
0000
0000
,
1000
0000
1000
0000
,
0001
0000
0000
0000
,
0001
0000
0001
0000
,
1000
0000
0000
0000
,
0001
0000
0000
0000
,
0100
0000
0000
0000
,
0010
0000
0000
0000
,
1000
0000
0000
0000
,
0001
0000
0000
0000
,
1000
0000
0000
0000
,
0100
0000
0000
0000
,
0010
0000
0010
0000
,
0010
0000
0010
0000
,
1001
0000
0000
0000
,
0000
0000
0000
0000
,
0000
0000
0000
0000
,
0000
0000
0000
0000
,
0100
0000
0100
0000
,
0010
0000
0010
0000
,
0100
0000
0100
0000
,
0010
0000
0000
0000
,
1000
0000
1000
0000
,
0001
0000
0001
0000
,
1000
0000
1000
0000
,
0001
0000
0000
0000
,
0001
0000
0001
0000
,
1000
0000
1000
0000
,
0001
0000
0001
0000
,
1000
0000
0000
0000
,
0001
0000
0000
0000
,
1000
0000
0000
0000
,
0100
0000
0100
0000
,
0010
0000
0000
0000
,
1000
0000
0000
0000
,
0100
0000
0000
0000
,
0010
0000
0010
0000
,
0001
0000
0000
0000
,
0001
0000
0000
0000
,
0010
0000
0000
0000
,
0100
0000
0100
0000
,
1000
0000
0000
0000
,
0001
0000
0000
0000
,
1000
0000
0000
0000
,
0001
0000
0000
0000
,
0100
0000
0000
0000
,
0010
0000
0000
0000
,
1000
0000
0000
0000
,
0001
0000
0000
0000
,
1000
0000
0000
0000
,
0001
0000
0000
0000
;

//---------------dance-single - ----------------
#NOTES:
     dance-single:
     :
     Easy:
     8:
     0.317,0.551,0.160,0.080,0.000:
0000
0000
0000
0000
,
0000
0000
0000
0000
,
0000
0000
0000
0000
,
0000
0000
0000
0000
,
0000
0000
0000
0000
,
0000
0000
0000
0000
,
1000
0000
0100
0000
,
1000
0000
1000
0000
,
0001
0000
0100
0000
,
0001
0000
0001
0000
,
1000
0000
0001
0000
,
1000
0000
1000
0000
,
0001
0000
0010
0000
,
0100
0000
0100
0000
,
1000
0000
0000
0000
,
0100
0000
0000
0000
,
0010
0000
0000
0000
,
0001
0000
0001
0000
,
0001
0000
0010
0000
,
0100
0000
0100
0000
,
1000
0000
0001
0000
,
1000
0000
0001
0000
,
2002
0000
0000
0000
,
0000
0000
0000
3003
,
0200
0000
0000
0000
,
0000
0000
0000
0300
,
0010
0000
0010
0000
,
0100
0000
0100
0000
,
0010
0000
1000
0000
,
0001
0000
1000
0000
,
0001
0000
0001
0000
,
1000
0000
0001
0000
,
0100
0000
0001
0000
,
1000
0000
0001
0000
,
1001
0000
0001
0000
,
0010
0000
0100
0000
,
1000
0000
0100
0000
,
0100
0000
1000
0000
,
1000
0000
0001
0000
,
0001
0000
0100
0000
,
0001
0000
1000
0000
,
0001
1000
0001
0000
,
1000
0000
0010
0000
,
0100
0000
0001
0000
,
0100
0000
0010
0000
,
1000
0000
0010
0000
,
0100
0000
0001
0000
,
1000
0000
0001
0000
,
1000
0000
0001
0000
,
1000
0000
0100
0000
,
0010
0000
0001
0000
,
0001
0000
0001
0000
,
0010
0000
1000
0000
,
1000
0000
1000
0000
,
0010
0000
0100
0000
,
0010
0000
1000
0000
,
0002
0000
0000
0000
,
0000
0000
0000
0003
,
2002
0000
0000
0000
,
0000
0000
0000
3003
,
0000
0000
0000
0000
,
0000
0000
0000
0000
,
0000
0000
0000
0000
,
0000
0000
0000
0000
,
0000
0000
0000
0000
,
0000
0000
0000
0000
,
0000
0000
0000
0000
,
0000
0000
0000
0000
,
0110
0000
0000
0000
,
0000
0000
0000
0000
,
0010
0000
0000
0000
,
0000
0000
0000
0000
,
1001
0000
0000
0000
,
0000
0000
0000
0000
,
0100
0000
0000
0000
,
0000
0000
0000
0000
,
1001
0000
0000
0000
,
0000
0000
0000
0000
,
0010
0000
0000
0000
,
0000
0000
0000
0000
,
0110
0000
0000
0000
,
0100
0000
0010
0000
,
1001
0000
1000
0000
,
0001
0000
0001
0000
,
1001
0000
0001
0000
,
1000
0000
1000
0000
,
1001
0000
0010
0000
,
0100
0000
0100
0000
,
0110
0000
0010
0000
,
0100
0000
0010
0000
,
1001
0000
0001
0000
,
1001
0000
1000
0000
,
1001
0000
0001
0000
,
1001
0000
1000
0000
,
0010
0000
0100
0000
,
0110
0000
0110
0000
,
1000
0001
0000
1000
,
0001
1000
0001
1000
,
0010
0000
0100
0000
,
0100
0000
0000
0000
,
0010
0000
0010
0000
,
0100
0000
0001
0000
,
1000
0000
0100
0000
,
0100
0000
1000
0000
,
0100
0000
0010
0000
,
0001
0000
0001
0000
,
0001
0000
0010
0000
,
0100
0000
0100
0000
,
0010
0000
0100
0000
,
0010
0000
0010
0000
,
0001
0000
1000
0000
,
0001
0000
0001
0000
,
1000
0000
0001
0000
,
1000
0000
1000
0000
,
0010
0000
0100
0010
,
0000
0010
0100
0000
,
0001
0000
1000
0000
,
0001
0000
1000
0001
,
1000
0000
1000
0000
,
0001
1000
0001
0000
,
0001
0000
0001
0000
,
1000
0001
1000
0000
,
0010
0000
0010
0000
,
0100
0010
0100
0000
,
0100
0000
0100
0000
,
0010
0100
0010
0000
,
1000
0001
1000
0001
,
0000
0001
1000
0001
,
1000
0001
0100
0001
,
0000
0001
0100
0001
,
1000
0100
1000
0001
,
0100
0001
1000
0100
,
2000
0000
0000
0000
,
0000
0000
0000
3000
,
2002
0000
0000
0000
,
0000
0000
0000
0000
,
0000
0000
0000
0000
,
0000
0000
0000
3003
;

//---------------dance-single - ----------------
#NOTES:
     dance-single:
     :
     Medium:
     10:
     0.509,0.612,0.275,0.116,0.000:
0000
0000
0000
0000
,
0000
0000
0000
0000
,
0000
0000
0000
0000
,
0000
0000
0000
0000
,
0000
0000
0000
0000
,
0000
0000
0000
0000
,
0001
0100
0001
0100
,
0001
1000
0001
1000
,
0001
0100
0001
0100
,
0001
1000
0100
1000
,
0001
1000
0001
1000
,
0010
0100
0010
0100
,
0010
1000
0001
0100
,
0001
0100
0010
1000
,
0001
1000
0100
1000
,
0001
1000
0100
1000
,
0001
1000
0100
1000
,
0100
0010
0001
0010
,
0100
1000
0100
1000
,
0001
0100
0010
1000
,
0010
0010
0100
0001
,
0001
0100
1000
0100
,
2002
0000
0000
0000
,
0000
0000
0000
3003
,
0020
0000
0000
0000
,
0000
0000
0000
0030
,
0100
0010
1000
0001
,
0100
0010
1000
0001
,
0100
0010
0100
0010
,
0100
0010
1000
0001
,
1000
0100
0010
0001
,
1000
0100
0010
0001
,
1000
0100
1000
0100
,
0010
0001
1000
0001
,
0100
0001
0100
0001
,
1000
0001
1000
0001
,
1000
0010
0100
0001
,
0100
0010
1000
0001
,
1000
0100
0001
0100
,
1001
0000
1001
0000
,
0001
0100
0010
1000
,
0001
0100
0001
0100
,
0001
1000
0100
0010
,
0001
0010
0100
1000
,
0100
1000
0100
1000
,
0001
1000
0001
1000
,
0001
0100
0010
1000
,
0010
0100
0001
1000
,
0100
0010
0110
0110
,
0000
0010
0001
1000
,
0100
0010
0001
1001
,
0000
0001
0100
0010
,
1000
0001
1000
1001
,
0000
1000
0010
0100
,
0010
1000
0001
0100
,
0001
1000
0001
0010
,
0200
0000
0000
0000
,
0000
0000
0000
0300
,
2002
0000
0000
0000
,
0000
0000
0000
3003
,
0000
0000
0000
0000
,
0000
0000
0000
0000
,
0000
0000
0000
0000
,
0000
0000
0000
0000
,
0000
0000
0000
0000
,
0000
0000
0000
0000
,
0000
0000
0000
0000
,
0000
0000
0000
0000
,
0110
0000
0000
0000
,
0000
0000
0000
0000
,
0020
0000
0000
0030
,
0000
0000
0000
0000
,
1001
0000
0000
0000
,
0000
0000
0000
0000
,
0200
0000
0000
0300
,
0000
0000
0000
0000
,
1001
0000
0000
0000
,
0000
0000
0000
0000
,
0020
0000
0000
0030
,
0000
0000
0000
0000
,
0110
0000
0000
0000
,
0100
0010
0100
0010
,
1001
0000
0001
0000
,
1000
0001
1000
0001
,
0110
0000
0001
0000
,
0100
0001
0100
0001
,
0101
0000
0001
0000
,
1000
0100
1000
0100
,
1100
0000
0010
0000
,
0001
1000
0001
0100
,
1001
0000
1000
0100
,
1001
0000
0001
0100
,
0101
0000
1000
0010
,
1010
0000
0010
0100
,
0001
0000
0101
0000
,
1100
0000
0101
0000
,
0001
1000
0001
1000
,
0010
0100
0010
0100
,
0020
0000
0100
0000
,
0100
0000
0030
0000
,
0010
1000
0001
0100
,
0010
1000
0001
0100
,
0001
0000
0001
0000
0001
0000
0000
1000
,
0000
0000
0001
0000
1000
0000
0000
0001
,
0000
0000
1000
0000
0100
0000
0000
0010
,
0000
0001
0010
0100
,
1000
0000
0100
0000
1000
0000
0000
0001
,
0000
0000
0100
0000
0001
0000
0000
0100
,
0000
0000
0010
0000
0100
0000
0000
0010
,
0000
1000
0001
0100
,
1001
0000
0001
0000
1000
0000
0000
0001
,
0000
0000
1000
0000
0010
0000
0000
1000
,
0000
0000
0100
0000
0010
0000
0000
0100
,
0000
0010
0001
0010
,
0001
0000
0010
0000
0001
0000
0000
1000
,
0000
0001
0100
0001
,
1000
1000
0010
0010
,
0100
0100
0001
0001
,
1000
0000
0100
0000
1000
0000
0000
1001
,
0000
0000
0001
0000
0100
0000
0000
0101
,
0000
0000
0001
0000
0010
0000
0000
0011
,
0000
0001
0010
0100
,
1000
0000
0100
0000
1000
0000
0000
1001
,
0000
0000
1000
0000
0100
0000
0000
1100
,
0000
0000
1000
0000
0010
0000
0000
0110
,
0000
0010
0100
0001
,
1000
0001
0100
0001
,
0000
0001
1000
0001
,
0010
0100
1000
0100
,
0000
0010
0001
0010
,
0001
0010
0100
1000
,
0100
0010
0001
1000
,
0020
0000
0000
0000
,
0000
0000
0000
0030
,
2002
0000
0000
0000
,
0000
0000
0000
0000
,
0000
0000
0000
0000
,
0000
0000
0000
3003
;

//---------------dance-single - ----------------
#NOTES:
     dance-single:
     :
     Hard:
     15:
     0.686,0.918,0.569,0.107,0.000: // measure 1
0000
0000
0000
0000
,  // measure 2
0000
0000
0000
0000
,  // measure 3
0000
0000
0000
0000
,  // measure 4
0000
0000
0000
0000
,  // measure 5
0000
0000
0000
0000
,  // measure 6
0000
0000
0000
0000
,  // measure 7
1000
1000
0100
1000
,  // measure 8
0001
0000
0100
0000
0001
0100
0001
0100
,  // measure 9
0010
0010
0100
0010
,  // measure 10
1000
0000
0001
0000
1000
0100
1000
0100
,  // measure 11
0010
0010
0001
0010
,  // measure 12
0001
0000
0100
0000
0010
1000
0010
1000
,  // measure 13
0001
0001
0100
0001
,  // measure 14
1000
0000
0100
0000
0010
0100
0010
0100
,  // measure 15
0010
0010
0001
1000
,  // measure 16
0010
0010
0100
0010
,  // measure 17
1000
1000
0010
0100
,  // measure 18
0001
0000
0100
0000
0001
1000
0001
1000
,  // measure 19
0010
0010
0100
0010
,  // measure 20
1000
1000
0001
0001
,  // measure 21
1000
0001
1000
0001
1000
0000
0001
0100
,  // measure 22
0001
0100
0001
0000
1000
0010
1000
0010
,  // measure 23
0200
0000
0000
0000
,  // measure 24
0000
0000
0000
0300
,  // measure 25
0020
0000
0000
0000
,  // measure 26
0000
0000
0000
0030
,  // measure 27
0100
0110
1000
1001
,  // measure 28
0001
0000
0100
0000
0001
1000
0010
0000
,  // measure 29
1000
1100
0001
0101
,  // measure 30
0010
0000
0100
0000
0010
1000
0010
0000
,  // measure 31
1000
1100
0010
0011
,  // measure 32
0001
0000
0010
0000
0001
0010
0100
0000
,  // measure 33
0010
0110
0010
1010
,  // measure 34
0010
0001
0010
0000
0001
0100
0001
0000
,  // measure 35
1000
1001
0001
0101
,  // measure 36
0010
0000
1000
0000
0010
0100
0010
0000
,  // measure 37
0100
0110
0001
0101
,  // measure 38
0001
0000
1000
0000
0001
1000
0100
0000
,  // measure 39
0110
0000
0010
0100
,  // measure 40
1001
0000
1001
0000
,  // measure 41
0010
0100
0010
1000
,  // measure 42
0010
0000
0100
0000
0001
0100
0000
0000
,  // measure 43
0001
1001
1000
1001
,  // measure 44
1000
0000
0010
0000
0100
0001
0010
0000
,  // measure 45
0001
0011
0100
1100
,  // measure 46
0010
0000
0100
0000
0010
0001
0010
0000
,  // measure 47
1000
1010
0100
0101
,  // measure 48
0001
0000
1000
0000
0001
0010
0100
0000
,  // measure 49
1000
0000
1100
0000
0010
0100
0010
0000
,  // measure 50
0000
0001
1000
0001
,  // measure 51
1001
0000
1001
0000
0001
1000
0100
0000
,  // measure 52
0000
1000
0001
0000
1000
0000
1001
0000
,  // measure 53
1001
0000
1001
0000
1000
0001
0100
0000
,  // measure 54
0000
0001
0100
0000
0010
0000
1000
0000
,  // measure 55
0010
0100
0010
0100
0010
0000
0010
1000
,  // measure 56
0010
0100
0010
0000
0001
0010
0100
1000
,  // measure 57
0200
0000
0000
0000
,  // measure 58
0000
0000
0000
0300
,  // measure 59
2002
0000
0000
0000
,  // measure 60
0000
0000
0000
3003
,  // measure 61
0000
0000
0000
0000
,  // measure 62
0000
0000
0000
0000
,  // measure 63
0000
0000
0000
0000
,  // measure 64
0000
0000
0000
0000
,  // measure 65
0000
0000
0000
0000
,  // measure 66
0000
0000
0000
0000
,  // measure 67
0000
0000
0000
0000
,  // measure 68
0000
0000
0000
0000
,  // measure 69
0110
0000
0000
0000
,  // measure 70
0000
0000
0000
0000
,  // measure 71
0020
0000
0000
0000
,  // measure 72
0000
0000
0000
0030
,  // measure 73
1001
0000
0000
0000
,  // measure 74
0000
0000
0000
0000
,  // measure 75
0200
0000
0000
0000
,  // measure 76
0000
0000
0000
0300
,  // measure 77
1001
0000
0000
0000
,  // measure 78
0000
0000
0000
0000
,  // measure 79
0020
0000
0000
0000
,  // measure 80
0000
0000
0000
0030
,  // measure 81
0110
0000
0000
0000
,  // measure 82
0100
0010
0100
0010
,  // measure 83
1001
0000
0101
0000
,  // measure 84
1000
0001
1000
0001
,  // measure 85
0110
0000
1010
0000
,  // measure 86
1000
0010
1000
0010
,  // measure 87
0110
0000
0101
0000
,  // measure 88
0001
0100
0001
0100
,  // measure 89
1001
0000
1100
0000
,  // measure 90
1000
0100
0010
0001
,  // measure 91
0110
0000
0001
0100
,  // measure 92
0110
0000
1000
0010
,  // measure 93
1001
0000
0001
0100
,  // measure 94
1001
0000
1000
0100
,  // measure 95
1100
0010
0100
0010
,  // measure 96
1000
0010
0100
0001
,  // measure 97
0100
0001
0000
1001
0000
0001
0100
0001
,  // measure 98
1000
0001
1000
0001
1000
0100
0010
0002
,  // measure 99
0000
0000
1000
1000
,  // measure 100
0100
0100
0003
0000
,  // measure 101
1000
0100
0010
0001
,  // measure 102
0010
0010
0100
1000
,  // measure 103
0100
0000
0010
0000
0001
0000
1000
0100
,  // measure 104
0000
0100
1000
0000
0001
0000
0001
1000
,  // measure 105
0000
1000
0001
0000
1000
0001
1000
0001
,  // measure 106
0000
0001
0100
0000
0001
0000
1000
0010
,  // measure 107
0100
0000
0010
0000
1000
0000
0010
0100
,  // measure 108
0000
0100
0010
0000
0010
0000
0010
0100
,  // measure 109
0000
0100
0010
0000
0100
0010
0100
0010
,  // measure 110
0000
0010
1000
0000
1001
0000
0001
0010
,  // measure 111
0100
0000
1000
0000
0100
0000
0010
0001
,  // measure 112
0000
0001
0010
0000
0001
0010
0001
0010
,  // measure 113
0000
0010
0100
0000
1000
0100
1000
0001
,  // measure 114
0000
0001
0100
0000
1001
0000
0001
0010
,  // measure 115
0001
0000
1000
0000
0001
0000
1000
0001
,  // measure 116
0000
0001
0100
0000
1001
0000
0010
0000
,  // measure 117
1001
0101
1001
1100
,  // measure 118
0110
0000
0011
0000
0001
1000
0000
0000
,  // measure 119
0001
0000
0100
0000
0001
0000
1000
0010
,  // measure 120
0000
0010
1000
0000
0010
0000
0001
0100
,  // measure 121
0000
0001
1000
0000
0100
0010
0100
0001
,  // measure 122
0000
0001
0100
0000
1000
0000
0100
0010
,  // measure 123
0001
0000
0010
0000
0001
0000
1000
0010
,  // measure 124
0000
0010
1000
0000
0010
0000
0100
0001
,  // measure 125
0000
0001
1000
0000
1000
0001
1000
0001
,  // measure 126
0000
0001
0100
0000
1001
0000
0010
0100
,  // measure 127
0010
0000
1001
0000
1000
0001
0100
0000
,  // measure 128
0000
0001
1000
0000
1001
0000
0110
0000
,  // measure 129
1001
0000
1001
0000
0001
0100
0001
0000
,  // measure 130
0000
1000
0100
0000
0110
0000
1001
0000
,  // measure 131
0001
0100
0001
0100
0010
0000
1000
0001
,  // measure 132
1000
0001
0100
0000
0001
1000
0001
0010
,  // measure 133
0200
0010
0010
0010
,  // measure 134
0010
0010
0010
0310
,  // measure 135
2002
0000
0000
0000
,  // measure 136
0000
0000
0000
0000
,  // measure 137
0000
0000
0000
0000
,  // measure 138
0000
0000
0000
3003
;

//---------------dance-single - ----------------
#NOTES:
     dance-single:
     :
     Challenge:
     16:
     0.806,1.000,1.000,0.178,0.022:
0000
0000
0000
0000
,
0000
0000
0000
0000
,
0000
0000
0000
0000
,
0000
0000
0000
0000
,
0000
0000
0000
0000
,
0000
0000
0000
0000
,
0001
0001
0010
0001
,
1000
0000
0000
0000
0001
0000
0000
0000
0100
0010
0000
0000
1001
0000
0000
0000
,
0001
0010
0100
1000
,
0100
0000
0000
0000
0010
0000
0000
0000
0001
1000
0000
0000
1001
0000
0000
0000
,
0001
0100
0001
1000
,
0100
0000
0000
0000
0010
0000
0000
0000
0001
0010
0000
0000
0110
0000
0000
0000
,
0010
0001
1000
0100
,
0010
0000
0000
0000
0100
0000
0000
0000
1000
0100
0000
0000
1100
0000
0000
0000
,
1000
0001
0101
0001
,
1000
0001
0110
0010
,
1000
0001
0101
0001
,
1000
0000
0000
0000
0100
0000
0000
0000
0010
0100
0000
0000
0110
0000
0000
0000
,
0010
0001
1000
0100
,
0010
1001
1001
1001
,
0001
0100
0001
0100
0010
0000
1000
0100
,
1000
0100
1000
0000
0001
1000
0001
1000
,
0020
0000
0000
0000
,
0000
0000
0000
0030
,
0200
0000
0000
0000
,
0000
0000
0000
0300
,
1001
0001
0101
1000
,
1100
0000
0010
0000
0100
0010
0001
0000
,
0011
0001
0101
0010
,
0110
0000
1000
0000
0001
1000
0100
0000
,
1100
0001
1100
0010
,
0101
0000
1000
0000
0001
1000
0100
0000
,
0110
0010
0110
0100
,
0101
0000
1000
0000
0001
1000
0010
0000
,
1001
1000
0101
0001
,
1100
0000
1000
0000
0010
1000
0100
0000
,
0011
0001
0101
0010
,
0110
0000
1000
0000
0001
1000
0001
0000
,
1001
1000
0001
1000
,
1001
0100
1001
0010
,
1001
1100
0110
0011
,
0110
0000
1100
0000
0001
1000
0000
1000
,
0001
0101
0010
0101
,
1000
0000
0100
0000
1000
0100
0010
0000
,
1000
1100
0010
0101
,
0001
0000
1001
0000
1000
0001
0100
0000
,
0001
1001
0010
0110
,
0010
0000
1010
0000
1000
0100
0010
0000
,
0001
0101
1001
1001
,
0000
0001
0100
0000
0110
0000
1001
0000
,
1100
0000
0110
0000
1000
0100
0010
0000
,
0000
0001
0010
0000
0011
0000
0101
0000
,
1001
0000
1001
0000
0001
1000
0001
0000
,
0000
1000
0001
0000
1001
0000
0110
0000
,
0010
1000
0010
1000
1010
0000
0001
0100
,
0001
0100
0101
0000
1000
0001
1000
0001
,
2002
0000
0000
0000
,
0000
0000
0000
3003
,
0100
0010
1000
0000
0010
0100
0001
0000
,
0100
0010
1000
0000
0010
0100
0001
0000
,
0200
0000
0000
0000
,
0000
0000
0000
0000
,
0000
0000
0000
0000
,
0000
0000
0000
0000
,
0000
0000
0000
0000
,
0000
0000
0000
0000
,
0000
0000
0000
0000
,
0000
0000
0000
0300
,
0220
0000
0000
0000
,
0000
0000
0000
0330
,
0020
0000
0000
0000
,
0000
0000
0000
0030
,
2002
0000
0000
0000
,
0000
0000
0000
3003
,
2000
0000
0000
0000
,
0000
0000
0000
3000
,
0220
0000
0000
0000
,
0000
0000
0000
0330
,
0200
0000
0000
0000
,
0000
0000
0000
0300
,
0202
0000
0000
0303
,
0001
1000
0100
1000
,
1001
0000
0000
0000
0110
0000
0000
0010
,
0100
0001
1000
0100
,
1100
0000
0000
0000
0011
0000
0000
0001
,
0010
0001
0100
0001
,
1001
0000
0000
0000
1100
0000
0000
1000
,
0100
1000
0001
0100
,
0110
0000
0000
0000
1010
0000
0000
0010
,
1000
0001
0100
0001
,
1001
0000
0000
0001
1000
0000
0100
0000
,
0110
0000
0000
0010
0001
0000
0010
0000
,
0110
0000
0000
0010
1000
0000
0010
0000
,
1010
0000
0000
0010
0001
0000
0100
0000
,
0101
0001
1001
1000
,
1100
0100
1100
0001
,
1000
0001
0000
1001
0000
0001
0100
0000
,
0001
0100
0001
0010
0100
1000
0100
0010
,
0002
0000
1000
1000
,
0010
1000
0003
0000
,
1100
1010
1100
0101
,
0011
0000
0101
0000
0001
1000
0000
1000
,
0001
0000
0101
0000
1001
0000
0001
0100
,
0000
0100
0001
0000
1100
0000
1000
0100
,
0000
0100
1000
0000
0010
0100
0001
0100
,
0000
0001
1000
0000
1001
0000
1000
0001
,
0010
0000
0100
0000
0110
0000
0010
0001
,
0000
0001
0010
0000
0001
0000
1000
0100
,
0000
0001
0100
0000
1000
0100
0001
0100
,
0000
1000
0001
0000
1001
0000
0001
0010
,
0100
0000
0010
0000
0110
0000
0010
0001
,
0000
1000
0010
0000
0110
0000
0010
1000
,
0000
0001
0100
0000
0001
1000
0001
1000
,
0000
0001
0100
0000
1001
0000
1000
0100
,
0110
0000
0110
0000
1001
0000
1000
0001
,
0000
0100
0010
0000
0110
0000
1001
0000
,
0011
1100
0011
1010
,
0101
0000
1010
0000
1000
0001
0000
0001
,
1001
0000
0101
0000
1010
0000
0001
0100
,
0000
0001
1000
0000
0101
0000
1000
0001
,
0000
1000
0100
0000
0010
0001
1000
0001
,
0000
0100
0010
0000
0110
0000
0010
1000
,
1001
0000
0101
0000
1100
0000
1000
0100
,
0000
0010
0100
0000
0110
0000
0001
0100
,
0000
0001
1000
0000
0001
0010
0100
1000
,
0000
1000
0100
0000
1001
0000
0001
0100
,
1100
0000
1001
0000
0001
1000
0100
0000
,
0000
0010
0100
0000
0110
0000
1001
0000
,
1100
0000
0011
0000
1000
0100
1100
0000
,
0000
0001
1000
0000
1001
0000
0110
0000
,
0010
0100
0010
0100
0110
0000
0010
1000
,
0001
1000
0101
0000
0010
0001
1000
0001
,
2100
0010
0001
0010
,
0001
0100
0010
3001
,
2002
0000
0000
0000
,
0000
0000
0000
0000
,
0000
0000
0000
0000
,
0000
0000
0000
3003
;
