#TITLE:Dazzlin' Darlin;
#ARTIST:HHH;
#BANNER:Dazzlin' Darlin.png;
#BACKGROUND:Dazzlin' Darlin-bg.png;
#JACKET:Dazzlin' Darlin-jacket.png;
#CDTITLE:./CDTITLES/BEATMANIA IIDX.PNG;
#MUSIC:Dazzlin' Darlin.ogg;
#SAMPLESTART:88.993;
#SAMPLELENGTH:15;
#BPMS:0=149;
#BGCHANGES:4=Dazzlin' Darlin.avi=1=0=0=0;

//---------------dance-single - t7r----------------
#NOTES:
     dance-single:
     t7r:
     Beginner:
     1:
     :
0000
0000
0000
0000
,
0000
0000
0000
0000
,
0000
0000
0000
0000
,
0000
0000
0000
0000
,
0000
0000
0000
0000
,
0000
0000
0000
0000
,
0100
0000
0000
0000
,
0010
0000
0000
0000
,
1000
0000
0001
0000
,
1000
0000
0000
0000
,
0000
0001
0000
0001
,
0000
0100
0000
0100
,
0100
0000
0010
0000
,
1000
0000
0001
0000
,
0000
1000
0000
1000
,
0000
0001
0000
0001
,
0001
0000
0100
0000
,
0001
0000
1000
0000
,
0000
0010
0000
0010
,
0000
0100
0000
0100
,
0100
0000
0010
0000
,
1000
0000
0001
0000
,
0000
1000
0000
1000
,
0000
0100
0000
0100
,
0100
0000
1000
0000
,
0010
0000
0100
0000
,
0000
0000
0000
0000
,
0000
0010
0000
0010
,
0000
0010
0000
0010
,
0000
0100
0000
0100
,
0000
0100
0000
0100
,
0000
0010
0000
1000
,
0000
0001
0000
0100
,
0000
0010
0000
1000
,
1000
0000
0000
0000
,
0001
0000
0100
0000
,
0010
0000
1000
0000
,
0001
0000
0100
0000
,
0010
0000
0100
0000
,
0001
0000
0100
0000
,
0010
0000
1000
0000
,
0001
0000
0000
0000
,
1000
0000
0000
0000
,
0010
0000
0000
0000
,
0100
0000
0000
0000
,
0010
0000
1000
0000
,
0001
0001
0001
0000
,
1000
0000
0000
0000
,
0100
0000
0000
0000
,
1000
0000
0000
0000
,
0010
0010
0010
0000
,
0100
0100
0100
0000
,
0010
0000
0100
0000
,
0010
0000
0100
0000
,
0000
0000
0000
0000
,
0000
0000
0000
0000
,
0000
1000
0000
0001
,
0000
0100
0000
0010
,
0000
1000
0000
0001
,
0000
1000
0000
0001
,
0000
1000
0000
0100
,
0000
0010
0000
0001
,
0000
0010
0000
0100
,
0100
0000
1000
0000
,
0000
0010
0000
0100
,
0000
0001
0000
1000
,
0000
0001
0000
1000
,
1000
0000
0001
0000
,
1000
0000
0000
0000
,
0001
0000
0000
0000
,
0100
0000
0010
0000
,
0100
0000
0100
0000
;

//---------------dance-single - t7r----------------
#NOTES:
     dance-single:
     t7r:
     Easy:
     3:
     :
0000
0000
0000
0000
,
0000
0000
0000
0000
,
0000
0000
0000
0000
,
0000
0000
0000
0000
,
0000
0000
0000
0000
,
0000
0000
0000
0000
,
1000
0000
1000
0000
,
0001
0000
0001
0000
,
0100
0000
0010
0000
,
2002
0000
3003
1000
,
1000
0000
0001
0000
,
0100
0100
0100
0000
,
0010
0000
0100
0000
,
0001
0001
0001
0000
,
1000
0000
0001
0000
,
0100
0100
0100
0000
,
0010
0000
1000
0000
,
0001
1000
0001
0000
,
1000
0000
0100
0000
,
0010
0010
0010
0000
,
0001
0000
0010
0000
,
0100
0100
0100
0000
,
1000
0000
0100
0000
,
1000
1000
1000
0000
,
0001
0000
0100
0000
,
0001
1000
0002
0000
,
0000
0000
0000
0003
,
1000
0000
1000
0000
,
1000
0000
1000
0000
,
0001
0000
0001
0000
,
0001
0000
0001
0000
,
0100
0000
0100
0000
,
0100
0000
0100
0000
,
0010
0000
0010
0000
,
1000
0001
1000
0000
,
0000
0001
0000
0001
,
0000
1000
0000
0010
,
0000
0100
0000
0001
,
0000
0100
0000
0001
,
1000
0000
1000
0000
,
0100
0000
0100
0000
,
0010
0000
0001
0000
,
0010
0100
1000
0000
,
0100
0000
0000
0000
,
0010
0000
0000
0000
,
1001
0000
0001
0000
,
1000
0001
1001
0000
,
0010
0000
0000
0000
,
0100
0000
0000
0000
,
0010
0000
0000
0000
,
1000
0001
1001
0000
,
1000
0001
1001
0000
,
0001
1000
0001
1000
,
1000
0001
2002
0000
,
0000
0000
0000
3003
,
0000
0000
0000
0100
,
0100
0000
0010
0000
,
0001
0001
0001
0000
,
1000
0000
0010
0000
,
0100
0100
0100
0000
,
0010
0000
1000
0000
,
0001
0001
0001
0000
,
1000
0000
0100
0000
,
0010
0100
0010
0000
,
1001
0000
0100
0000
,
0010
0100
0010
0000
,
1000
0000
0001
0000
,
1000
0001
1000
0000
,
0001
0000
0100
0000
,
0001
0100
0001
0000
,
1000
0000
0100
0000
,
1000
0001
2002
0000
,
3003
0000
0000
0000
;

//---------------dance-single - t7r----------------
#NOTES:
     dance-single:
     t7r:
     Medium:
     7:
     :
0000
0000
0000
0000
,
0000
0000
0000
0000
,
0000
0000
0000
0000
,
0000
0000
0000
0000
,
0000
0000
0000
0000
,
0000
0000
0000
0000
,
0001
0100
0010
1000
,
0001
0100
0010
1000
,
0002
0003
2000
3000
,
2002
0000
3003
0010
,
0100
0100
0100
0010
,
1000
0001
2000
3000
,
0001
0010
0100
1000
,
0100
0010
0002
0003
,
1000
0100
1000
0010
,
0100
0010
0100
0010
,
1000
0001
1000
0001
,
0100
0010
2002
3003
,
0010
0000
0100
0010
0100
0000
0010
0000
,
1000
0000
0001
1000
0001
0000
1000
0000
,
0001
0000
1000
0100
1000
0000
0010
0000
,
0100
0000
0001
0100
0001
0000
1000
0000
,
0001
0000
0010
0001
0010
0000
0001
0000
,
0010
0000
0100
1000
0100
0000
1000
0000
,
0010
0100
0001
1000
,
1001
0110
2002
0000
,
0000
0000
0000
3003
,
0001
0001
0001
0001
,
1000
0000
1000
0000
0001
1000
0001
0000
,
1000
0000
1000
0000
0010
0100
0010
0000
,
1000
0000
1000
0000
0100
0010
0100
0000
,
0010
0010
0010
0010
,
0001
0000
0001
0000
1000
0001
1000
0000
,
0001
0000
0001
0000
0100
0010
0100
0000
,
0010
0010
2002
3003
,
1000
1000
0100
0010
,
0001
0001
0010
0100
,
1000
1000
0010
0100
,
0001
0001
0100
0010
,
1001
0100
0010
0100
,
0010
0001
1000
0100
,
0010
0100
1000
0010
,
0220
0000
0000
0330
,
0020
0000
0000
0030
,
2000
0000
0000
3000
,
0002
0003
2000
3000
,
1001
0110
2002
3003
,
0020
0000
0000
0030
,
0200
0000
0000
0300
,
0020
0030
2000
3000
,
0001
1000
2002
3003
,
0001
1000
2002
3003
,
1000
1001
0001
1001
,
0110
1001
0220
0000
,
0000
0000
0000
0330
,
0000
0020
2030
3002
,
1003
0000
0100
1000
0100
0000
1000
0000
,
0001
0000
0100
0001
0100
0000
0010
0000
,
0100
0000
0010
0100
0010
0000
1000
0000
,
0001
0000
1000
0001
1000
0000
0001
0000
,
0100
0000
0001
0100
0001
0000
1000
0000
,
0010
0000
1000
0010
1000
0000
0010
0000
,
0100
0000
0010
0100
0010
0000
1000
0000
,
0001
0000
1000
0001
0100
0000
0001
0000
,
1000
0000
0000
0010
0000
0000
1000
0000
0100
0000
0000
0000
0100
0000
0000
0000
,
0010
0000
0000
0001
0000
0000
0010
0000
0100
0000
0000
0000
1000
0000
0000
0000
,
0001
0000
0000
0100
0000
0000
0010
0000
1000
0000
0000
0010
0000
0000
0100
0000
,
0001
0000
1000
0000
0001
0000
1000
0010
,
0100
0000
0000
0010
0000
0000
1000
0000
0001
0000
0000
0000
1001
0000
0000
0000
,
0001
0000
0000
0010
0000
0000
0100
0000
1000
0000
0000
0000
0100
0000
0010
0000
,
0001
0002
0000
0000
1003
2000
0000
0000
,
3010
0100
0010
0000
2002
0000
0000
0000
,
3003
0000
0000
0000
;

//---------------dance-single - t7r----------------
#NOTES:
     dance-single:
     t7r:
     Hard:
     9:
     :
0000
0000
0000
0000
,
0000
0000
0000
0000
,
0000
0000
0000
0000
,
0000
0000
0000
0000
,
0000
0000
0000
0000
,
0000
0000
0000
0000
,
0001
0000
1000
0000
0001
1000
0001
1000
,
0000
0000
0010
0000
0100
0000
0010
0100
,
0002
1000
0100
1003
,
2002
0000
0000
0000
3003
0000
0001
1000
,
0100
0000
0000
1000
0000
0000
0100
0000
1000
0000
0000
0000
0110
0000
0000
0000
,
0010
0000
0000
0001
0000
0000
0010
0000
0001
0000
0000
0000
1000
0000
0001
0000
,
0100
0000
0000
0001
0000
0000
1000
0000
0100
0000
0000
0010
0000
0000
0100
0000
,
0010
0001
0010
0100
1000
0000
0010
0100
,
0001
0000
0000
0100
0000
0000
0001
0000
1000
0000
0000
0000
0100
0000
0000
0000
,
0010
0000
0000
0100
0000
0000
0001
0000
0100
0000
0000
0000
1000
0000
0100
0000
,
0001
0000
0000
0100
0000
0000
1000
0000
0100
0000
0000
0010
0000
0000
0001
0000
,
0100
0010
1000
0001
1000
0000
0001
0100
,
0001
0000
0000
1000
0000
0000
0001
0000
1000
0000
0000
0000
0110
0000
0000
0000
,
0010
0000
0000
0001
0000
0000
0010
0000
0100
0000
0000
0000
1000
0000
0100
0000
,
1000
0000
0000
0001
0000
0000
0100
0000
0001
0000
0000
1000
0000
0000
0010
0000
,
0100
0001
1000
0001
0010
0000
0100
0010
,
0100
0000
0000
0010
0000
0000
0001
0000
0100
0000
0000
0000
0110
0000
0000
0000
,
0010
0000
0000
1000
0000
0000
0001
0000
0100
0000
0000
0000
0001
0000
1000
0000
,
0001
0000
0000
1001
0000
0000
1000
0000
0100
0000
0000
1001
0000
0000
1000
0000
,
0010
0100
0001
0100
0020
0000
0000
0000
,
0000
0000
0000
0030
,
0100
0010
0100
0000
0010
0100
0010
0000
,
1000
0010
1000
0000
0001
0100
0001
0000
,
1000
0001
0100
0000
0001
1000
0100
0000
,
1000
0010
0100
0000
0001
0100
0001
0000
,
1000
0001
0010
0000
0001
1000
0100
0000
,
1000
0010
1000
0000
0001
0010
0100
0000
,
1000
0100
0010
0000
0001
0010
1000
0000
,
1000
0010
0001
0100
0010
1000
0001
0000
,
1000
0000
1100
0000
1000
0100
0010
0001
,
0000
1001
0110
1001
,
0001
0000
1001
0000
0001
0100
0001
0010
,
0000
0110
1001
0110
,
1000
0000
1001
0000
1000
0100
1000
0001
,
0000
0000
0100
0000
0010
0000
0100
0010
,
2000
3001
0002
1003
,
2002
0000
0000
0000
3003
0000
0001
0100
,
0001
0000
0000
0010
0000
0000
0100
0000
1000
0000
0000
0000
1100
0000
0000
0000
,
1000
0000
0000
0100
0000
0000
0010
0000
0001
0000
0000
0000
0001
0000
0010
0000
,
0100
0000
0000
0010
0000
0000
0100
0000
0010
0000
0000
0001
0000
0000
1000
0000
,
0010
0100
0001
1000
0001
0000
1000
0001
,
0100
0000
0000
0001
0000
0000
1000
0000
0001
0000
0000
0000
1001
0000
0000
0000
,
0010
0000
0000
0100
0000
0000
0010
0000
0100
0000
0000
0000
0010
0000
1000
0000
,
0100
0000
0000
0010
0000
0000
0001
0000
0010
0000
0000
0001
0000
0000
1000
0000
,
0001
0100
0001
1000
0010
0000
0100
0001
,
1000
0001
1000
0010
1000
0000
0001
0100
,
0010
1000
0010
0100
0010
0001
0010
0100
,
0010
0000
1000
0000
0001
1000
0001
0000
2002
0000
0000
0000
0000
0000
0000
0000
,
0000
0000
0000
3003
,
0000
0000
0002
0000
0023
0000
0130
0010
,
1000
0000
0000
0100
0000
0000
1000
0000
0010
0000
0000
0000
0110
0000
0000
0000
,
0001
0000
0000
0100
0000
0000
0001
0000
0010
0000
0000
0000
0001
0000
0010
0000
,
0100
0000
0000
1000
0000
0000
0010
0000
1000
0000
0000
0001
0000
0000
1000
0000
,
0001
0100
0001
0010
0100
0000
1000
0100
,
0010
0000
0000
0100
0000
0000
1000
0000
0001
0000
0000
0000
0101
0000
0000
0000
,
0010
0000
0000
0001
0000
0000
0010
0000
0100
0000
0000
0000
1000
0000
0001
0000
,
0100
0000
0000
0001
0000
0000
1000
0000
0001
0000
0000
0010
0000
0000
0100
0000
,
0010
0001
0100
0010
1000
0000
0001
0010
,
0100
0000
0000
0110
0000
0000
0010
0000
0100
0000
0000
0000
1001
0000
0000
0000
,
0101
0000
0000
1001
0000
0000
0001
0000
0100
0000
0000
0000
1000
0000
0100
0000
,
0010
0000
0000
1100
0000
0000
1000
0000
0010
0000
0000
1010
0000
0000
0010
0000
,
1000
0001
0100
0001
0100
0000
0010
0100
,
0001
0000
0000
0011
0000
0000
0001
0000
0100
0000
0000
0000
1001
0000
0000
0000
,
1100
0000
0000
1001
0000
0000
1000
0000
0001
0000
0000
0000
0100
0000
0001
0000
,
1000
2002
0000
3003
0001
2002
0000
3003
,
0010
0000
0100
0000
0010
1000
0010
0000
2002
0000
0000
0000
0000
0000
0000
0000
,
3003
0000
0000
0000
;

//---------------dance-single - t7r----------------
#NOTES:
     dance-single:
     t7r:
     Challenge:
     14:
     :
0000
0000
0000
0000
,
0000
0000
0000
0000
,
0000
0000
0000
0000
,
0000
0000
0000
0000
,
0000
0000
0000
0000
,
0000
0000
0000
0000
,
0001
0010
0100
1000
0001
0010
0100
1000
,
0001
0100
0010
1000
0001
0100
0010
1000
,
0001
0010
0010
0100
1000
0010
0010
0100
,
0001
1000
0100
1000
0002
0000
1003
0010
,
0100
0000
0000
0100
0010
0000
1000
0000
0200
0000
0000
0000
0310
0000
0000
0000
,
0001
0000
0000
0001
0100
0000
0001
0000
0020
0000
0000
0000
0031
0000
1000
0000
,
0100
0000
0000
0100
1000
0000
0001
0000
0010
0000
0000
0010
0001
0000
1000
0000
,
0001
0010
0100
1000
0020
0000
1030
0100
,
0010
0000
0000
0100
1000
0000
0100
0000
0010
0000
0000
0000
0001
0000
0000
0000
,
0100
0000
0000
0001
0100
0000
0010
0000
1000
0000
0000
0000
0001
0000
0100
0000
,
0010
0000
0000
0100
0001
0000
1000
0000
0001
0000
0000
0010
0001
0000
1000
0000
,
0001
0100
0010
1000
0002
0000
1003
0100
,
1000
0000
0010
1000
0010
0000
1000
0000
0001
0000
0100
0000
0010
0000
1000
0000
,
0001
0000
0010
0001
0010
0000
0001
0000
0100
0000
0010
0000
1000
0000
0001
0000
,
1000
0000
0100
1000
0100
0000
1000
0000
0001
0000
0100
0001
0100
0000
0010
0000
,
1000
0000
0010
1000
0010
0000
0100
0000
0001
0000
1000
0000
0001
0000
0010
0000
,
0011
0000
0001
0100
0001
0000
1000
0000
0010
0000
0100
0000
0001
0000
1000
0000
,
1001
0000
1000
0100
1000
0000
0100
0000
1000
0000
0010
0000
0100
0000
0010
0000
,
0110
0100
0001
0000
0110
0100
1000
0000
,
0110
0010
1010
1000
2002
0000
0000
0000
,
3003
0000
0000
0000
,
0011
0010
0100
1000
0001
0010
0100
1000
,
0001
0100
0010
1000
0001
0100
0010
1000
,
0001
0010
1000
0010
0001
0010
1000
0010
,
0001
0100
1000
0100
0001
0100
1000
0100
,
0001
1000
1010
1000
0001
1000
1100
1000
,
0001
0010
0011
0001
1000
0010
1010
1000
,
0010
0100
0001
1000
0100
0010
0001
1000
,
0100
1000
0010
0100
0002
0000
1003
0010
,
1000
0000
0100
1000
0100
0000
1000
0000
0010
0000
0100
0000
0001
0000
0010
0000
,
0001
0000
1000
0001
1000
0000
0001
0000
0100
0000
0001
0000
0010
0000
0100
0000
,
0010
0000
0001
0010
0001
0000
1000
0000
0010
0000
0100
0000
0001
0000
1000
0000
,
0100
0000
1000
0100
1000
0000
0010
0000
0100
0000
0001
0000
1000
0000
0001
0000
,
1001
0000
0010
0100
0010
0000
0001
0000
0100
0000
0010
0000
1000
0000
0001
0000
,
1000
0000
0100
0010
0100
0000
0010
0000
0001
0000
0100
0000
0010
0000
1000
0000
,
0001
0000
0010
0001
0010
0000
0001
0000
1000
0000
0010
1000
0010
0000
1000
0000
,
0001
0100
0010
1000
0002
0000
1003
0100
,
0210
0000
0000
0001
0000
0000
1000
0000
1000
0000
0000
0000
0010
0000
0000
0000
,
1000
0000
0000
0001
0000
0000
0010
0000
1000
0000
0000
0000
0301
0000
0010
0000
,
0120
0000
0000
0001
0000
0000
1000
0000
0100
0000
0000
0001
0000
0000
1030
0000
,
1001
0010
1010
0100
1100
0000
0011
0100
,
0102
0000
0000
1000
0000
0000
0010
0000
0010
0000
0000
0000
1003
0000
0000
0000
,
0200
0000
0000
1000
0000
0000
0010
0000
0001
0000
0000
0000
1300
0000
0100
0000
,
0021
0000
0000
0001
0000
0000
1030
0000
0210
0000
0000
0010
0000
0000
1300
0000
,
1001
0010
0011
0100
0101
0000
1001
0010
,
1100
0010
1010
0010
0110
0000
0101
0010
,
1001
1001
0010
0100
1001
1001
0100
0010
,
0101
0000
0101
0000
0001
1000
0100
0000
2200
0000
0000
0000
0000
0000
0000
0000
,
0000
0000
0000
3300
,
0000
0000
0000
0000
0000
0000
0010
0001
,
1000
0000
0010
1000
0010
0000
1000
0000
0001
0000
0100
0000
0001
0000
0010
0000
,
0001
0000
0100
0001
0100
0000
0001
0000
1000
0000
0100
0000
0010
0000
0100
0000
,
1000
0000
0010
0100
0010
0000
1000
0000
0001
0000
0010
0100
0010
0000
0001
0000
,
1000
0100
0001
0100
1000
0000
0001
1000
,
1001
0000
0010
1000
0010
0000
1000
0000
0100
0000
1000
0000
0001
0000
0100
0000
,
0001
0000
0010
0001
0010
0000
0001
0000
1000
0000
0100
0000
1000
0000
0010
0000
,
0100
0000
0010
1000
0001
0000
0100
0000
0001
0000
1000
0001
0100
0000
0001
0000
,
1000
0100
0010
0001
2000
0000
3001
0001
,
0101
0000
0010
1000
0100
0000
1000
0000
1100
0000
0010
0000
0001
0000
1000
0000
,
1001
0000
0010
0100
0001
0000
0010
0000
0011
0000
0001
0000
1000
0000
0100
0000
,
1100
0000
0100
1000
0010
0000
0100
0000
0110
0000
0100
0001
0010
0000
0001
0000
,
0011
0000
0001
1000
0100
0000
1000
0000
0001
0000
0100
0000
0010
0000
1000
0000
,
1001
0000
0100
0010
1000
0000
0010
0000
0100
0000
0001
0000
0010
0000
0100
0000
,
0011
0000
1000
0100
0010
0000
0100
0000
1000
0000
0010
0000
0100
0000
0001
0000
,
1010
0110
0002
0003
0011
0110
2000
3000
,
0110
0000
1001
0000
0100
0010
0100
0000
0220
0000
0000
0000
0000
0000
0000
0000
,
0330
0000
0000
0000
;
