#TITLE:DUE TOMORROW;
#ARTIST:Mr.T;
#BANNER:DUE TOMORROW.png;
#BACKGROUND:DUE TOMORROW-bg.png;
#JACKET:DUE TOMORROW-jacket.png;
#CDTITLE:./CDTITLES/BEATMANIA IIDX.PNG;
#MUSIC:DUE TOMORROW.ogg;
#SAMPLESTART:11.4;
#SAMPLELENGTH:15;
#DISPLAYBPM:100:400;
#BPMS:0=400,332=100,344=400;
#BGCHANGES:-4=DUE TOMORROW.avi=1=0=0=0;

//---------------dance-single - t7r----------------
#NOTES:
     dance-single:
     t7r:
     Beginner:
     4:
     :
0000
0000
0000
0000
,
0000
0000
0000
0000
,
0000
0000
0000
0000
,
0000
0000
0000
0000
,
0000
0000
0000
0000
,
0000
0000
0000
0000
,
0000
0000
0000
0000
,
0000
0000
0000
0000
,
0000
0000
0000
0000
,
0000
0000
0000
0000
,
0000
0000
0000
0000
,
0001
0000
0100
0000
,
0001
0000
0100
0000
,
0001
0000
0100
0000
,
0001
0000
0100
0000
,
0001
0000
0100
0000
,
0001
0000
0100
0000
,
0010
0000
0000
0000
,
0000
0000
0000
0000
,
0010
0000
0000
0000
,
0100
0000
0000
0000
,
0010
0000
0000
0000
,
1000
0000
0000
0000
,
1000
0000
0000
0000
,
0100
0000
0000
0000
,
0010
0000
0000
0000
,
0001
0000
0000
0000
,
0001
0000
0000
0000
,
0010
0000
0000
0000
,
0100
0000
0000
0000
,
1000
0000
0000
0000
,
1000
0000
0000
0000
,
0010
0000
0000
0000
,
0100
0000
0000
0000
,
0001
0000
0000
0000
,
1000
0000
0100
0000
,
1000
0000
0100
0000
,
1000
0000
0100
0000
,
1000
0000
0100
0000
,
1000
0000
0100
0000
,
1000
0000
0100
0000
,
1000
0000
0100
0000
,
0010
0000
0001
0000
,
0010
0000
0001
0000
,
0010
0000
0001
0000
,
0010
0000
0001
0000
,
0010
0000
0001
0000
,
0010
0000
0001
0000
,
0010
0000
0001
0000
,
0010
0000
0001
0000
,
0100
0000
1000
0000
,
0100
0000
0000
0000
,
0010
0000
0000
0000
,
0001
0000
0000
0000
,
1000
0000
0000
0000
,
0010
0000
0000
0000
,
0100
0000
0000
0000
,
0001
0000
0000
0000
,
1000
0000
0000
0000
,
0010
0000
0000
0000
,
0100
0000
0000
0000
,
0001
0000
0000
0000
,
1000
0000
0000
0000
,
0001
0000
0000
0000
,
1000
0000
0000
0000
,
0001
0000
0000
0000
,
0010
0000
0000
0000
,
0100
0000
0010
0000
,
0100
0000
0010
0000
,
0100
0000
0010
0000
,
0100
0000
0010
0000
,
0100
0000
0010
0000
,
0100
0000
0010
0000
,
0100
0000
0010
0000
,
0100
0000
0010
0000
,
1000
0000
0001
0000
,
1000
0000
0001
0000
,
1000
0000
0001
0000
,
1000
0000
0001
0000
,
1000
0000
0001
0000
,
1000
0000
0001
0000
,
1000
0000
0001
0000
,
0100
0000
0000
0000
,
1001
0000
0000
0000
,
0010
0000
0000
0000
,
0100
0000
0000
0000
,
0010
0000
0000
0000
,
0000
0000
0000
0000
,
0000
0000
0000
0000
,
0000
0000
0000
0000
,
0010
0000
0100
0000
,
0100
0000
0100
0000
,
0100
0000
0100
0000
,
0100
0000
0000
0000
,
0010
0000
0100
0000
,
0100
0000
0010
0000
,
0010
0000
0100
0000
,
0100
0000
0000
0000
,
1000
0000
0001
0000
,
0001
0000
1000
0000
,
0001
0000
0001
0000
,
1000
0000
0000
0000
,
0001
0000
1000
0000
,
1000
0000
0001
0000
,
0001
0000
1000
0000
,
0001
0000
0000
0000
,
1000
0000
0000
0000
,
0100
0000
0000
0000
,
1000
0000
0000
0000
,
0001
0000
0000
0000
,
0100
0000
0000
0000
,
0001
0000
0000
0000
,
1000
0000
0000
0000
,
0001
0000
0000
0000
,
0010
0000
0010
0000
,
1000
0000
1000
0000
,
0001
0000
0001
0000
,
0100
0000
0100
0000
,
0010
0000
1000
0000
,
0001
0000
0100
0000
,
0010
0000
1000
0000
,
0100
0000
0000
0000
,
0010
0000
0000
0000
,
0000
0000
0000
0000
,
0000
0000
0000
0000
,
0000
0000
0000
0010
,
0000
0000
0000
0000
,
0000
0000
0000
0000
,
0000
0000
0000
0000
,
0000
0000
0000
0000
,
0100
0000
0000
0000
,
0000
0000
0000
0000
,
0100
0000
0000
0000
,
0000
0000
0000
0000
,
0100
0000
0000
0000
,
0100
0000
0000
0000
,
0100
0000
0100
0000
,
0100
0000
0100
0000
,
0010
0000
1000
0000
,
0001
0000
0100
0000
,
0001
0000
0100
0000
,
0010
0000
1000
0000
,
1000
0000
0100
0000
,
0010
0000
0001
0000
,
0010
0000
0010
0000
,
0010
0000
0010
0000
,
0001
0000
0010
0000
,
0100
0000
1000
0000
,
0001
0000
0010
0000
,
0100
0000
1000
0000
,
0001
0000
0010
0000
,
0001
0000
0010
0000
,
0001
0000
0010
0000
,
0100
0000
1000
0000
,
0010
0000
0000
0000
;

//---------------dance-single - t7r----------------
#NOTES:
     dance-single:
     t7r:
     Easy:
     8:
     :
0000
0000
0000
0000
,
0000
0000
0000
0000
,
0000
0000
0000
0000
,
0000
0000
0000
0000
,
0000
0000
0000
0000
,
0000
0000
0000
0000
,
0000
0000
0000
0000
,
0000
0000
0000
0000
,
0000
0000
0000
0000
,
0000
0000
0000
0000
,
0000
0000
0000
0000
,
1000
0000
0100
0000
,
1000
0000
0001
0000
,
0100
0000
0001
0000
,
1000
0000
0001
0000
,
0010
0000
0100
0000
,
1000
0000
0100
0000
,
2002
0000
0000
0000
,
0000
0000
0000
3003
,
0010
0000
0000
0100
,
0000
0000
0010
0000
,
1000
0000
0000
0001
,
0000
0000
1000
0000
,
0100
0000
0000
0010
,
0000
0000
0001
0000
,
0010
0000
0001
0000
,
0100
0000
0010
0000
,
1000
0000
0000
0010
,
0000
0000
1000
0000
,
0001
0000
0000
1000
,
0000
0000
0100
0000
,
0010
0000
0000
0001
,
0000
0000
0010
0000
,
0100
0000
1000
0000
,
0220
0000
0000
0330
,
0001
0000
1000
0000
,
0001
0000
0100
0000
,
0001
0000
1000
0000
,
0001
0000
0100
0000
,
0001
0000
1000
0000
,
0001
0000
0010
0000
,
0100
0000
0010
0000
,
0001
0000
1000
0000
,
1000
0000
0100
0000
,
1000
0000
0010
0000
,
1000
0000
0001
0000
,
1000
0000
0100
0000
,
1000
0000
0010
0000
,
1000
0000
0100
0000
,
1000
0000
0010
0000
,
0100
0000
0001
0000
,
1000
0000
0000
0100
,
0000
0000
0010
0000
,
0001
0000
0000
0010
,
0000
0000
0001
0000
,
0100
0000
0000
0010
,
0000
0000
1000
0000
,
0010
0000
1000
0000
,
0100
0000
0010
0000
,
1001
0000
0000
0010
,
0000
0000
0100
0000
,
0110
0000
0000
0010
,
0000
0000
0010
0000
,
1001
0000
0000
1000
,
0000
0000
0100
0000
,
0010
0000
0001
0000
,
0100
0000
0001
0000
,
1000
0000
0001
0000
,
0100
0000
0100
0000
,
0001
0000
1000
0000
,
0100
0000
0100
0000
,
1000
0000
0001
0000
,
0100
0000
0100
0000
,
0001
0000
0010
0000
,
0100
0000
1000
0000
,
0100
0000
0010
0000
,
0011
0000
0011
0000
,
0100
0000
0010
0000
,
1010
0000
1010
0000
,
0100
0000
0010
0000
,
1001
0000
1001
0000
,
1000
0000
0100
0000
,
0010
0000
0001
0000
,
1001
0000
0000
0000
,
0010
0000
0000
0000
,
0100
0000
0000
0000
,
0010
0000
0000
0000
,
0000
0000
0000
0000
,
0000
0000
0000
0000
,
0000
0000
0000
0000
,
0100
0000
0010
0000
,
0100
0000
0100
0000
,
0010
0000
0100
0000
,
0110
0000
0110
0000
,
0010
0000
0100
0000
,
0010
0000
0010
0000
,
0010
0000
0100
0000
,
0110
0000
1001
0000
,
1000
0000
0100
0000
,
1000
0000
1000
0000
,
0001
0000
0100
0000
,
1001
0000
1001
0000
,
0001
0000
0010
0000
,
0100
0000
1000
0000
,
0100
0000
0010
0000
,
0220
0000
0000
0330
,
0010
0000
0000
0100
,
0000
0000
0010
0000
,
0100
0000
0010
0100
,
0000
0110
0000
0000
,
1000
0000
0000
0001
,
0000
0000
1000
0000
,
0001
0000
1000
0001
,
0000
1001
0000
0000
,
0001
0010
0100
0000
,
1000
0100
0010
0000
,
0001
0010
0100
0000
,
1000
0100
0010
0000
,
0001
0000
0010
0000
,
0100
0000
1000
0000
,
0100
0000
0010
0001
,
0100
0000
0000
0000
,
1001
0000
0000
0000
,
0000
0000
0000
0000
,
0000
0000
0000
0000
,
0000
0000
0010
0010
,
0000
0000
0000
0000
,
0000
0000
0000
0000
,
0100
0000
0000
0000
,
0000
0000
0000
0001
,
1000
0000
0000
0000
,
0000
0000
0000
0001
,
1000
0000
0000
0000
,
0000
0000
0000
0001
,
1000
0001
0000
0001
,
1000
0001
0000
0001
,
0100
0000
0100
0000
,
0100
0000
0100
0000
,
0010
0000
1000
0000
,
0010
0000
0010
0000
,
0010
0000
1000
0000
,
0010
0000
0010
0000
,
0010
0000
1000
0000
,
0010
0000
0010
0000
,
0100
0000
0001
0000
,
0100
0000
0001
0000
,
1000
0000
1001
0000
,
0001
0000
1001
0000
,
0001
0000
0101
0000
,
1000
0000
1100
0000
,
1000
0000
1010
0000
,
0001
0000
0011
0000
,
0100
0000
0101
0000
,
0011
0000
0101
0000
,
2002
0000
0000
0000
,
0000
0000
0000
0000
,
0000
0000
0000
0000
,
0000
0000
0000
3003
;

//---------------dance-single - t7r----------------
#NOTES:
     dance-single:
     t7r:
     Medium:
     11:
     :
0000
0000
0000
0000
,
0000
0000
0000
0000
,
0000
0000
0000
0000
,
0000
0000
0000
0000
,
0000
0000
0000
0000
,
0000
0000
0000
0000
,
0000
0000
0000
0000
,
0000
0000
0000
0000
,
0000
0000
0000
0000
,
0000
0000
0000
0000
,
0000
0000
0000
0000
,
0001
0010
0001
0000
,
1000
0100
1000
0000
,
0001
0010
0001
0000
,
1000
0010
0100
0000
,
0001
0010
0001
0000
,
1000
0001
0100
0000
,
2002
0000
0000
0000
,
0000
0000
0000
3003
,
0010
0000
0000
0100
0000
0000
0001
0000
,
0000
0100
0000
0000
0001
0000
1000
0000
,
0001
0000
0000
1000
0000
0000
0100
0000
,
0000
1000
0000
0000
0100
0000
0010
0000
,
0001
0000
0000
0010
0000
0000
0100
0000
,
0000
1000
0000
0000
0100
0000
1000
0000
,
0001
0100
0001
0000
,
1000
0010
1000
0100
,
0010
0000
0000
0001
0000
0000
1000
0000
,
0000
0001
0000
0000
0100
0000
0001
0000
,
1000
0000
0000
0001
0000
0000
0100
0000
,
0000
0010
0000
0000
0100
0000
0010
0000
,
1000
0000
0000
0010
0000
0000
0100
0000
,
0000
0001
0000
0000
1000
0000
0001
0000
,
0100
0001
1000
0001
,
2000
0000
0000
3000
,
0001
0000
0011
0000
,
0101
0000
0011
0000
,
1000
0000
1010
0000
,
1100
0000
1010
0000
,
1000
0000
1001
0000
,
0101
0000
1001
0000
,
0001
1000
0100
1000
,
0002
0000
0000
0003
,
1000
0000
1001
0000
,
0101
0000
1001
0000
,
0001
0000
1001
0000
,
1100
0000
1001
0000
,
1000
0000
1001
0000
,
0011
0000
1001
0000
,
0001
0100
0010
1000
,
0200
0000
0000
0300
,
0010
0000
0000
0001
0000
0000
0100
0000
,
0000
0101
0000
0000
1000
0000
0100
0000
,
1000
0000
0000
0010
0000
0000
0100
0000
,
0000
0110
0000
0000
0100
0000
0001
0000
,
0100
0000
0000
0001
0000
0000
1000
0000
,
0000
1001
0000
0000
1000
0000
0010
0000
,
0100
0010
1000
0000
,
0100
0010
0001
0000
,
0110
0000
0000
0100
0000
0000
1000
0000
,
0000
0101
0000
0000
1000
0000
0100
0000
,
0010
0000
0000
0101
0000
0000
1000
0000
,
0000
1100
0000
0000
0001
0000
0100
0000
,
0001
0000
0000
1001
0000
0000
0010
0000
,
0000
0110
0000
0000
0100
0000
0010
0000
,
1000
0010
0100
0001
,
1000
0100
0010
0001
,
0010
0000
0011
0000
,
0100
0000
1100
0000
,
0010
0000
0011
0000
,
0100
0000
1100
0000
,
0010
0000
0011
0000
,
0100
0000
1100
0000
,
0010
0001
0100
0010
,
0200
0000
0000
0300
,
0010
0000
1010
0000
,
0101
0000
1001
0000
,
0101
0000
1001
0000
,
1100
0000
1001
0000
,
0011
0000
1001
0000
,
1010
0000
0110
0000
,
0010
0100
0001
0100
,
0020
0000
0000
0030
,
2002
0000
0000
3003
,
0220
0000
0000
0330
,
2020
0000
0000
3030
,
1001
0000
0000
0000
,
0000
0000
0000
0000
,
0100
0000
0000
0000
,
0000
0000
0000
0000
,
0010
0001
0100
0001
,
0010
0001
0100
0001
,
0010
0001
0100
0001
,
1000
0000
1001
0000
,
0010
1000
0100
1000
,
0010
1000
0100
1000
,
0010
1000
0100
1000
,
0010
0000
0110
0000
,
0010
0100
0001
0100
,
0010
0100
0001
0100
,
0010
0100
0001
0100
,
0001
0000
1001
0000
,
0010
0100
1000
0100
,
0010
0100
1000
0100
,
0010
0100
1000
0001
,
0200
0000
0000
0300
,
0010
0000
0100
0001
,
0000
1001
0000
0000
,
0001
1000
0000
0100
,
0000
0100
1000
1000
,
0010
0000
0100
0010
,
0000
0110
0000
0000
,
0010
0100
0000
0001
,
0000
0001
1000
1000
,
0010
1000
0010
0000
,
0100
0001
0100
0000
,
0001
1000
0100
0000
,
1000
0001
0100
0000
,
0001
0010
0100
1000
,
0001
0100
0010
0000
,
0100
0010
1000
0000
,
2200
0000
0000
3300
,
2002
0000
0000
0000
,
0000
0000
0000
0000
,
0000
0000
0000
0000
,
0000
3003
0010
0020
,
0000
0000
0000
0000
,
0000
0000
0000
0030
,
0200
0000
0000
0000
,
0000
0000
0300
0001
,
2000
0000
0000
0000
,
0000
0000
3000
1000
,
0002
0000
0000
0000
,
0000
0000
0003
1000
,
0001
1000
0000
1000
,
0001
1000
0000
1000
,
0001
0001
0001
0001
,
1000
1000
1000
1000
,
0001
0100
0001
0000
,
1000
0010
1000
0000
,
1000
0100
0010
0000
,
0001
0010
0100
0000
,
1000
0100
1000
0100
,
0010
0001
0100
0000
,
0001
0100
0010
0000
,
1000
0100
0010
0000
,
0001
0010
0001
0000
,
1000
0010
1000
0000
,
0001
0010
0001
0000
,
1000
0010
1000
0000
,
0001
0010
0001
0010
,
0100
1000
0010
0000
,
1000
0001
0100
0001
,
1000
0000
0001
0000
,
2002
0000
0000
0000
,
0000
0000
0000
0000
,
0000
0000
0000
0000
,
0000
0000
0000
3003
;

//---------------dance-single - t7r----------------
#NOTES:
     dance-single:
     t7r:
     Hard:
     14:
     :
0000
0000
0000
0000
,
0000
0000
0000
0000
,
0000
0000
0000
0000
,
0000
0000
0000
0000
,
0000
0000
0000
0000
,
0000
0000
0000
0000
,
0000
0000
0000
0000
,
0000
0000
0000
0000
,
0000
0000
0000
0000
,
0000
0000
0000
0000
,
0000
0000
0000
0000
,
0001
0100
0010
0100
,
0001
0100
0010
0100
,
0001
0010
0100
0010
,
0001
0010
0100
0010
,
0001
0100
0010
1000
,
0001
0010
0100
1000
,
2002
0000
0000
0000
,
0000
0000
0000
3003
,
0010
0000
0000
1000
0000
0000
0010
0000
,
0000
0110
0000
0000
0001
0000
1000
0000
,
0010
0000
0000
0100
0000
0000
0001
0000
,
0000
0110
0000
0000
1000
0000
0100
0000
,
0010
0000
0000
0001
0000
0000
1000
0000
,
0000
1001
0000
0000
1000
0000
0010
0000
,
0100
0100
0010
1000
,
0001
0010
0100
1000
,
0001
0000
0000
0010
0000
0000
0100
0000
,
0000
0011
0000
0000
1000
0000
0100
0000
,
1000
0000
0000
0010
0000
0000
0100
0000
,
0000
1010
0000
0000
0100
0000
0001
0000
,
1000
0000
0000
0001
0000
0000
0100
0000
,
0000
0110
0000
0000
0001
0000
0010
0000
,
0100
0010
0001
1000
,
0002
0000
0000
0003
,
1000
0000
0000
1000
0100
0000
0000
0100
,
0010
0000
0000
0010
0100
0000
0000
0100
,
1000
0000
0000
1000
0010
0000
0000
0010
,
0100
0000
0000
0100
0001
0000
0000
0001
,
1000
0000
0000
1000
0100
0000
0000
0100
,
0010
0000
0000
0010
0100
0000
0000
0100
,
1000
0010
0100
0001
,
0200
0000
0000
0300
,
0001
0000
0000
0001
0010
0000
0000
0010
,
0100
0000
0000
0100
0010
0000
0000
0010
,
0001
0000
0000
0001
0010
0000
0000
0010
,
0100
0000
0000
0100
1000
0000
0000
1000
,
0001
0000
0000
0001
0100
0000
0000
0100
,
0010
0000
0000
0010
0100
0000
0000
0100
,
0001
0010
0100
1000
,
0020
0000
0000
0030
,
1000
0000
0000
1010
0000
0000
1001
0000
,
0000
1100
0000
0000
1000
0000
0001
0000
,
0100
0000
0000
0101
0000
0000
0011
0000
,
0000
1001
0000
0000
0001
0000
1000
0000
,
0010
0000
0000
0110
0000
0000
0101
0000
,
0000
0110
0000
0000
1000
0000
0010
0000
,
0100
0010
1000
0001
,
0100
0010
1000
0100
,
1000
0000
0000
1100
0000
0000
1001
0000
,
0000
0011
0000
0000
0001
0000
0100
0000
,
0001
0000
0000
0011
0000
0000
1001
0000
,
0000
0101
0000
0000
1000
0000
0010
0000
,
0100
0000
0000
0110
0000
0000
1010
0000
,
0000
1001
0000
0000
1000
0000
0100
0000
,
1000
0010
0100
0001
,
2000
0000
0000
3000
,
0001
0000
0010
0000
0100
0010
0000
0000
,
0001
0000
0010
0000
0100
0010
0000
0000
,
0001
0000
0010
0000
0100
1000
0000
0000
,
0001
0000
0010
0000
0100
1000
0000
0000
,
0001
0000
0100
0000
0010
0100
0000
0000
,
0001
0000
0100
0000
0010
0100
0000
0000
,
0001
0000
0010
0001
0010
0000
0001
0000
,
2000
0000
0000
3000
,
1000
0000
0010
0000
1000
0100
0000
0000
,
1000
0000
0010
0000
1000
0100
0000
0000
,
1000
0000
0100
0000
0010
0001
0000
0000
,
1000
0000
0100
0000
0010
0001
0000
0000
,
1000
0000
0010
0000
0100
0001
0000
0000
,
1000
0000
0010
0000
0100
0001
0000
0000
,
1000
0000
0001
1000
0001
0000
0100
0000
,
0020
0000
0000
0030
,
2002
0000
0000
3003
,
2020
0000
0000
3030
,
0202
0000
0000
0303
,
1001
0000
0000
0000
,
0000
0000
0000
0000
,
0010
0000
0000
0000
,
0000
0000
0000
0000
,
0100
0100
0010
0010
,
1000
1000
0001
0001
,
0010
0010
0100
0100
,
1000
0100
1000
0000
1000
0100
1000
0000
,
0001
0001
0100
0100
,
0010
0010
0100
0100
,
0001
0001
0010
0010
,
0100
0010
0100
0000
0100
0001
0100
0000
,
1000
1000
0010
0010
,
0100
0100
0001
0001
,
1000
1000
0100
0100
,
1000
0010
1000
0000
1000
0001
1000
0000
,
0001
0001
0010
0010
,
0100
0100
1000
1000
,
0001
0000
0010
0100
0010
0000
0001
0000
,
2000
0000
0000
3000
,
0110
0000
0001
0100
,
0000
0001
0000
0000
,
1000
0100
0000
1000
,
0000
0000
0001
1000
0001
0000
1000
0000
,
0001
0000
0010
0001
,
0000
0000
0010
0000
0000
0000
0001
0100
,
0001
1000
0000
0010
,
0000
0000
0100
0001
0100
0000
0001
0000
,
1000
0100
0100
0001
,
0100
0100
1000
0010
,
0010
0001
0010
0010
,
1000
0100
0010
0001
,
1000
0001
0001
1000
,
1000
1000
0001
1000
,
0001
0000
1000
0010
1000
0000
0001
0000
,
2000
0000
0000
3000
,
0220
0000
0000
0000
,
0000
0000
0000
0000
,
0000
0000
0000
0000
,
0000
0330
0100
0202
,
0000
0000
0000
0000
,
0000
0000
0000
0303
,
2002
0000
0000
0000
,
0000
0000
3003
1000
,
2200
0000
0000
0000
,
0000
0000
0000
0000
3300
0000
0001
0100
,
0002
0000
0000
0000
,
0000
0000
0000
0000
0003
0000
1000
0001
,
1000
0000
2002
0000
3003
0000
0001
1000
,
0001
0000
2002
0000
3003
0000
0010
0100
,
0020
0100
0100
0100
,
1000
1000
0001
0031
,
1000
0000
0100
0000
1000
0001
0000
0000
,
1000
0000
0100
0000
1000
0001
0000
0000
,
0100
0000
0001
0000
0010
0001
0000
0000
,
0100
0000
0001
0000
0010
0001
0000
0000
,
1000
0000
0100
0000
0010
0100
0000
0100
,
1000
0000
0010
0000
0100
0001
0000
0001
,
0010
0000
0001
0000
0100
0010
0000
0010
,
1000
0000
0010
0000
0100
0001
0000
0001
,
1000
0000
0100
0000
0010
0001
0000
0000
,
1000
0000
0100
0000
0010
0001
0000
0000
,
1000
0000
0010
0000
0100
0001
0000
0000
,
1000
0000
0010
0000
0100
0001
0000
0001
,
1000
0000
0001
0000
0010
0001
0000
0001
,
0100
0000
0010
0000
1000
0100
0000
0100
,
0010
0000
0100
1000
0100
0000
1000
0000
,
0001
0100
0010
1000
,
2002
0000
0000
0000
,
0000
0000
0000
0000
,
0000
0000
0000
0000
,
0000
0000
0000
3003
;

//---------------dance-single - t7r----------------
#NOTES:
     dance-single:
     t7r:
     Challenge:
     18:
     :
0000
0000
0000
0000
,
0000
0000
0000
0000
,
0000
0000
0000
0000
,
0000
0000
0000
0000
,
0000
0000
0000
0000
,
0000
0000
0000
0000
,
0000
0000
0000
0000
,
0000
0000
0000
0000
,
0000
0000
0000
0000
,
0000
0000
0000
0000
,
0000
0000
0000
0000
,
0001
0000
0100
0001
0100
0000
0001
0000
,
1000
0000
0100
1000
0100
0000
1000
0000
,
0001
0000
0010
0001
0010
0000
0001
0000
,
1000
0000
0010
1000
0010
0000
1000
0000
,
0001
0100
0001
0100
0001
0000
1000
0010
,
1000
0010
1000
0000
0001
0010
0001
0010
,
0002
0000
0000
0000
,
0000
0000
0000
0003
,
1000
0000
0000
1100
0000
0000
1010
0000
,
0000
1001
0000
0000
0001
1000
0001
0000
,
0100
0000
0000
0101
0000
0000
0011
0000
,
0000
1001
0000
0000
0001
1000
0001
0000
,
1000
0000
0000
1100
0000
0000
1001
0000
,
0000
0011
0000
0000
0001
1000
0010
0000
,
0100
0000
0100
0010
0100
0000
0010
0000
,
1000
0100
1000
0000
1000
0001
1000
0000
,
1000
0000
0000
1100
0000
0000
0101
0000
,
0000
1001
0000
0000
0001
0010
0001
0000
,
0100
0000
0000
0101
0000
0000
0011
0000
,
0000
1001
0000
0000
1000
0010
1000
0000
,
0100
0000
0000
1100
0000
0000
1010
0000
,
0000
0110
0000
0000
0001
1000
0100
0000
,
0001
0010
0001
0010
0001
1000
0001
1000
,
0020
0000
0000
0030
,
1000
0100
1000
0000
1000
0001
1000
0000
,
1000
0010
1000
0000
1000
0100
1000
0000
,
0001
0100
0001
0000
0001
1000
0001
0000
,
0001
0010
0001
0000
0001
0100
0001
0000
,
0100
0010
0100
0000
0100
0001
0100
0000
,
0100
0010
0100
0000
0100
1000
0100
0000
,
0010
0100
0010
0100
0001
1000
0001
1000
,
0001
0010
0100
1000
0002
0000
0003
0000
,
1000
0100
1000
0000
1000
0010
1000
0000
,
1000
0001
1000
0000
1000
0001
0100
0000
,
0001
0100
0001
0000
0001
0010
0001
0000
,
0001
1000
0001
0000
0001
1000
0100
0000
,
0010
0100
0010
0000
0010
0001
0010
0000
,
0010
0100
0010
0000
0010
0001
1000
0000
,
0001
0100
0001
0100
0010
1000
0010
1000
,
0020
0000
0000
0030
,
1000
0000
1000
0100
0000
0100
0010
0000
,
0010
0001
0000
0001
1000
0001
0100
0000
,
0001
0000
0001
0100
0000
0100
0010
0000
,
0010
1000
0000
1000
0001
1000
0100
0000
,
1000
0000
1000
0010
0000
0010
0100
0000
,
0100
0001
0000
0001
1000
0001
0010
0000
,
0001
1000
0001
1000
0010
0100
0010
0100
,
0001
0010
0001
0010
0100
1000
0100
1000
,
0001
0100
0001
0100
0001
0000
1000
0100
,
1000
0100
1000
0000
0010
0100
0010
0100
,
0010
1000
0010
1000
0001
0000
0100
0001
,
0100
0001
1000
0000
0001
0010
0100
0010
,
0001
0100
0001
0100
0001
0000
1000
0010
,
1000
0010
1000
0000
0100
1000
0010
0100
,
0001
1000
0001
1000
0010
0100
0010
0100
,
0002
0000
0000
0003
,
1000
0100
1000
0000
1000
0010
1000
0000
,
1000
0010
0100
0000
0010
1000
0010
0000
,
1000
0100
1000
0000
1000
0001
1000
0000
,
0001
0010
0100
0000
0010
0001
0100
0000
,
0001
0100
0001
0000
0001
1000
0001
0000
,
0100
0010
1000
0000
0010
0100
0001
0000
,
1000
0100
1000
0100
0010
0001
0010
0001
,
1000
0100
0010
0100
1000
0100
0010
0100
,
1000
0001
0100
0000
0001
1000
0010
0000
,
1000
0001
0100
0000
0001
1000
0100
0000
,
0010
0001
0100
0000
0010
1000
0100
0000
,
1000
0010
0100
0000
0001
0010
0100
0000
,
0010
0001
1000
0000
0100
1000
0001
0000
,
0100
0010
1000
0000
0010
0100
0001
0000
,
1000
0100
1000
0100
0010
0001
0010
0001
,
1000
0100
0010
0100
1000
0100
0010
0001
,
2001
0000
0010
0000
0010
0000
0010
0000
3100
0000
0010
0001
0100
0000
0001
0000
,
1002
0000
0010
0000
0010
0000
0010
0000
0103
0000
1000
0100
0010
0000
0100
0000
,
2010
0000
0100
0000
0100
0000
0100
0000
3001
0000
0100
0010
1000
0000
0010
0000
,
0100
0000
0000
0000
,
0000
0000
0000
0000
,
0110
0000
0000
0000
,
0000
0000
0000
0000
,
1000
1000
1000
1000
,
0001
0001
0001
0001
,
0100
0100
0100
0100
,
0010
1000
0010
0000
0100
0001
0100
0000
,
0001
0001
0001
0001
,
0010
0010
0010
0010
,
0100
0100
0100
0100
,
1000
0100
1000
0000
1000
0001
1000
0001
,
0100
0100
0100
0100
,
0010
0010
0010
0010
,
1000
1000
1000
1000
,
0001
1000
0010
0000
1000
0001
0100
0000
,
0001
0001
0010
0010
,
0100
0100
1000
1000
,
0001
0010
0001
0010
0100
1000
0100
1000
,
0002
0000
0000
0003
,
1000
0000
0100
1000
0100
0000
1000
0000
,
0001
0100
0010
1000
,
0001
0000
0100
0001
0100
0000
0001
0000
,
1000
0000
0010
1000
0001
0000
0001
0000
,
1000
0000
0100
0010
0001
0000
0010
0000
,
0100
1000
0010
0100
,
0010
1000
0010
1000
0010
0100
0001
1000
,
0001
1000
1000
0000
,
0001
0010
0001
0010
0001
0000
1000
0100
,
1000
0100
1000
0000
0010
0100
0010
0100
,
0001
1000
0001
1000
0001
0000
1000
0100
,
1000
0100
1000
0000
0010
0100
0010
0100
,
0010
0000
0010
1000
0010
0000
0100
0001
,
0100
0001
1000
1000
,
0001
0010
0001
0010
0100
1000
0100
1000
,
0002
0000
0000
0003
,
0220
0000
0000
0000
,
0000
0000
0000
0000
,
0000
0000
0000
0000
,
0000
0330
0001
2002
,
0000
0000
0000
0000
,
0000
0000
0000
3003
,
2200
0000
0000
0000
,
0000
0000
0000
0000
3300
0000
0001
0010
,
0002
0000
0000
0000
,
0000
0000
0000
0000
0003
0000
1000
0100
,
2000
0000
0000
0000
,
0000
0000
0000
0000
3000
0000
0010
0100
,
0010
0000
0220
0000
0330
0000
0100
0001
,
1000
0000
2002
0000
3003
0000
0001
0010
,
0001
1000
0001
1000
0001
1000
0001
1000
,
0010
0100
0010
0100
0010
0100
0010
0100
,
0001
0010
0100
1000
0001
0000
1000
0000
,
0001
0010
0100
1000
0001
0000
1000
0000
,
0001
0100
0010
1000
0001
0000
1000
0000
,
0001
0100
0010
1000
0001
0000
1000
0000
,
0001
0100
0001
0100
0001
0010
0001
0010
,
0001
0100
0010
0100
0001
0100
0010
0100
,
0001
0100
0010
0100
0001
0000
0001
0000
,
1000
0100
1000
0010
1000
0000
1000
0000
,
1000
0100
1000
0001
1000
0000
0010
0000
,
1000
0100
1000
0001
1000
0000
0010
0000
,
1000
0100
0010
0100
1000
0000
0001
0000
,
1000
0100
0010
0100
1000
0000
0001
0000
,
1000
0100
1000
0100
1000
0001
1000
0001
,
0100
0010
0100
0010
1000
0010
1000
0010
,
0100
0001
0100
0001
0010
0100
0010
0100
,
0010
0001
1000
0100
0010
0001
1000
0000
,
2002
0000
0000
0000
,
0000
0000
0000
0000
,
0000
0000
0000
0000
,
0000
0000
0000
3003
;
