#TITLE:キャッシュレスは愛情消すティッシュ;
#ARTIST:GINGER;
#TITLETRANSLIT:Cashless wa aijoukesu tissue;
#BANNER:Cashless wa aijoukesu tissue.png;
#BACKGROUND:Cashless wa aijoukesu tissue-bg.png;
#JACKET:Cashless wa aijoukesu tissue-jacket.png;
#CDTITLE:./CDTITLES/BEATMANIA IIDX.PNG;
#MUSIC:Cashless wa aijoukesu tissue.ogg;
#OFFSET:-0.004;
#SAMPLESTART:42.462;
#SAMPLELENGTH:15;
#BPMS:0=117,36=170;

//---------------dance-single - t7r----------------
#NOTES:
     dance-single:
     t7r:
     Beginner:
     3:
     :
0000
0000
0000
0000
,
0000
0000
0000
0000
,
0000
0000
0000
0000
,
0000
0000
0000
0000
,
0000
0000
0000
0000
,
0001
0000
0000
0000
,
1000
0000
0000
0000
,
0010
0000
0000
0000
,
0100
0000
0000
0000
,
0010
0000
0000
0000
,
0000
0100
0000
0000
,
0000
1000
0000
0000
,
0000
0010
0000
0000
,
0000
1000
0000
0000
,
0000
0010
0000
0000
,
0000
1000
0000
0000
,
0000
0001
0000
0000
,
0000
0010
0000
0100
,
0100
0000
0000
0000
,
1000
0000
0000
0000
,
0001
0000
0000
0000
,
0100
0000
0000
0000
,
0010
0000
0000
0000
,
1000
0000
0000
0000
,
0001
0000
0000
0000
,
0100
0000
0000
0000
,
0000
1000
0000
0001
,
0000
1000
0000
0100
,
0000
0001
0000
1000
,
0000
0001
0000
0100
,
0100
0000
0000
0000
,
0010
0000
0000
0000
,
1000
0000
0000
0000
,
0001
0000
0000
0000
,
0010
0000
0000
0100
,
0100
0000
0000
0001
,
0001
0000
0000
1000
,
1000
0000
0000
0010
,
0010
0000
0000
0100
,
0100
0000
0000
0001
,
0001
0000
0000
0010
,
0010
0000
0100
0000
,
1001
0000
0000
0000
,
0000
0000
0000
0000
,
0010
0000
0000
0000
,
0000
0000
0000
0000
,
0001
0000
0000
0000
,
0000
0000
0000
0000
,
1000
0000
0000
0000
,
0001
0000
0000
0000
,
0100
0000
0100
0000
,
0010
0000
0010
0000
,
1000
0000
1000
0000
,
0001
0000
0001
0000
,
0100
0000
0000
0000
,
0001
0000
0000
0000
,
0010
0000
0000
0000
,
0100
0000
0000
0000
,
1000
0000
0010
0000
,
0100
0000
0001
0000
,
0010
0000
0100
0000
,
0010
0000
0001
0000
,
1000
0000
0010
0000
,
0100
0000
0001
0000
,
1000
0000
0100
0000
,
0010
0000
0000
0001
,
0001
0000
1000
0000
,
0010
0000
0100
0000
,
0001
0000
1000
0000
,
0010
0000
0100
0000
,
0001
0000
0010
0000
,
0100
0000
1000
0000
,
0001
0000
0010
0000
,
1000
0000
0010
0000
,
0001
0000
0000
0000
;

//---------------dance-single - t7r----------------
#NOTES:
     dance-single:
     t7r:
     Easy:
     6:
     :
0000
0000
0000
0000
,
0000
0000
0000
0000
,
0000
0000
0000
0000
,
0000
0000
0000
0000
,
0000
0000
0000
0000
,
0001
0000
0001
0000
,
1000
0000
1000
0000
,
0010
0000
0010
0000
,
0200
0000
0000
0000
,
0310
0000
0000
0000
,
0010
0020
0030
0100
,
0010
0020
0030
1000
,
0001
0002
0003
1000
,
0100
0200
0300
0010
,
0001
0020
0030
0100
,
1000
0200
0300
1000
,
0010
0200
0300
0010
,
1000
0001
0100
0001
,
1000
1000
0001
0001
,
0100
0100
0010
0010
,
1000
0010
0100
0001
,
1000
0100
0010
0001
,
1000
1000
0100
0100
,
1000
1000
0010
0010
,
0100
0100
0001
0001
,
0010
0010
0001
0001
,
1001
0000
0000
1000
,
1000
0000
0010
0100
,
0001
0000
0000
0001
,
0001
0000
0100
0010
,
1000
0000
0000
0010
,
0010
0000
0100
0001
,
1000
0000
0000
0001
,
0001
0000
0010
0100
,
1000
0100
0010
0001
,
1000
0100
0010
0001
,
1000
0010
0100
0001
,
1000
0010
0100
0001
,
1000
0001
1000
0001
,
1000
0100
1000
0100
,
0010
0001
0010
0001
,
1000
0010
0100
0001
,
2000
0000
0000
0001
,
3001
0000
0000
0000
,
0002
0000
0000
1000
,
1003
0000
0000
0000
,
0020
0000
0000
0100
,
0130
0000
0000
0000
,
0200
0000
0000
0010
,
0310
0000
0010
1000
,
0002
0003
2000
3000
,
0002
0003
0100
0010
,
2000
3000
0020
0030
,
0200
0300
0001
1000
,
0200
0300
2000
3000
,
0200
0300
0010
0001
,
0200
0000
0000
0300
,
0020
0000
0030
1000
,
1001
0001
0100
0001
,
0010
0100
1000
0100
,
1000
0100
0010
0001
,
0100
0010
1000
0010
,
0100
0000
0010
0010
,
1000
0000
0001
0001
,
0100
0000
0001
0001
,
0010
0000
0100
0100
,
1000
0010
0100
0001
,
1000
0001
0100
0001
,
1000
0010
0100
0010
,
1000
0010
1000
0100
,
0010
0001
0010
0100
,
1000
0100
0001
0100
,
1000
0010
0001
0010
,
1000
0100
1000
0001
,
0200
0000
0300
0000
;

//---------------dance-single - t7r----------------
#NOTES:
     dance-single:
     t7r:
     Medium:
     7:
     :
0000
0000
0000
0000
,
0000
0000
0000
0000
,
0000
0000
0000
0000
,
0000
0000
0000
0000
,
0000
0000
0000
0000
,
0001
0010
0010
0000
,
0001
1000
1000
0000
,
0010
0100
0001
0000
,
1000
0002
0000
0000
,
1003
0000
0000
0000
,
1001
0020
0000
0130
,
0001
2000
0000
3001
,
0010
0200
0000
1300
,
0100
0020
0000
0031
,
1000
1000
0001
0100
,
0010
1000
0010
0100
,
0001
1000
0001
0100
,
0001
0010
0100
1000
,
1001
0001
0100
0010
,
1000
0010
0100
0001
,
1000
0100
0010
0001
,
0010
0100
1000
0100
,
1000
0001
0100
0010
,
1000
0010
0100
0001
,
1000
0100
0001
0010
,
0001
0100
1000
0010
,
1000
0000
0001
0001
0000
1000
0000
0001
,
0000
1000
0000
0001
0000
0100
0000
0000
,
0001
0000
1000
1000
0000
0001
0000
1000
,
0000
0010
0000
1000
0000
0100
0000
0000
,
1000
0000
0100
0100
0000
0010
0000
0001
,
0000
0010
0000
0100
0000
1000
0000
0000
,
0100
0000
0010
0010
0000
0001
0000
0010
,
0000
0001
0000
0100
0000
0010
0000
0000
,
1000
0000
0010
0010
0000
1000
0000
0010
,
0000
0100
0000
0001
0000
1000
0000
0000
,
0001
0000
0010
0010
0000
0001
0000
0010
,
0000
0100
0000
1000
0000
0100
0000
0000
,
1000
0000
0100
0100
0000
1000
0000
0010
,
0000
0100
0000
0001
0000
0100
0000
0000
,
0001
0000
1000
1000
0000
0001
0000
0010
,
0000
0001
0000
0100
0000
0010
1000
0000
,
0001
0000
1000
0200
0000
0000
1300
0200
,
0000
0000
0310
0001
,
0100
0000
0010
1000
0002
0000
0000
1003
,
0002
0000
0103
0010
,
1000
0000
0010
0100
0002
0000
0000
0103
,
0002
0000
0103
0001
,
0020
0000
0000
0000
0030
0000
0000
0100
,
0200
0300
1000
1000
,
0002
0003
2000
3000
,
0002
0003
0100
0001
,
0020
0030
0002
0003
,
0200
0300
0010
1000
,
0200
0300
2000
3000
,
0002
0000
0003
0000
0001
0100
0001
0000
,
0020
0000
0030
0100
,
0200
0300
0020
0030
,
1001
0000
0001
0001
0000
0100
0000
0001
,
0000
1000
0000
0010
0000
1000
0000
0000
,
0001
0000
1000
1000
0000
0100
0000
1000
,
0000
0010
0000
0100
0000
0001
0000
0000
,
0100
0000
0010
0010
0000
1000
0000
0010
,
0000
0001
0000
0010
0000
1000
0000
0000
,
0100
0000
1000
1000
0000
0100
0000
0001
,
0000
0100
0000
1000
0000
0010
0000
0000
,
1010
0000
0010
0010
0000
0100
0000
0001
,
0000
0100
0000
0001
0000
1000
0000
0000
,
1001
0000
0001
0001
0000
1000
0000
0100
,
0000
1000
0000
0010
0000
0100
0000
0000
,
0101
0000
0010
0010
0000
0100
0000
0001
,
0000
0101
0000
1001
0000
1100
0000
0000
,
1001
0000
1000
1000
0000
0100
0000
0010
,
0000
1100
0000
1001
0000
0101
0000
0000
,
0010
0000
0000
0010
0000
0000
0010
0000
0000
0000
0000
0000
0000
0000
0000
0000
;

//---------------dance-single - t7r----------------
#NOTES:
     dance-single:
     t7r:
     Hard:
     11:
     :
0000
0000
0000
0000
,
0000
0000
0000
0000
,
0000
0000
0000
0000
,
0000
0000
0000
0000
,
0000
0000
0000
0000
,
0001
0010
0001
0001
1000
0010
0100
0001
,
0001
2000
0000
3020
0000
1030
1000
0100
,
0010
0001
0100
0020
0000
1030
0001
2000
,
0000
3001
0020
0000
0000
0000
0000
0000
,
0031
0000
1001
0000
0001
1000
0100
1000
,
0001
0000
0110
0000
1000
0020
0000
1030
,
0010
0000
0101
0000
0001
0020
0000
0031
,
0010
0000
1100
0000
1000
0002
0000
1003
,
0001
0000
0110
0000
0010
1000
0100
0000
,
1000
0000
1100
0000
0100
0020
0000
0130
,
0010
0000
0110
0000
0010
0002
0000
0013
,
0001
0000
1001
0000
0001
0200
0000
0310
,
1000
0000
1001
0000
1000
0001
0100
0001
,
0010
0000
0100
0000
1000
0001
0100
0000
,
1001
0000
0001
0000
0010
0001
0100
0000
,
0101
0000
0010
0000
1000
0010
0100
0000
,
0110
0000
0010
0000
1000
0001
0100
0000
,
0001
0000
1000
0000
0001
1000
0001
0000
,
1000
0000
0100
0000
0010
0001
0100
0000
,
0010
0000
1000
0000
0001
0000
0100
0000
0001
0000
0000
0001
0000
0000
0001
0000
,
0010
0100
1000
0100
0010
0001
0100
0001
,
1000
0000
0010
0100
0000
0110
0000
0010
,
0000
1000
0000
0001
0000
1001
0000
0000
,
0101
0000
0001
0010
0000
0110
0000
0010
,
0000
0001
0000
0100
0000
1000
0000
0000
,
1100
0000
0100
0010
0000
0110
0000
0010
,
0000
1000
0000
0100
0000
0010
0000
0000
,
1001
0000
0001
0100
0000
1001
0000
0001
,
0000
1000
0000
0010
0000
1000
0000
0000
,
0101
0000
0001
0100
0001
0010
0000
0101
,
0000
1010
0000
1100
0000
1001
0000
0000
,
1100
0000
1000
0100
1000
0010
0000
1001
,
0000
1010
0000
0110
0000
1001
0000
0000
,
0110
0000
0010
0100
0001
0100
0001
0010
,
0000
0110
0000
1100
0000
1010
0000
0000
,
1100
0000
1000
0001
0100
0001
1000
0010
,
0000
1001
0000
0011
0000
0001
0100
0010
,
2000
0000
0000
0000
3001
0100
0002
0000
0000
0000
0000
0000
1003
0100
2000
0000
,
0000
0000
0000
0000
0000
0000
0000
0000
3001
0000
0000
1001
0000
0000
0001
0000
,
0002
0000
0000
0000
0000
0000
1003
0100
2000
0000
0000
0000
0000
0000
3100
0010
,
0200
0000
0000
0000
0000
0000
0000
0000
0310
0000
0000
0011
0000
0000
0001
0000
,
0200
0000
0000
0000
0000
0000
0310
1000
0020
0000
0000
0000
0000
0000
1030
0001
,
2000
0000
0000
0000
0000
0000
0000
0000
3001
0000
0000
1001
0000
0000
1000
0000
,
0200
0000
0000
0000
0000
0000
0310
0001
0020
0000
0000
0000
0000
0000
0031
1000
,
0200
0000
0000
0000
1300
0001
0010
0001
,
0200
0000
0310
2000
0000
3001
0200
0000
,
0302
0000
0000
0000
0000
0000
0000
0000
1003
0000
0000
1010
0000
0000
0010
0000
,
0200
0000
0000
0000
0000
0000
0301
1000
0002
0000
0000
0000
0000
0000
0000
0000
,
2003
0000
0000
0000
0000
0000
0000
0000
3010
0000
0000
1010
0000
0000
0010
0000
,
0200
0000
0000
0302
0000
1003
0001
0001
,
0200
0000
0000
0310
1000
0010
0100
0001
,
2000
0000
0000
0000
0000
0000
0000
0000
0000
0000
0000
0000
3000
0000
0001
0010
,
0200
0000
2000
3300
,
1001
0000
0001
0100
0000
0001
0000
1000
,
0000
0010
0000
0100
0000
0110
0000
0000
,
1010
0000
0010
1000
0000
0001
0000
0100
,
0000
0001
0000
1000
0000
1001
0000
0000
,
0011
0000
0001
0100
0000
0010
0000
0100
,
0000
0110
0000
1001
0000
0110
0000
0000
,
1100
0000
0100
1000
0000
0010
0000
0011
,
0000
1010
0000
1100
0000
1001
0000
0000
,
1001
0000
0001
0100
0001
0010
0001
0100
,
0000
0110
0000
1010
0000
1100
0100
0010
,
0100
0000
1000
0100
0010
0001
0100
0010
,
0000
1010
0000
0011
0000
1001
0001
0100
,
0010
0100
0001
1000
0001
0010
0001
0100
,
0010
1000
0100
0001
0100
1000
0010
0100
,
0010
1000
0100
0010
0100
1000
0010
0100
,
0001
0000
0001
0000
1000
0000
1000
0000
0010
0100
0010
0100
0010
0000
1000
0000
,
0001
0000
0000
0010
0000
0000
0100
0000
0000
0000
0000
0000
0000
0000
0000
0000
;

//---------------dance-single - t7r----------------
#NOTES:
     dance-single:
     t7r:
     Challenge:
     14:
     :
0000
0000
0000
0000
,
0000
0000
0000
0000
,
0000
0000
0000
0000
,
0000
0000
0000
0000
,
0000
0000
0000
0000
,
0001
0100
0010
0010
1000
0100
0010
0001
,
0001
0100
0100
1000
1000
0100
0100
0001
,
0010
0100
1000
0020
0000
0130
0001
2000
,
0000
3001
2000
0000
0000
0000
0000
0000
,
3001
0000
0000
0000
1001
0000
0000
0000
0001
0100
0001
0000
1000
0100
1000
0000
,
1100
0000
0011
0000
0100
0002
0000
1003
,
0010
0000
1010
0000
0010
0200
0000
0301
,
0100
0000
0101
0000
0001
2000
0000
3001
,
0010
0000
0110
0000
0010
0001
0100
0001
,
1000
0000
1010
0000
0010
0200
0000
0301
,
1000
0000
1001
0000
0001
0020
0000
0031
,
0100
0000
0110
0000
0010
2000
0000
3001
,
1000
0001
0010
0100
1000
0100
0010
0001
,
0100
0000
0010
0000
1000
0000
0010
1000
0000
0010
0000
0100
0000
0001
1000
0000
,
0001
0000
0010
0000
0100
0000
1000
0100
0000
0010
0000
0001
0000
0100
0001
0000
,
0100
0000
0001
0000
1000
0000
0010
0100
0000
0001
0000
0010
0000
0001
1000
0000
,
0001
0000
0010
0000
0100
0000
1000
0100
0000
0001
0000
0100
0000
1000
0010
0000
,
1000
0010
0000
1000
0010
0000
0100
0001
0000
0100
0001
0000
1000
0000
0010
0000
,
0100
0001
0000
1000
0001
0000
1000
0010
0000
1000
0100
0000
0010
0000
0001
0000
,
0100
0000
0001
0000
1000
0000
0010
0000
0100
0000
0001
0100
0000
0001
1000
0000
,
0001
0010
0100
1000
0100
0010
0001
1000
,
1001
0000
0101
0001
1000
0010
1000
0100
,
1000
0010
0100
0001
1000
0001
0010
0000
,
1100
0000
1100
0001
0010
0001
1000
0100
,
1000
0001
0010
0001
0100
0010
1000
0000
,
0101
0000
0101
1000
0010
1000
0100
1000
,
0001
1000
0100
1000
0010
0100
0001
0000
,
1100
0000
1100
0010
0100
0001
1000
0001
,
0100
0001
0010
0100
1000
0100
1000
0000
,
1001
0000
0000
0000
0101
0000
0000
0001
0010
0000
0000
0010
0100
0000
0000
0000
,
1100
0000
1010
0010
0100
0001
1000
0000
,
1010
0000
0000
0000
0110
0000
0000
0010
0100
0000
0000
0100
0001
0000
0000
0000
,
0011
0000
0101
0001
1000
0100
1000
0000
,
1100
0000
0000
0000
1010
0000
0000
1000
0100
0000
0000
0100
1000
0000
0000
0000
,
0110
0000
1010
0010
0100
0001
1000
0000
,
0101
0000
0000
0000
1001
0000
0000
0001
1000
0000
0000
1000
0001
0000
0000
0000
,
1000
0100
0010
0001
1000
0100
0010
0001
,
0200
0000
0000
0000
0310
1000
0002
0000
0000
0000
0000
0000
1003
0001
0200
0000
,
0000
0000
0000
0000
0000
0000
0000
0000
0310
0000
0000
1010
0000
0000
0001
0000
,
0102
0000
0000
0000
0000
0000
1003
0001
0200
0000
0000
0000
0000
0000
0301
1000
,
0200
0000
0000
0000
0000
0000
0000
0000
1300
0000
0000
1100
0000
0000
1000
0000
,
1020
0000
0000
0000
0000
0000
0130
0001
2000
0000
0000
0000
0000
0000
3001
1000
,
0002
0000
0000
0000
0000
0000
0000
0000
1003
0000
0000
1100
0000
0000
0010
0000
,
2100
0000
0000
0000
0000
0000
3001
0100
0002
0000
0000
0000
0000
0000
1003
0001
,
1000
0000
1001
0000
0010
0100
0001
0100
,
0101
0000
0001
0011
0000
1000
1100
0000
,
1020
0000
0000
0000
0130
0000
0001
0000
1000
0000
0001
0100
0000
0100
0001
0000
,
0012
0000
0000
0000
0000
0000
0013
0100
0010
0000
0000
0000
1100
0000
0000
0000
,
1002
0000
0000
0000
0103
0000
0000
0000
1000
0000
0010
0001
0000
0010
1000
0000
,
1020
0000
0130
0002
0000
1003
1001
0001
,
0021
0000
0000
0031
0100
0001
1000
0001
,
0200
0000
0000
0000
0000
0000
0000
0000
0000
0000
0000
0000
0000
0000
0310
1000
,
0020
0000
0030
0000
1001
0000
0010
0100
,
1001
0000
0101
1000
0010
1000
0100
0010
,
0100
1000
0010
0100
0001
1000
0001
1000
,
1010
0000
1100
0001
0010
0001
0100
0001
,
0010
0100
1000
0100
1000
0010
0100
0001
,
1001
0000
0101
1000
0010
1000
0100
1000
,
0010
0100
0010
1000
0001
0100
0001
0010
,
0110
0000
1100
0010
0100
0001
1000
0001
,
0010
0001
0100
0010
1000
0001
1000
0001
,
0101
0000
0000
0001
0100
0000
0001
0000
0010
0100
0000
0100
1000
0000
0100
0000
,
0110
0000
0000
0000
1001
0000
1000
0000
0010
1000
0000
1000
0001
0000
0100
0000
,
0101
0000
0000
0000
0011
0000
0001
0000
0010
0001
0000
0001
0100
0000
0010
0000
,
1010
0000
0000
0000
1100
0000
1000
0000
0100
1000
0000
1000
0001
0000
0000
0000
,
1000
0000
0010
0000
0100
0000
0001
0000
1000
0010
0000
0010
1000
0000
0001
0000
,
0100
0000
0001
0000
0010
0000
1000
0000
0010
0001
0000
0001
0100
0000
1000
0000
,
0100
0000
1000
0000
0100
0000
0010
0000
1000
0010
0000
0010
0100
0000
0001
0000
,
1000
0100
0010
0001
1000
0100
0010
0001
1000
0010
0100
0001
1000
0010
0100
0001
,
1000
0000
0000
0110
0000
0000
1001
0000
0000
0000
0000
0000
0000
0000
0000
0000
;
