#TITLE:CaptivAte2~覚醒~;
#ARTIST:e-lma;
#TITLETRANSLIT:CaptivAte2 ~KAKUSEI~;
#BANNER:CaptivAte2 ~KAKUSEI~.png;
#BACKGROUND:CaptivAte2 ~KAKUSEI~-bg.png;
#JACKET:CaptivAte2 ~KAKUSEI~-jacket.png;
#CDTITLE:./CDTITLES/BEATMANIA IIDX.PNG;
#MUSIC:CaptivAte2 ~KAKUSEI~.ogg;
#OFFSET:-1.371;
#SAMPLESTART:48.814;
#SAMPLELENGTH:15;
#BPMS:0=175;

//---------------dance-single - t7r----------------
#NOTES:
     dance-single:
     t7r:
     Beginner:
     2:
     :
0000
0000
0000
0000
,
0000
0000
0000
0000
,
0000
0000
0000
0000
,
0000
0000
0000
0000
,
1000
0000
0000
0000
,
0001
0000
0000
0000
,
0100
0000
0000
0000
,
0010
0000
0000
0000
,
0110
0000
0000
0000
,
0000
0000
0000
0000
,
1000
0000
0000
0000
,
0000
0000
0000
0000
,
0001
0000
1000
0000
,
0100
0000
0000
0000
,
1000
0000
0001
0000
,
0010
0000
0000
0000
,
0001
0000
0000
0000
,
0001
0000
0000
0000
,
0100
0000
0000
0000
,
0100
0000
0000
0000
,
0010
0000
1000
0000
,
0001
0000
0000
0000
,
1000
0000
0100
0000
,
0010
0000
0000
0000
,
0100
0000
0000
0000
,
1000
0000
0000
0000
,
0010
0000
0000
0000
,
0100
0000
0000
0000
,
0001
0000
1000
0000
,
0001
0000
0000
0000
,
1000
0000
0001
0000
,
1000
0000
0000
0000
,
0000
0010
0000
0000
,
0000
0000
0000
0000
,
0000
0000
0000
0000
,
1000
0000
0000
0000
,
0010
0000
0000
0000
,
0100
0000
0000
0000
,
0001
0000
1000
0000
,
0001
0000
0000
0000
,
0010
0000
0000
0000
,
0100
0000
0000
0000
,
1000
0000
0100
0000
,
1000
0000
0000
0000
,
1000
0000
0000
0000
,
0001
0000
0000
0000
,
0001
0000
0100
0000
,
0001
0000
0000
0000
,
0010
0000
0000
0000
,
0001
0000
0000
0000
,
0010
0000
0100
0000
,
1000
0000
0000
0000
,
1000
0000
0000
0000
,
0100
0000
0000
0000
,
0010
0000
0000
0000
,
0001
0000
0000
0000
,
0001
0000
0000
0000
,
1000
0000
0000
0000
,
1000
0000
0000
0000
,
0000
0010
0000
0000
,
0000
0100
0000
0100
,
0000
0010
0000
0010
,
0000
1000
0000
1000
,
0000
0001
0000
0001
,
0000
1000
0000
0100
,
0000
0010
0000
0001
,
0000
1000
0000
0100
,
0100
0000
1000
0000
,
0000
0001
0000
0100
,
0000
0010
0000
1000
,
0000
0010
0000
0100
,
0000
0001
0000
1000
,
1000
0000
0000
0000
,
0001
0000
0000
0000
,
1000
0000
0100
0000
,
0010
0000
0001
0000
,
1001
0000
0000
0000
;

//---------------dance-single - t7r----------------
#NOTES:
     dance-single:
     t7r:
     Easy:
     6:
     :
0000
0000
0000
0000
,
0000
0000
0000
0000
,
0000
0000
0000
0000
,
0000
0000
0000
0000
,
0002
0000
0003
0000
,
2000
0000
3000
0000
,
0020
0000
0030
0000
,
0100
0000
0220
0330
,
1001
1000
1000
1000
,
0001
1000
1000
0001
,
1000
1000
1000
0001
,
1000
1000
0001
0010
,
0001
0100
0010
1000
,
0001
0100
0010
1000
,
0001
0010
0100
1000
,
2002
0000
0000
3003
,
1000
0010
1000
0010
,
1000
0010
1000
0100
,
0001
0010
0001
0010
,
0001
0010
0001
0100
,
1000
0010
1000
0100
,
0001
0010
0001
0100
,
1000
0010
0100
0001
,
0010
0100
2002
3003
,
0010
0100
0010
0100
,
0010
0100
0001
1000
,
0100
0010
0100
0010
,
0100
0010
0001
1000
,
0010
1000
0100
0001
,
0100
1000
0010
0001
,
0010
0000
1001
0000
,
0100
0000
0110
0000
,
0000
2002
0000
0000
,
0000
0000
0000
3003
,
0000
0000
0000
0000
,
2000
0000
0000
3001
0000
0000
0000
0000
,
0200
0000
0000
0310
0000
0000
0000
0000
,
0020
0000
0000
1030
0000
0000
0000
0000
,
0001
1000
0002
0003
,
2000
0000
0000
3100
0000
0000
0000
0000
,
0020
0000
0000
0031
0000
0000
0000
0000
,
2000
0000
0000
3000
,
0010
0100
0001
1000
,
0002
0000
0000
0010
0000
0000
0103
0000
,
2000
0000
0000
0010
0000
0000
3100
0000
,
0002
0000
0000
1000
0000
0000
0013
0000
,
0100
0000
0000
0220
0000
0000
0330
0000
,
1000
0000
0000
0020
0000
0000
0030
0000
,
0100
0000
0000
0002
0000
0000
0003
0000
,
2020
0000
0000
3030
,
0001
0100
1000
0100
,
2002
0000
0000
3003
,
0220
0000
0000
0330
,
2002
0000
0000
3003
,
0220
0000
0000
0330
,
1000
1000
0001
0001
,
1001
1000
0001
0001
,
0110
0010
0100
0100
,
0220
0000
0000
0000
0330
0000
0000
0000
0100
0000
0000
0100
0000
0000
0100
0000
,
0000
2002
0000
3003
,
0010
1000
0001
0100
,
0010
1000
0001
0100
,
0010
1000
0001
0100
,
0010
1000
2002
3003
,
0001
0010
0100
1000
,
0001
0010
0100
1000
,
0001
0010
0100
1000
,
0220
0330
1000
0010
,
0100
0001
1000
0001
,
0100
0001
1000
0001
,
0010
1000
0010
0001
,
1000
0100
0002
0003
,
1001
0010
0010
0100
,
1001
0100
0100
0010
,
1000
0100
0010
0001
,
1000
0000
0001
1000
,
0120
0000
0000
0230
0000
0000
0302
0000
,
0000
2003
0000
0000
0000
0000
0000
0000
,
0000
0000
0000
0000
,
0000
0000
0000
3000
;

//---------------dance-single - t7r----------------
#NOTES:
     dance-single:
     t7r:
     Medium:
     10:
     :
0000
0000
0000
0000
,
0000
0000
0000
0000
,
0000
0000
0000
0000
,
0000
0000
0000
1000
,
0001
0000
0100
0001
0000
1000
0100
0000
,
1000
0010
0100
0001
2000
0000
3000
0000
,
0220
0000
0000
0330
,
0001
0100
2002
3003
,
0110
0000
1000
0000
0010
0000
0100
0001
,
1000
0000
0001
0000
0010
0000
0100
0010
,
0001
0000
0010
0000
0100
0000
1000
0100
,
0010
0000
0100
0000
1000
0001
0100
0001
,
1000
0000
0001
0000
1000
0000
0010
1000
,
0001
0000
1000
0000
0001
1000
0100
1000
,
0001
0000
0100
0000
0010
0000
1000
0001
,
2002
0000
0000
3003
,
0100
0000
0010
0100
0000
0010
0100
0000
,
0001
0100
0000
0010
1000
0000
1001
0000
,
1000
0000
0100
0010
0000
0100
0010
0000
,
0001
0100
0000
0010
1000
0000
0011
0000
,
1000
0000
0100
0010
0000
0001
0100
0000
,
0010
1000
0000
0001
0100
0000
1001
0000
,
0001
0010
0000
0010
0100
0000
1000
0000
,
0100
0010
0000
0010
0002
0000
0003
0000
,
1000
0000
0010
1000
0000
0001
0010
0000
,
0001
0100
0000
0010
1000
0000
0110
0000
,
0001
0000
0100
0010
0000
1000
0100
0000
,
0001
0100
0000
1000
0010
0000
1010
0000
,
1001
0000
0010
0100
0000
0100
0001
0000
,
0100
0010
0000
0010
1000
0000
0110
0000
,
0001
0010
0100
0000
1000
0100
0010
0000
,
0001
0000
0100
0000
0010
0000
1000
0000
0001
0000
0000
1000
0000
0000
0001
0000
,
0100
0220
0000
0000
,
0000
0000
0000
0330
,
0000
0000
0000
0000
,
1000
0000
1000
0020
0000
0000
1030
0000
,
0001
0000
0001
0200
0000
0000
0301
0000
,
1000
0000
1000
0200
0000
0000
1300
0000
,
0010
0100
2002
3003
,
0001
0000
0010
0200
0000
0000
1300
0000
,
0100
0000
0010
0002
0000
0000
1003
0000
,
0220
0000
0000
0330
,
1010
0101
1100
0011
,
1001
0000
0001
0200
0000
0301
0000
1000
,
0100
0000
1000
0020
0000
1030
0000
0010
,
0100
0000
0001
2000
0000
3001
0000
0100
,
0010
0000
0000
0220
0000
0000
0330
0000
,
1000
0010
0100
0002
0000
0000
0003
0000
,
0001
0010
0100
2000
0000
0000
3000
0000
,
0220
0000
0000
0330
,
1000
0011
1100
0101
,
1001
0020
0000
0230
0000
0000
0301
0000
,
1001
0020
0000
0230
0000
0000
1300
0000
,
1001
0020
0000
0230
0000
0000
0310
0000
,
1001
0020
0000
0230
0000
0300
0110
0000
,
0001
1000
0001
0000
1000
0100
0010
0000
,
0001
1000
0001
0000
0100
0010
1000
0000
,
0010
0000
0110
0000
0100
0001
0100
0001
,
1000
0000
0000
0000
0001
0000
0000
0000
1000
0000
0000
0001
0000
0000
1000
0000
,
0100
2002
0000
3003
,
1000
0000
0010
0000
1000
0000
0000
0001
0000
0000
0001
0000
0100
0000
0001
0000
,
0010
0000
0100
0000
0010
0000
0000
0001
0000
0000
1000
0000
0100
0000
0010
0000
,
0100
0000
1000
0000
0001
0000
0000
0100
0000
0000
0010
0000
1000
0000
0001
0000
,
1000
0000
0100
0000
0010
0000
0000
0001
0000
0000
1000
0000
0100
0000
0010
0000
,
1001
0000
0010
0000
0100
0000
0000
0010
0000
0000
1000
0000
0010
0000
0000
0010
,
1000
0000
0010
0000
0100
0000
0000
0001
0000
0000
1000
0000
0001
0000
0100
0000
,
0001
0000
1000
0000
0010
0000
0000
1000
0000
0000
0001
0000
1000
0000
0100
0000
,
1000
0000
0001
0000
0100
0000
0000
0110
0000
0000
0100
0000
0010
0000
1000
0000
,
0001
0000
0010
0000
0100
0000
0000
1000
0000
1000
0100
0000
1000
0000
0001
0000
,
0100
0000
0010
0000
1000
0000
0000
0010
0000
0010
0100
0000
0001
0000
1000
0000
,
0001
0000
0010
0000
0100
0000
0000
0001
0000
0001
0100
0000
1000
0000
0100
0000
,
1000
0000
0010
0000
0100
0000
0000
1000
0000
1000
0100
0000
0010
0000
0100
0000
,
1001
0000
0010
0000
0100
0000
0000
0001
0000
0000
1000
0000
0001
0000
0000
0000
,
1001
0000
0010
0000
0100
0000
0000
1000
0000
0000
0001
0000
1000
0000
0000
0000
,
0001
0000
0100
0000
0010
0000
1000
0010
0000
0000
1000
0000
0001
0000
0100
0000
,
0001
0000
0001
0000
1000
0000
1000
0000
0001
0000
0000
1001
0000
0000
0110
0000
,
0200
0000
0000
0302
0000
0000
2003
0000
,
0000
0020
0000
0000
0000
0000
0000
0000
,
0000
0000
0000
0000
,
0000
0000
0000
3030
;

//---------------dance-single - t7r----------------
#NOTES:
     dance-single:
     t7r:
     Hard:
     14:
     :
0000
0000
0000
0000
,
0000
0000
0000
0000
,
0000
0000
0000
0000
,
0000
0000
0000
0010
,
0100
0001
1000
0100
0000
0100
1000
0000
,
0001
0010
0100
0010
0002
0000
1003
0200
,
0000
1300
0020
0000
0000
0000
0030
0000
,
0100
0001
1000
0001
0010
0100
2000
0000
0000
3000
0000
0000
,
1001
0010
0100
0001
1000
0100
0001
0100
,
1000
0010
0100
0001
1000
0010
0100
0001
,
1000
0001
0010
0100
1000
0100
0010
0001
,
1000
0010
0100
0010
1000
0001
0100
1001
,
0001
0010
0100
1000
0001
0010
0100
0010
,
0001
1000
0100
0010
0100
1000
0001
0100
,
0010
1000
0001
0100
0001
1000
0001
0110
,
2002
0000
0000
3003
,
1000
0010
0001
1000
0010
0001
1000
0010
,
0001
1000
0010
0001
1000
0100
0001
0100
,
0001
0010
1000
0001
0010
1000
0001
0010
,
1000
0001
0010
1000
0001
0100
1000
0100
,
0010
0100
0001
1000
0001
0010
0100
1000
,
0100
0001
1000
0100
0001
1000
0100
0001
,
0100
0000
0001
0000
0010
0100
0000
1000
0100
0000
1000
0000
0010
0100
0000
0001
,
0100
0000
0001
0000
0010
0100
0000
0100
2000
0000
0000
0000
3100
0000
0000
0000
,
1001
0100
0001
1000
0100
0001
1000
0100
,
0001
1000
0100
0001
1000
0010
0001
0010
,
0001
0100
1000
0001
0100
1000
0001
0100
,
1000
0001
0100
1000
0001
0010
1000
0010
,
1001
0010
0100
0001
1000
0100
0010
0001
,
0010
0001
1000
0010
0001
1000
0001
0010
,
0100
0000
0001
0000
1000
0100
0000
0010
0001
0000
1000
0000
0001
0100
0000
0010
,
1000
0000
0001
0000
0100
0010
0000
0010
1000
0000
0000
0110
0000
0000
1001
0000
,
0010
0220
0000
0000
,
0000
0000
0000
0330
,
0000
0000
0000
0000
,
1001
0100
0010
2000
0000
3001
0000
1000
,
0001
0010
0100
0020
0000
0031
0000
1000
,
0100
1000
0001
0200
0000
0310
0000
0100
,
0102
0013
1200
1300
,
1100
0100
1000
0002
0000
0103
0000
0001
,
1001
0001
0010
0200
0000
0310
0000
0001
,
0011
0001
1000
0200
0000
0000
0310
0000
,
0001
1000
0001
0100
0010
0100
0001
0100
0010
1000
0001
1000
,
1001
1000
0001
0102
0000
1000
0000
0013
,
1100
0010
0100
2100
0000
0001
0000
3100
,
0110
0001
1000
0120
0000
0001
0000
1030
,
0101
0001
1000
2200
0000
0000
3300
0000
,
1100
0010
0001
0200
0000
0000
0301
0000
,
0101
0010
1000
0200
0000
0000
1300
0000
,
2002
0000
0000
3003
,
0010
1000
0010
0100
0001
0100
0001
1000
0001
0010
0100
1000
,
0110
0002
0000
2003
0000
0000
3001
0000
,
0110
2000
0000
3002
0000
0000
1003
0000
,
0110
0002
0000
2003
0000
0000
3001
0000
,
0110
0020
0000
0230
0000
0000
0310
0000
,
0110
0100
0100
0100
0101
0100
0100
0100
,
1100
0100
0100
0100
0011
0010
0010
0010
,
1001
0000
0001
1000
0100
0000
1000
0001
0100
0000
0001
1000
0010
0000
0100
0001
,
0100
0000
0010
0000
1000
0000
0010
0000
0101
0000
0000
1100
0000
0000
0101
0000
,
1000
2002
0000
3003
,
0011
0000
0001
0000
0100
0000
0010
1000
0000
0000
0001
0000
1000
0000
0100
0000
,
0010
0000
0100
0000
1000
0000
0100
0010
0000
0000
0001
0000
0100
0000
0001
0000
,
1000
0000
0010
0000
0100
0000
0010
1000
0000
0000
0001
0000
0010
0000
0100
0000
,
0010
0000
0001
0000
1000
0000
0100
0010
0000
0010
0001
0000
1000
0000
0001
0000
,
1001
0000
0010
0000
0100
0000
0001
1000
0000
0000
0001
0000
0010
0100
0000
0100
,
0010
0000
0001
0000
1000
0000
0100
0010
0000
0000
0001
0000
0100
0000
0001
0000
,
1000
0000
0010
0000
0100
0000
0001
1000
0000
0000
0001
0000
1000
0000
0100
0000
,
0110
0000
0110
0000
1000
0000
0100
0010
0000
0001
1000
0000
0100
0000
0010
0000
,
1001
0000
0010
0000
0100
0000
0010
1000
0000
1000
0001
0000
1000
0000
0100
0000
,
0010
0000
0001
0000
0100
0000
0001
0100
0000
0100
0010
0000
1000
0000
0001
0000
,
1000
0000
0001
0000
0100
0000
0010
0100
0000
0100
0001
0000
1000
0000
0001
0000
,
0010
0000
0001
0000
0100
0000
0001
0010
0000
0010
0001
0000
1000
0000
0100
0000
,
1001
0000
0010
0000
0100
0000
0001
1000
0000
0000
0001
0000
0100
0001
0000
0001
,
1000
0000
0100
0000
0010
0000
0100
1000
0000
0000
0001
0000
1000
0010
0000
0010
,
1000
0000
0010
0000
0101
0000
0001
0100
0000
1000
0100
0000
0001
0000
1000
0000
,
0010
0000
0010
0000
0100
0000
0100
0000
0110
0000
0000
1001
0000
0000
0110
0000
,
2000
0000
0000
3200
0000
0000
0320
0000
,
0000
0002
0000
0000
0000
0000
0000
0000
,
0000
0000
0000
0000
,
0000
0000
0000
0033
;

//---------------dance-single - t7r----------------
#NOTES:
     dance-single:
     t7r:
     Challenge:
     17:
     :
0000
0000
0000
0000
,
0000
0000
0000
0000
,
0000
0000
0000
0000
,
0000
0000
0000
0010
,
0001
0010
0100
2000
0000
3010
1000
0000
,
1000
0100
0010
0001
2000
0000
3010
0200
,
0000
0301
2000
0000
0000
0000
0000
0000
,
3001
0010
1000
0001
0100
1000
0002
0000
0000
0000
0000
0000
,
1003
0000
0010
0000
0100
0000
0010
0000
1000
0000
0001
0000
1000
0000
0001
0010
,
0100
0000
0010
0000
0001
0000
1000
0000
0010
1000
0000
0001
0100
0000
0001
1000
,
0001
0000
0010
0000
0100
0000
0010
0000
0001
0000
1000
0000
0100
0000
0010
0100
,
1000
0000
0001
0000
0100
0000
0010
0000
1000
0010
0000
1000
0001
0000
0010
0001
,
0100
0000
0010
0000
1000
0000
0100
0000
0010
0000
0100
0000
1000
0000
0010
1000
,
0001
0000
1000
0000
0010
0000
0100
0000
0010
1000
0000
0001
0010
0000
0001
1000
,
0001
0000
0010
0001
0100
0000
0010
0000
1000
0000
0001
1000
0010
0000
0110
0000
,
0002
0000
0000
0003
,
1000
0100
0010
0100
1000
0000
1000
0100
0010
0100
1000
0000
1000
0100
0010
0100
,
1000
0000
1000
0100
0010
0100
1000
0000
1000
0010
0100
0001
1000
0001
0010
0100
,
0010
0001
0100
0001
0010
0000
0010
0001
0100
0001
0010
0000
0010
0001
0100
0001
,
0010
0000
0010
0001
0100
0001
0010
0000
0001
1000
0010
0100
0000
0100
0001
1000
,
0001
0010
0001
0010
0001
0000
1000
0010
0100
0010
1000
0000
0010
1000
0001
1000
,
0001
0010
0100
0010
0001
0000
0001
0010
0100
0010
0001
0000
0001
0010
0001
1000
,
0010
1000
0001
0100
0000
0100
0010
1000
0010
1000
0100
0010
0000
0010
0100
1000
,
0100
1000
0010
0000
0001
0100
0000
1000
0100
0000
0001
1000
0000
1000
0001
0000
,
0010
0001
1000
0001
0010
0000
0010
0001
1000
0001
0010
0000
0010
0001
1000
0001
,
0010
0000
0010
0001
1000
0001
0010
0000
0001
0010
0001
0010
0100
1000
0100
1000
,
0001
0100
0010
1000
0001
0000
0001
0100
0010
1000
0001
0000
0001
0100
0010
1000
,
0001
0000
0001
0100
0010
1000
0001
0000
0001
0010
0100
0010
0000
0010
0001
1000
,
0100
1000
0100
1000
0010
0000
0100
0001
0100
0001
1000
0000
0001
0010
0100
0010
,
0001
1000
0001
1000
0010
0000
1000
0001
1000
0001
0010
0000
0001
1000
0001
1000
,
0100
1000
0100
0000
0010
0001
0000
0001
1000
0000
0010
0000
0100
0001
0000
0001
,
1000
0000
0010
0000
0100
0010
0000
1000
0001
0000
0010
0100
0000
0010
0001
0000
,
0010
2002
0000
0000
,
0000
0000
0000
3003
,
0000
0000
0000
0000
,
1001
0100
0010
2000
0000
3001
0000
1000
,
0001
0010
0100
0020
0000
0031
0000
1000
,
0100
1000
0001
0200
0000
0310
0000
0100
,
0001
0010
0100
0010
0100
1000
0020
0000
0000
0030
0000
0000
,
0101
0010
1000
0002
0000
0013
0000
0001
,
1100
0010
0100
2000
0000
3010
0000
0100
,
0101
1000
0010
0002
0000
0000
0003
0000
,
1000
0010
0001
1000
0100
0001
1000
0100
0010
0100
0010
0001
,
1001
0010
0100
1010
0001
1100
0001
1000
,
1001
0010
0100
0011
1000
1001
0100
0010
,
1100
0010
0001
1001
0010
0101
0010
1000
,
0101
0010
1000
2002
0000
0000
3003
0000
,
1100
0010
0001
2001
0000
0100
0000
3001
,
0101
0010
1000
1002
0000
0010
0000
1003
,
2200
0000
0000
3300
,
0001
0010
1000
0001
0100
1000
0001
0010
1000
0100
0001
1000
,
1001
0020
0000
1000
0000
0130
0000
1000
,
1001
0020
0000
0100
0000
0001
0000
1030
,
1100
0002
0000
0010
0000
1000
0000
0103
,
0101
2000
0000
0010
0000
0001
0000
3100
,
0110
0010
0010
0010
1001
1000
1000
1000
,
1100
0100
0100
0100
0011
0001
0001
0001
,
1001
0000
0001
0100
1000
0000
1000
0100
0001
0000
0001
0010
1000
0000
0010
0001
,
1000
0010
0100
0001
1000
0100
0010
0001
0010
0100
1000
0001
,
0100
0220
0000
0330
,
0010
1000
0010
0100
0001
0000
0001
1000
0000
1000
0001
0000
1000
0100
1000
0000
,
0001
0010
0100
0010
0001
0000
1000
0010
0000
0010
1000
0000
0001
0100
0001
0000
,
1000
0100
0010
0100
1000
0000
0100
0010
0000
0010
0001
0000
1000
0001
0100
0000
,
0010
1000
0010
0100
0010
1000
0001
2000
0000
3010
1000
0000
0001
0100
0010
0000
,
1000
0001
0100
0001
1000
0000
0001
0010
0000
0010
0001
0000
1000
0100
0000
0100
,
1000
0010
0100
0010
1000
0000
0010
0100
0000
0100
0001
0000
1000
0010
1000
0000
,
0001
0010
0100
0010
0001
0000
1000
0100
0000
0100
0010
0000
0100
1000
0001
0000
,
0110
0000
0110
0000
0010
0000
0100
0001
1000
0000
0000
1001
0000
0000
0110
0000
,
0010
1000
0010
1000
0001
0000
0010
0001
0000
0001
0010
0001
1000
0010
1000
0000
,
0100
1000
0100
1000
0001
0000
0100
0001
0000
0001
0100
0001
1000
0001
1000
0000
,
0001
0010
0001
0010
0100
0000
0010
0001
0000
0001
1000
0001
1000
0010
1000
0000
,
0100
1000
0100
1000
0010
0100
0001
2000
0000
3010
1000
0001
0010
0001
0010
0000
,
1001
0000
1000
0000
0010
0100
0010
0000
0100
0001
0100
0000
0001
0010
0001
0000
,
1001
0000
0001
0000
0010
0001
0010
0000
0100
1000
0100
0000
1000
0001
1000
0000
,
1010
0000
0010
0000
0100
0001
0100
0000
1000
0100
1000
0000
0010
0001
0010
0000
,
1001
0000
1000
0000
1100
0000
0100
0000
0011
0000
0000
1001
0000
0000
0101
0000
,
0210
0000
0000
0302
0000
0000
0203
0000
,
0000
0020
0000
0000
0000
0000
0000
0000
,
0000
0000
0000
0000
,
0000
0000
0000
0330
;
