#TITLE:CaptivAte~裁き~;
#ARTIST:DJ YOSHITAKA feat.A/I;
#TITLETRANSLIT:CaptivAte ~SABAKI~;
#BANNER:CaptivAte ~SABAKI~.png;
#BACKGROUND:CaptivAte ~SABAKI~-bg.png;
#JACKET:CaptivAte ~SABAKI~-jacket.png;
#CDTITLE:./CDTITLES/GUITAR FREAKS & DRUMMANIA.PNG;
#MUSIC:CaptivAte ~SABAKI~.ogg;
#SAMPLESTART:56.583;
#SAMPLELENGTH:15;
#BPMS:0=180;

//---------------dance-single - t7r----------------
#NOTES:
     dance-single:
     t7r:
     Beginner:
     3:
     :
0000
0000
0000
0000
,
0000
0000
0000
0000
,
0000
0000
0000
0000
,
0000
0000
0000
0000
,
0000
0000
0000
0000
,
1000
0000
0000
0000
,
0001
0000
0000
0000
,
0100
0000
0000
0000
,
0010
0000
0000
0000
,
1000
0000
0000
0000
,
0000
0000
0000
0000
,
0001
0000
0000
0000
,
0001
0000
0000
0000
,
1000
0000
1000
0000
,
1000
0000
1000
0000
,
0100
0000
0010
0000
,
0001
0000
0010
0000
,
0110
0000
0000
0000
,
0100
0000
0000
0000
,
0010
0000
0000
0000
,
1000
0000
0000
0000
,
0001
0000
0000
0000
,
0001
0000
0100
0000
,
0010
0000
1000
0000
,
0100
0000
0010
0000
,
0001
0000
0010
0000
,
0100
0000
0000
0000
,
1000
0000
0000
0000
,
0100
0000
0000
0000
,
0010
0000
0000
0000
,
1000
0000
0001
0000
,
0100
0000
0001
0000
,
1000
0000
0100
0000
,
1000
0000
0010
0000
,
0100
0000
0000
0000
,
0001
0000
0000
0000
,
1000
0000
0000
0000
,
0100
0000
0100
0000
,
0100
0000
0000
0000
,
0010
0000
0000
0000
,
0001
0000
0000
0000
,
1000
0000
0000
0000
,
1001
0000
0000
0000
,
0001
0000
0000
0000
,
1000
0000
0000
0000
,
0100
0000
0000
0000
,
0010
0000
0000
1000
,
1000
0000
0000
0000
,
0001
0000
0000
0000
,
0010
0000
0000
0000
,
0100
0000
0000
0010
,
0010
0000
1000
0000
,
0001
0000
0100
0000
,
0001
0000
0010
0000
,
0100
0000
1000
1000
,
1000
0000
0100
0000
,
0010
0000
1000
0000
,
0001
0000
0010
0000
,
0001
0000
0100
0100
,
0100
0000
0000
0000
,
0010
0000
0000
0000
,
1000
0000
0000
0000
,
0001
0000
0000
0000
,
0010
0000
0000
0000
,
0001
0000
0000
0000
,
0100
0000
0000
0000
,
1000
0000
0000
0000
,
0100
0000
0100
0000
,
0010
0000
0001
0001
,
0001
0000
1000
0000
,
1000
0000
0100
0100
,
0100
0000
0010
0000
,
0010
0000
0010
0010
,
0010
0000
1000
0000
,
0001
0000
0100
0000
,
0110
0000
0000
0000
;

//---------------dance-single - t7r----------------
#NOTES:
     dance-single:
     t7r:
     Easy:
     4:
     :
0000
0000
0000
0000
,
0000
0000
0000
0000
,
0000
0000
0000
0000
,
0000
0000
0000
0000
,
0000
0000
0000
0000
,
1000
0000
0000
0000
,
0001
0000
0100
0000
,
0010
0010
0000
0100
,
0200
0000
0300
0100
,
0010
0000
0000
1000
0000
1000
0000
2000
,
0000
0000
0000
3000
,
0020
0000
0000
0030
,
0200
0000
0300
0001
,
0001
0000
0000
0100
0000
0100
0000
0200
,
0000
0000
0000
0300
,
0010
0000
1000
0000
,
0001
0000
0100
0000
,
2002
0000
0000
3003
,
0000
1000
0000
0001
,
0001
0000
0000
0100
,
0100
0000
0010
0000
,
1000
0000
0001
0000
,
2001
0000
0010
0000
,
0001
0000
0100
3000
,
0012
0000
1000
0000
,
0100
0000
1000
0003
,
1001
0000
0000
1000
,
1000
0000
0000
0010
,
0010
0000
0100
0000
,
0001
0000
1001
0000
,
1002
0000
0100
0000
,
1000
0000
0010
0003
,
2100
0000
0001
0000
,
0010
0000
0100
3000
,
0110
0000
0010
0000
,
0000
0000
0100
0000
,
0010
0000
1000
0000
,
0000
0000
1000
0000
,
0001
0000
0100
0000
,
0000
0000
0100
0000
,
0001
0000
0010
0000
,
0000
0000
0010
0000
,
1001
0000
0000
0000
,
0000
1000
0000
0001
,
0000
0100
0000
0010
,
0000
1000
0000
0010
,
0000
0100
0000
0010
,
1000
0000
0001
0000
,
1000
0000
0100
0010
,
0001
0000
0010
0000
,
0200
0000
0000
0300
,
0000
1000
0000
1000
,
0000
0001
0000
0001
,
0000
0100
0000
0100
,
0000
0010
0000
0010
,
1001
0000
1000
0000
,
0001
0000
0100
0000
,
0101
0000
0001
0000
,
0010
0000
0100
0000
,
2000
0000
0000
0000
,
0000
0000
0000
3000
,
0100
0110
0000
0000
,
0001
0000
0001
0000
,
0010
0110
0000
0000
,
0010
0010
0001
0001
,
1001
0000
0100
0000
,
2000
0000
0000
3000
,
0020
0030
0020
0030
,
0200
0300
0200
0300
,
2002
0000
3003
1000
,
2000
3000
0002
0003
,
1000
0000
1000
0000
,
1000
0000
0100
0000
,
0010
0001
1000
0100
,
0010
0001
1000
0100
,
2002
0000
0000
0000
,
0000
0000
0000
0000
,
0000
0000
0000
0000
,
0000
3003
0000
0000
;

//---------------dance-single - t7r----------------
#NOTES:
     dance-single:
     t7r:
     Medium:
     8:
     :
0000
0000
0000
0000
,
0000
0000
0000
0000
,
0000
0000
0000
0000
,
0000
0000
0000
0000
,
0000
0000
0000
0000
,
1000
0100
0010
0100
,
2000
0000
3001
0000
,
0001
0200
0300
0010
,
2000
0000
3000
0001
,
1000
0000
0000
0001
0000
0001
0000
0001
,
0000
0100
0100
0000
0000
0000
0000
0000
,
0010
0000
1000
0000
,
0001
0000
0100
0010
,
1001
0000
0000
1000
0000
1000
0000
1000
,
0000
0100
0100
0000
0000
0000
0010
0000
,
0001
1000
0100
0010
,
0001
1000
0100
0010
,
2002
0000
3003
0010
,
1001
0000
0000
0001
0000
0001
0000
0100
,
0100
0000
0000
0010
0000
0010
0000
1000
,
1000
0000
0000
0001
0000
1000
0000
0001
,
0001
0000
0000
1000
0000
0000
0100
0000
,
0110
0000
0010
0001
,
1000
0100
1000
0010
,
0100
0100
0010
0010
,
1000
1000
0001
1000
,
1001
0000
0000
0001
0000
0001
0000
0010
,
0010
0000
0000
0010
0000
0010
0000
0100
,
0100
0000
0000
0100
0000
0100
0000
1000
,
0010
0000
0100
0100
,
1001
1000
0100
0100
,
1000
0010
0100
0001
,
1000
0001
1000
0001
,
0100
0020
0000
0030
0010
0000
0100
0000
,
1001
0000
0000
1000
0100
0000
0000
0000
,
0000
0100
0000
0000
0100
0000
0000
0000
,
0010
0000
0000
0010
0001
0000
0000
0000
,
0000
0001
0000
0000
0001
0000
0010
0000
,
1001
0000
0000
1000
0001
0000
0000
0000
,
0000
0100
0000
0000
0100
0000
0000
0000
,
0110
0000
0000
0010
1000
0000
0000
0000
,
0000
1001
0000
0000
1001
0000
0010
0100
,
0020
0000
0030
0100
,
1001
0000
0000
1000
0000
0100
0000
0000
,
1000
0000
0000
0010
0000
0100
0000
0000
,
0001
0000
0000
0100
0000
0001
0000
0000
,
1000
0000
0000
0001
0000
1000
0001
0000
,
1001
0000
0000
0010
0000
0100
0000
0000
,
0010
0000
0000
1000
0000
0010
0100
0000
,
1001
0000
0000
0001
0000
0100
0000
0000
,
0010
0000
0000
0010
0000
0000
0010
0000
1000
0000
0000
1000
0000
0000
0001
0000
,
1000
0000
0000
0100
0000
0100
0000
0000
,
0010
0000
0000
0001
0000
0100
0010
0000
,
1001
0000
0000
1000
0000
0001
0000
0100
,
0001
0000
0000
1000
0001
0000
0001
0000
,
0100
0000
0000
0010
0000
1000
0000
0100
,
1000
0000
0000
0100
0000
0010
0000
0001
,
1000
0000
0000
0010
0000
0100
0000
0010
,
1000
0000
0000
1000
0000
0000
1000
0000
0001
0000
0000
0001
0000
0000
0001
0000
,
0100
0100
0100
0100
,
0010
0100
0010
1000
,
0001
2002
0000
3003
,
0100
1001
0010
1001
,
0100
0220
0000
0330
,
0010
0010
1000
1000
,
0101
0000
0000
1100
0000
0101
0000
1100
,
0000
0000
0000
0010
,
1001
0001
0100
0010
,
1000
0100
0010
0010
,
0012
0000
0000
0103
,
0200
0000
0320
0000
,
1030
0000
1000
0000
0001
0000
0100
0001
,
1000
0000
1000
0000
0001
0000
1000
0100
,
0010
0010
0001
0001
,
1000
0000
0001
0000
0100
0000
0010
0100
,
0002
0000
0000
0000
,
0000
0000
0000
0000
,
0000
0000
0000
0000
,
0000
0003
0000
0000
;

//---------------dance-single - t7r----------------
#NOTES:
     dance-single:
     t7r:
     Hard:
     12:
     :
0000
0000
0000
0000
,
0000
0000
0000
0000
,
0000
0000
0000
0000
,
0000
0000
0000
0000
,
0000
0000
0000
0000
,
1000
0001
0100
0010
,
2000
0000
3001
0000
,
0001
0020
0000
0130
,
0220
0000
0330
0100
,
1001
0000
0010
0100
0000
0100
0000
0100
,
0000
0001
0001
0000
0000
1000
1000
1000
,
0020
0000
2030
0000
,
3002
0000
0013
0100
,
1001
0000
1000
0001
0000
1000
0000
1000
,
0000
0010
0010
0000
0000
0100
0100
0100
,
0002
0000
0000
1003
0020
0000
0000
0000
,
0230
0000
0302
0000
,
2000
3003
0220
0330
,
1000
0000
0100
1000
0000
0010
0000
0100
,
0000
0100
0001
0010
0000
0010
0001
1000
,
0001
0000
0100
0001
0000
1000
0000
0100
,
0000
0100
0010
0100
0000
1000
1000
1000
,
0001
0100
0001
0010
0000
0001
0000
1000
,
0000
0010
0000
0100
0000
0001
0000
1000
,
0001
0000
0000
0011
0000
0000
0100
0000
1000
0000
0000
1100
0000
0000
1000
0000
,
0010
0000
0000
0110
0000
0000
0100
0000
0001
0000
0001
0000
0001
0000
0001
0000
,
1000
0000
0001
0010
0000
0100
0010
0001
,
0100
0000
0010
1000
0000
0001
1000
0000
,
0001
0000
0100
0010
0000
1000
0100
0010
,
0001
0000
0100
0010
0000
0100
0100
0100
,
1001
0000
0010
0100
0000
0001
0000
1000
,
0010
0000
0000
1010
0000
0000
0001
0000
0100
0000
0000
0101
0000
0000
1000
0000
,
0100
0000
0000
1100
0000
0000
0001
0000
0010
0000
0000
0011
0000
0000
0001
0000
,
0100
0001
0000
1000
1000
1000
1000
1000
,
1010
0000
0010
0000
0010
1000
0100
0010
,
0100
1000
0010
0100
0001
0000
0001
1000
,
0100
0000
1000
0100
0010
0001
0100
0001
,
1000
0000
0001
0100
0100
0000
0001
1000
,
1001
0000
0001
0010
0100
1000
0100
0010
,
0001
0000
0100
0001
0100
0000
0010
1000
,
1000
0000
0001
0010
0001
1000
0100
1000
,
0010
0000
0100
0001
0001
0000
1000
1000
,
2002
0000
3003
0010
,
0100
0000
0001
0100
0000
0010
1000
0100
,
0010
0000
0100
1000
0000
0010
1000
0000
,
0001
0000
1000
0100
0000
1000
0010
0100
,
0001
0000
0100
0010
0000
1000
1000
1000
,
0001
0000
0010
0001
0000
1000
0010
0100
,
0010
0000
1000
0100
0000
0100
0011
0000
,
0101
0000
0001
0100
0000
0100
0010
1000
,
0001
0000
0000
1001
0000
0000
0010
0000
0100
0000
0000
0110
0000
0000
0100
0000
,
0010
0000
1000
0010
0000
0100
0001
0010
,
1000
0000
0010
0001
0000
1000
0100
0000
,
1001
0000
0001
0010
0000
0100
1000
0010
,
0001
0010
0000
0100
0010
0010
0010
0010
,
0110
0000
0100
0001
0000
1000
0100
1000
,
0001
0000
0100
0001
0000
1000
0100
0000
,
1001
0000
0001
0010
0000
0100
1000
0010
,
0100
0000
0000
0110
0000
0000
0001
0000
1000
0000
0000
1001
0000
0000
1000
0000
,
0100
0100
0100
0100
,
0100
0010
0100
0001
0100
1000
0100
0010
,
0100
0000
0000
0000
1000
0001
0000
0000
0000
0000
0000
0000
0000
0000
0100
0000
,
0100
0010
0100
0001
0100
1000
0100
0010
,
0100
0000
0000
0000
0001
1000
0000
0000
0000
0000
0000
0000
0000
0000
0000
0000
,
0010
1000
0010
1000
0100
0001
0100
0001
,
0100
0000
0100
1001
0000
0110
0000
1001
,
0000
0001
1000
0001
1000
1000
0010
0010
,
0101
0000
0001
0100
0000
0001
0010
0100
,
1000
0000
0100
0010
0001
0001
1000
1000
,
0020
0000
0000
0000
1030
0000
0010
0000
0200
0000
0000
0301
0000
0000
0010
0000
,
0002
1000
0003
0100
0020
0100
0100
0130
,
1001
0000
0100
0020
0000
0000
1030
0100
,
1000
0002
0000
0000
0000
0103
0010
1000
,
0001
0100
1000
0100
0001
0010
1000
0010
,
0001
0100
1000
0010
0001
0110
0110
0110
,
2002
0000
0000
0000
,
0000
0000
0000
0000
,
0000
0000
0000
0000
,
0000
3003
0000
0000
;

//---------------dance-single - t7r----------------
#NOTES:
     dance-single:
     t7r:
     Challenge:
     15:
     :
0000
0000
0000
0000
,
0000
0000
0000
0000
,
0000
0000
0000
0000
,
0000
0000
0000
0000
,
0000
0000
0000
0000
,
0001
0100
0010
1000
,
2100
0000
3001
0000
,
0100
0120
0000
1030
,
2002
0000
3003
0100
,
1001
0000
0010
0100
0000
0100
0000
0001
,
0000
1000
1000
0000
0000
0001
0001
0001
,
0020
0000
0000
0000
0000
0000
0031
1000
0002
0000
0000
0000
0000
0000
0000
0000
,
0203
0000
0310
0100
,
1001
0000
0010
0100
0000
0001
0000
1000
,
0000
0010
0010
0000
0000
0100
0100
0100
,
0001
0000
0100
0000
0010
1000
0010
0000
1000
0000
0100
0000
0010
0001
0010
0000
,
0001
0000
0100
0001
0100
0000
0001
0010
0001
0000
1000
0100
1000
0000
0010
0100
,
0002
0000
2000
3003
,
0110
0001
0100
0010
1000
0100
0010
0010
,
0100
1000
0010
0100
0001
1000
0001
0001
,
1000
0100
0010
0100
1000
0010
0100
0100
,
0001
0100
0010
1000
0000
0110
0110
0110
,
1001
0010
0100
2000
0000
3200
0000
0302
,
0000
0000
0203
0000
0000
0000
2300
0000
0000
0000
3020
0000
0000
0000
1030
0001
,
1000
0000
0000
1010
0000
0000
0001
0100
0001
0000
0000
0101
0000
0000
0001
0010
,
0001
0000
0000
0011
0000
0000
1000
0100
0010
0000
0110
0000
0110
0000
0110
0000
,
1001
0010
1000
0001
0100
0010
1000
1000
,
0100
0000
0010
0000
0100
0000
1000
0000
0001
0000
0100
0001
1000
0000
0100
0000
,
0100
0010
0100
1000
0010
0100
0001
0001
,
0010
0001
0100
0010
0000
0110
0110
0110
,
1001
0000
0010
0000
1000
0000
0002
0000
0000
0000
0023
0000
0000
0000
0031
0010
,
0001
0000
0000
0011
0000
0000
1000
0100
1000
0000
0000
1100
0000
0000
0010
0100
,
0010
0000
0000
0110
0000
0000
0001
1000
0100
0000
0000
1100
0000
0000
1000
0001
,
0100
1001
0000
0110
0110
0110
0110
0110
,
1001
0000
0010
1000
0100
1000
0010
1000
,
1010
0100
0001
0010
0110
0000
0011
0100
,
1100
0000
1001
1000
0001
0100
0001
0010
,
0011
0000
0001
0000
0100
0010
0000
0000
0110
0000
0000
0000
0110
0000
0100
0000
,
0101
0000
1001
0001
0010
0001
1000
0100
,
0110
0100
1000
0010
0101
0000
0110
0010
,
1010
0000
1001
0001
0010
0100
0010
0001
,
1001
1000
0010
0100
1010
0000
0110
0110
,
2002
0000
3003
0110
,
1001
0000
0010
0000
0100
0000
0010
0000
0001
0000
0000
1000
0000
1000
0001
0000
,
1000
0000
0010
0000
0100
0000
0010
0000
1000
0000
0000
0010
0000
0010
1000
0000
,
0001
0000
0010
0000
0100
0000
0010
0000
0001
0000
0000
0010
0000
0010
0001
0000
,
0100
0010
1000
0001
0000
0110
0110
0110
,
1001
0000
0010
0000
1000
0000
0001
0000
1000
0000
0000
0100
0000
0100
0010
0000
,
0001
0010
0000
0100
1000
0000
1000
0001
0000
0001
0100
0000
0010
0000
0100
0000
,
0001
0000
0010
0000
0001
0100
0000
0010
1000
0000
0100
0010
0000
0010
0001
0000
,
1001
0000
0000
0010
0100
0000
0001
0100
0010
0000
0000
0010
1000
0000
1000
0100
,
0010
0000
0001
0000
0010
0000
0100
0000
0010
0000
0000
0001
0000
0001
1000
0000
,
0010
0000
1000
0000
0010
0000
0100
0000
0010
0000
0000
1000
0000
1000
0001
0000
,
1000
0000
0100
0000
0010
0000
0001
0000
0100
0000
0000
0010
0000
0010
1000
0000
,
0001
1001
0000
0100
0110
0110
0110
0110
,
1001
0000
0001
0000
1000
0000
0100
0000
0010
0000
0000
0001
0000
1000
0010
0000
,
0100
0001
0000
0001
1000
0000
0010
1000
0000
1000
0001
0000
1000
0000
0100
0000
,
0010
0000
0100
0000
1000
0010
0000
0100
0001
0000
1000
0001
0000
0100
0010
0000
,
1001
0000
0000
0010
0100
0000
0001
0010
0001
0000
0000
1000
0010
0000
0100
0010
,
1000
0100
0100
0100
,
0100
0010
0100
0001
0100
1000
0100
0010
,
0100
0000
0100
1000
0001
0000
0000
0000
0000
0000
0000
0000
0000
0000
0100
0000
,
0100
0000
0001
0010
0100
0000
1001
0000
0100
0000
1000
0010
0100
0000
1001
0000
,
0100
0000
0100
0010
1000
0000
0000
0000
0000
0000
0000
0000
0000
0000
0000
0000
,
0010
0000
1000
0010
1000
0000
0001
0100
0001
0000
1000
0100
0010
0000
0100
1000
,
0001
0000
0100
1001
0000
0110
0000
1001
,
0001
0000
0001
0000
0001
0000
0001
0000
1000
0000
0010
0100
0002
0000
0000
0000
,
1003
0100
0100
1000
0010
0100
0001
0001
,
1000
0000
0010
0000
0100
0000
0001
0000
1000
0000
0100
1000
0001
0000
0000
0000
,
1000
0010
1000
0001
0010
0001
1000
1000
,
0100
1000
0010
0100
0000
0110
0110
0110
,
1001
0000
0001
0000
1000
0100
1000
0000
0001
0100
0001
0000
1000
0001
1000
0000
,
0010
0000
0010
0000
1000
0010
1000
0000
0001
0010
0001
0000
1000
0100
1000
0000
,
0001
1000
0001
1000
0010
0100
0010
0100
0001
0010
0001
0010
0100
1000
0100
1000
,
0010
0100
0010
0100
0001
1000
0001
1000
0010
1000
0001
0100
0010
1000
0100
0010
,
0002
0000
0000
0000
,
0000
0000
0000
0000
,
0000
0000
0000
0000
,
0000
0003
0000
0000
;
