#TITLE:CaptivAte~誓い~;
#ARTIST:A/I;
#TITLETRANSLIT:CaptivAte ~CHIKAI~;
#BANNER:CaptivAte ~CHIKAI~.png;
#BACKGROUND:CaptivAte ~CHIKAI~-bg.png;
#JACKET:CaptivAte ~CHIKAI~-jacket.png;
#CDTITLE:./CDTITLES/BEATMANIA IIDX.PNG;
#MUSIC:CaptivAte ~CHIKAI~.ogg;
#SAMPLESTART:27.75;
#SAMPLELENGTH:15;
#BPMS:0=80,20=160;
#STOPS:20=1.125;

//---------------dance-single - t7r----------------
#NOTES:
     dance-single:
     t7r:
     Beginner:
     4:
     :
0000
0000
0000
0000
,
0000
0000
0000
0000
,
0000
0000
0000
0000
,
0100
0000
0010
0000
,
1000
0000
0001
0000
,
1000
0001
0000
0000
,
0000
0100
0000
0000
,
0000
0001
0000
0000
,
0000
1000
0000
0000
,
0000
0100
0000
0000
,
0000
0010
0000
0000
,
0000
0001
0000
0000
,
0000
0010
0000
0100
,
0000
0010
0000
0000
,
0000
0100
0000
0100
,
0000
0010
0000
0000
,
0000
1000
0000
0001
,
0000
1000
0000
0000
,
0000
0001
0000
1000
,
0000
0001
0000
0000
,
0000
1000
0000
0100
,
0000
0010
0000
0000
,
0000
0001
0000
0010
,
0000
0001
0000
1000
,
0000
0001
0000
0100
,
0000
0001
0000
0000
,
0000
1000
0000
0000
,
0000
0001
0000
1000
,
0000
0001
0000
0100
,
0000
0010
0000
0000
,
0000
0100
0000
0100
,
0000
0010
0000
0000
,
0000
1000
0000
0001
,
0000
1000
0000
0000
,
0000
0001
0000
1000
,
0000
0001
0000
1000
,
0000
0100
0000
0010
,
0000
1001
0000
0000
,
0001
0001
0000
0000
,
1000
1000
0000
0001
,
0000
1000
0000
0001
,
0000
0100
0000
0000
,
0010
0010
0000
0000
,
0100
0100
0000
0010
,
0000
1000
0000
0001
,
0000
1000
0000
0000
,
0100
0100
0000
0000
,
0010
0010
0000
0001
,
0000
0010
0000
0100
,
0000
1000
0000
0000
,
0100
0100
0000
0000
,
0000
1000
0000
0001
,
0000
1000
0000
0010
,
0000
0100
0100
0000
,
0000
0000
0000
0000
,
0000
0010
0010
0000
,
0000
0000
0000
0000
,
0000
1000
0000
0001
,
0000
1000
0000
0000
,
0000
0100
0000
0010
,
0000
0100
0000
0000
,
0000
0001
0001
0000
,
0000
0000
0000
0000
,
0000
1000
1000
0000
,
0000
0000
0000
0000
,
0000
0100
0100
0000
,
0000
0010
0000
0001
,
0000
1000
0000
0100
,
0000
1000
0000
0001
,
0000
0100
0000
0001
,
0000
1000
0000
0001
,
0000
1000
0000
0100
,
0000
0010
0000
0001
,
0000
1000
0000
0001
,
0000
1000
0000
0010
,
0000
0100
0000
0010
,
0000
1000
0000
0001
,
0000
1000
1000
0000
;

//---------------dance-single - t7r----------------
#NOTES:
     dance-single:
     t7r:
     Easy:
     6:
     :
0000
0000
0000
0000
,
0000
0000
0000
0000
,
0000
0000
0000
0000
,
0100
0010
1000
0001
,
1000
0001
0100
0010
,
1000
0001
0000
0100
,
0000
0001
0000
0001
,
0000
1000
0000
0100
,
0000
1000
0000
1000
,
0000
0001
0000
1000
,
0000
0001
0000
0100
,
0000
0010
0000
1000
,
0000
0001
0000
0001
,
0000
1000
0100
1000
,
0000
1000
0001
1000
,
0000
0001
0100
0001
,
0000
0001
1000
0001
,
0000
0001
0010
0100
,
0000
0001
0010
0001
,
0000
1000
0100
0010
,
0000
1000
0000
0001
,
1000
0001
2000
0000
,
3000
0010
0100
0010
,
0000
1000
0000
0001
,
0000
1000
0100
0010
,
0000
0001
0000
0010
,
0000
0001
0010
0100
,
0000
1000
0000
0001
,
0000
1000
1000
0001
,
0001
1001
0000
0010
,
0000
0200
0000
0310
,
0000
1000
0000
0001
,
0000
2000
0000
3100
,
0000
0010
0000
0001
,
0000
0020
0000
1030
,
0000
0010
0000
0100
,
0000
2000
0000
3001
,
0000
1001
0001
0000
,
1000
0001
1000
0000
,
0001
0100
0000
0010
,
0000
1000
0010
0100
,
0001
1000
0000
0001
,
0000
1000
0000
0100
,
0000
0010
0001
0010
,
0000
0001
0010
0100
,
1000
0001
0000
1000
,
0000
0001
0000
0100
,
0000
0001
0000
1000
,
0000
1000
0010
0100
,
0001
0100
0000
0001
,
0000
1000
0000
0001
,
0000
0010
0000
0100
,
1000
0100
0000
1000
,
0001
1000
2002
0000
,
3003
0000
0000
0000
,
0000
0100
0100
0000
,
0000
0000
0000
0000
,
0000
0010
0000
0100
,
0000
0010
0000
1000
,
0000
0001
0000
1000
,
0000
0001
0000
0100
,
0010
1000
1001
0000
,
0001
0000
1000
0000
,
0100
0000
1000
0000
,
0001
0000
0100
0000
,
0010
0100
0110
0000
,
0010
0000
1000
0000
,
0001
0001
1000
0100
,
1000
0001
0000
1000
,
0000
0001
0001
1000
,
1000
0001
0001
1000
,
0001
1000
1000
0100
,
0100
0010
0010
0001
,
0001
0010
0001
0010
,
0001
1000
0100
1000
,
0010
0100
0001
2000
,
3000
0002
0003
1000
,
0001
1000
2002
0000
,
0000
0000
0000
0000
,
3003
0000
0000
0000
;

//---------------dance-single - t7r----------------
#NOTES:
     dance-single:
     t7r:
     Medium:
     8:
     :
0000
0000
0000
0000
,
0000
0000
0000
0000
,
0000
0000
0000
0000
,
1000
0100
0100
1000
0001
0001
0100
0001
0001
0100
0010
0010
,
1000
0010
0010
0100
0001
0001
1000
0100
0010
0001
0010
0100
,
1001
0001
1000
0001
,
0100
0001
1000
0100
,
0010
0001
0010
0100
,
1000
0100
1000
0001
,
0100
0001
1000
0001
,
0100
0010
1000
0001
,
1000
0100
0010
0001
,
0010
0100
1000
0100
,
0010
0002
0003
0200
,
0300
0020
0030
2000
,
3000
0002
0003
2000
,
3000
0002
0003
0002
,
0003
2000
3000
0200
,
0300
0020
0030
0002
,
0003
2000
3000
0200
,
0300
2000
3000
0001
,
1000
0001
0200
0300
,
0010
1000
0010
0100
,
0001
1000
1100
0001
,
0101
0001
1000
0001
,
0010
0100
1100
0010
,
0011
0001
1001
0001
,
0101
0010
1010
0100
,
0110
0010
1000
0001
,
1000
0002
0003
2000
,
3000
0002
0003
0100
,
0110
0020
0030
2000
,
3000
0200
0300
0010
,
0001
0011
0001
0010
,
0100
1100
0100
1000
,
0001
0101
0001
1001
,
0100
0220
0330
0020
,
0030
1000
0001
0100
,
0001
1000
0001
0100
,
0010
0000
1000
0000
0000
0001
0001
0000
,
1000
0001
0100
0010
,
1000
0002
1003
2000
,
3001
2000
3100
0020
,
0031
0000
0001
0000
0010
0100
0100
0000
,
0110
0010
0001
1000
,
0100
1001
0001
0100
,
0001
1001
1000
0100
,
1000
0000
0110
0000
0000
1000
2000
0000
,
3000
0001
0010
0001
,
1000
0001
0100
0001
,
1000
0100
1000
0001
,
0100
0110
0000
1000
,
0001
2002
3003
0010
,
0100
0010
2002
0000
,
3003
2000
0000
0000
,
3000
0001
0002
0000
,
0003
2000
3000
0200
,
0300
0010
0001
0010
,
0100
1000
0100
1000
,
0001
0100
0001
1000
,
0010
0100
0001
1000
,
0001
1000
2002
0000
,
3003
0010
0100
0010
,
1000
0100
0010
0001
,
0010
0100
1000
0100
,
0001
0100
2002
0000
,
3003
0010
1000
0010
,
0001
0010
0100
0010
,
1000
0000
0000
0000
2002
0000
0000
0000
3003
0000
0000
0000
0001
0000
0000
0100
,
0000
0000
0001
0000
1000
0000
0000
1000
0000
0000
1000
0000
0001
0000
0000
0001
,
0000
0000
0001
0000
1000
0000
0000
1000
0000
0000
1000
0000
0010
0000
0000
0100
,
0000
0000
0010
0000
1000
0000
0000
1000
0000
0000
1000
0000
0100
0000
0000
0100
,
0000
0000
0100
0000
0010
0000
0000
0010
0000
0000
0010
0000
0001
0000
0000
0001
,
0000
0000
0001
0000
1000
0000
0000
0001
0000
0000
1000
0000
0001
0000
0000
0100
,
0000
0000
0010
0000
0100
0000
0000
0010
0000
0000
1000
0000
0010
0000
0000
1000
,
0000
0000
0100
0000
0010
0000
0000
0001
0000
0000
1000
0000
0002
0000
0000
0000
,
0003
0000
1000
0000
0200
0000
0000
0000
0000
0000
0310
0000
0001
0000
0000
1000
,
0000
0001
0100
0000
0220
0000
0000
0000
,
0000
0000
0000
0000
,
0330
0000
0000
0000
;

//---------------dance-single - t7r----------------
#NOTES:
     dance-single:
     t7r:
     Hard:
     13:
     :
0000
0000
0000
0000
,
0000
0000
0000
0000
,
0000
0000
0000
0000
,
0001
1000
0100
1000
0010
0100
0001
0100
0010
1000
0010
1000
,
0001
0100
0001
1000
0100
0010
0001
0010
0100
1000
0100
0010
,
2002
3003
0000
0000
1100
0000
0000
0000
0010
0000
0001
0000
0010
0000
0000
0001
,
0000
0000
1000
0000
0001
0000
0000
0100
0000
0000
0010
0000
1000
0000
0000
0010
,
0000
0000
1000
0000
0100
0000
0000
0000
1000
0000
0100
0000
1000
0000
0000
0001
,
0000
0000
0100
0000
0001
0000
0000
1000
0000
0000
0010
0000
0100
0000
0000
0010
,
0000
0000
0100
0000
0010
0000
0000
0000
1000
0000
0010
0000
0100
0000
0000
0001
,
0000
0000
0100
0000
0001
0000
0000
1000
0000
0000
0100
0000
0010
0000
0000
0001
,
0000
0000
0010
0000
0001
0010
0000
0000
0001
0000
0100
0000
0001
0000
0000
1000
,
0000
0000
0001
0000
1000
0001
0000
0000
1000
0000
0100
0000
1000
0000
0000
0010
,
0000
0000
0100
0000
0001
0000
0000
0000
1000
0000
0001
0000
0100
0000
0000
0001
,
0000
0000
1000
0000
0010
0000
0000
1000
0000
0000
0100
0000
0010
0000
0000
0001
,
0000
0000
0010
0000
0001
0000
0000
0000
1000
0000
0001
0000
0010
0000
0000
0001
,
0000
0000
1000
0000
0100
0000
0000
0010
0000
0000
0001
0000
0010
0000
0000
0001
,
0000
0000
0100
0000
0010
0000
0100
0000
0010
0000
1000
0000
0001
0000
0000
1000
,
0000
0000
0001
0000
0010
0000
0000
0100
0000
0000
0010
0000
0001
0000
0000
0010
,
0000
0000
0001
0000
0100
0010
0000
0000
1000
0000
0001
0000
0100
0001
0000
0000
,
1000
0000
0100
0000
0010
0000
0001
0000
0010
0000
0100
0000
1000
0000
0000
1100
,
0000
1000
0001
0000
1001
0000
0001
0100
,
0001
0000
0000
1000
0010
0000
1000
0000
0001
0000
0100
0000
0000
0000
0001
0000
,
1000
0001
0010
0100
1000
0000
1000
0100
,
0010
0000
0001
0010
0001
0000
1000
0000
0001
0000
0100
0000
0000
0000
0001
0000
,
0100
0001
0100
0010
1010
0000
0100
0010
,
1001
0000
1000
0100
0011
0000
1000
0100
,
1001
0000
0000
0000
0001
0000
0100
0000
0001
1000
0000
0000
0001
0000
0010
0000
,
0100
1000
0000
0000
1000
0000
0100
0000
1000
0001
0000
0001
0100
0000
0100
0000
,
0100
0100
0110
0000
0010
1000
1010
0000
,
1001
0000
1100
0000
1000
0100
1100
0000
,
1001
0000
0101
0000
0001
0100
0110
0000
,
1010
0000
1100
0000
1000
0010
1001
0000
,
0101
0000
0001
0010
0011
0000
1000
0100
,
1010
0000
1000
0001
1001
0000
0001
0100
,
1001
0000
0001
0100
0001
1000
0010
0100
,
0001
1000
0100
0010
0100
0010
0220
0000
,
0330
0000
1001
0001
0100
0002
0000
0203
,
0000
0310
1000
0100
0010
0002
0000
0013
,
0001
1000
1001
0000
0001
0010
0002
0000
,
1003
0000
0001
0100
0001
0000
1000
0000
0010
0000
0200
0000
0000
0000
0310
0000
,
0100
0001
1001
0010
1000
0002
0000
1003
,
0100
0010
0001
0100
0010
2000
0000
3010
,
0100
0000
0010
1000
0010
0000
1000
0000
0010
0000
0100
0000
0100
0000
0000
0000
,
1001
0000
0000
0000
1000
0000
0100
0000
0010
0000
0001
0000
0010
0000
0100
1000
,
0100
0000
1000
0000
2001
0000
0000
0000
0000
0000
3001
0100
0001
0000
0000
0110
,
0000
0000
0001
0000
1002
0000
0000
0000
0000
0000
1003
0100
1000
0000
0000
0110
,
0000
0000
0001
0000
0020
0000
0000
0000
0031
0000
1000
0001
2000
0000
0000
0000
,
3001
0000
0100
0001
0100
0000
0001
0000
0100
0000
1000
0000
0100
0000
0000
1100
,
0000
0000
1000
0000
0100
0000
0010
0000
1000
0001
0000
0000
0001
0000
1000
0000
,
0001
0010
0000
0000
0001
0000
0100
0000
0001
1000
0000
0000
1000
0000
0100
0000
,
1000
0010
0000
0010
1000
0000
0001
0000
0100
0000
0010
0000
1000
0000
0000
1010
,
0000
0000
0010
0000
0200
0000
0000
0000
0000
0000
0310
0000
1000
0000
0000
1001
,
0000
0000
0001
0000
1000
0000
0000
0000
1001
0000
0000
0000
0001
0000
0000
0100
,
0000
0000
0001
0000
1000
0000
0000
1000
0000
0000
0001
0000
1000
0000
0000
0010
,
0000
0000
0100
0000
0010
0000
0000
1000
0000
0000
0100
0000
0000
0000
0010
0000
,
0001
0000
0010
0000
0001
0000
0000
0100
0000
0000
0100
0000
0000
0000
0010
0000
,
1000
0000
0010
0000
1000
0000
0000
0100
0000
0000
0010
0000
0001
0000
0000
0010
,
0000
0000
0001
0000
0100
0000
0000
0001
0000
0000
1000
0000
0001
0000
0000
0100
,
0000
0000
0010
0000
1000
0000
0000
0010
0000
0000
0100
0000
0000
0000
0010
0000
,
0100
0000
0010
0000
1000
0000
0000
0010
0000
0000
1000
0000
0000
0000
0001
0000
,
1000
0001
1001
0000
1001
0000
0001
0100
,
0001
0100
0010
1000
0010
1000
0100
0010
,
0001
0000
0010
0000
0001
0000
0000
1000
0000
0000
1001
0000
0000
0000
0001
0000
,
0100
0000
0001
0000
1000
0000
0000
0001
0000
0000
1001
0000
0000
0000
1000
0000
,
0010
0100
0110
0000
1001
0000
1000
0100
,
0010
0001
0010
0000
0001
0000
0010
0000
0100
0000
1000
0000
0100
0000
1000
0000
,
0001
1000
0001
0000
1000
0000
0010
0000
0100
0000
0001
0000
0100
0000
0001
0000
,
1000
0000
0001
0000
2002
0000
0000
0000
3003
0000
0001
0000
0100
0000
0000
1001
,
0000
0000
1000
0000
0100
0000
1000
0001
0000
1000
0100
0000
1000
0000
0010
1000
,
0000
0010
0100
0000
0010
0000
1000
0010
0000
1000
0001
0000
1000
0000
0100
0010
,
0000
0001
1000
0000
0001
0000
0100
0001
0000
0100
0001
0000
0100
0000
0010
0100
,
0000
0010
0100
0000
0010
0000
1000
0010
0000
0010
1000
0000
0001
0000
1000
0001
,
0000
0001
1000
0000
0001
0000
0100
0001
0000
0100
0010
0000
0100
0000
0010
1000
,
0000
0010
1000
0000
0001
0000
1000
0001
0000
1000
0100
0000
1000
0000
0100
0010
,
0000
0100
0001
0000
0100
0000
0010
0001
0000
0001
1000
0000
2002
0000
0000
0000
,
3003
0000
0010
0000
0220
0000
0000
0000
0330
0000
0010
0000
0100
0000
0000
0110
,
0000
1000
0001
0000
2002
0000
0000
0000
,
0000
0000
0000
0000
,
3003
0000
0000
0000
;

//---------------dance-single - t7r----------------
#NOTES:
     dance-single:
     t7r:
     Challenge:
     16:
     :
0000
0000
0000
0000
,
0000
0000
0000
0000
,
0000
0000
0000
0000
,
0001
0000
0010
0001
0010
0000
0001
0000
1000
0100
1000
0000
0010
0000
0100
0010
0100
0000
0001
0000
1000
0001
1000
0000
,
0001
0000
0010
0100
1000
0000
0100
0000
0010
0001
0100
0000
0010
0000
1000
0010
0100
0000
0001
0000
1000
0001
0100
0000
,
2002
3003
0000
0000
1000
0010
0000
1000
0100
1000
0100
1000
0010
0000
0100
0010
,
0000
0000
1000
0001
0010
0000
0001
0100
0000
0100
0010
0000
0100
0000
0001
1000
,
0000
1000
0001
0000
0010
0001
0000
1000
0010
0100
0010
0100
0010
0000
1000
0010
,
0000
0000
1000
0001
0100
0000
0010
0100
0000
0100
0001
0000
0010
0000
0100
0010
,
0000
0010
0001
0000
1000
0100
0000
0010
0100
0010
0100
0010
0001
0000
0100
0010
,
0000
0010
1000
0001
0100
0000
0001
0010
0000
0010
0001
1000
0100
0000
1000
0010
,
0000
0010
1000
0010
0100
0010
0000
1000
0010
1000
0010
1000
0100
0000
0010
0100
,
0000
0100
1000
0001
0100
0010
0000
0010
1000
0010
0100
0001
0100
0001
0000
0001
,
1000
0000
0001
0010
0002
0100
0000
0000
0010
0000
0010
0000
1000
0000
0000
0010
,
0000
0000
1003
0100
0020
0000
0000
0100
0000
0000
1000
0000
0001
0000
0000
0100
,
0000
0000
0031
0000
1000
0020
0000
0000
1000
0000
1000
0000
0100
0000
0000
1000
,
0000
0000
0031
1000
0002
0000
0000
0010
0000
0000
1000
0000
0100
0000
0000
1000
,
0000
0000
0013
0000
0100
0020
0000
0000
1000
0000
1000
0000
0001
0000
0000
0100
,
0000
0000
0031
0010
0200
0000
0000
0010
0000
0000
0001
0000
1000
0000
0000
0010
,
0000
0000
1300
0000
0001
0100
0000
0000
0010
0000
0010
0000
1000
0000
0000
0001
,
0000
0000
1000
0001
1000
0000
0010
0000
0100
0000
0001
0000
1000
0000
0000
1001
,
0000
0110
1001
0010
1001
0010
1000
0100
,
0010
0000
0001
0100
0010
0000
0100
0000
0001
0000
1000
0000
0010
0000
1000
0000
,
0100
0000
1000
0000
0001
0000
0000
0001
0010
0000
0001
0000
0100
0000
0000
0100
,
0010
0000
1000
0010
0100
0000
0000
0100
0010
0000
1000
0000
0100
0010
0000
0010
,
0001
0000
1000
0000
0100
1000
0000
0000
1100
0000
1000
0000
0010
0000
0000
0010
,
0100
0000
0001
0010
0100
0000
0000
0100
0010
0000
0001
0000
1000
0000
0000
1000
,
0001
0000
0100
0000
0010
1000
0000
1000
0010
0000
0100
0000
0001
0010
0000
0010
,
0001
0000
1000
0100
0010
0100
0000
0100
1000
0000
0001
0000
0100
0000
0100
0000
,
0010
0100
1001
0010
0200
0000
0301
0010
,
0002
0000
1003
0100
0020
0000
0100
0000
1030
0000
0000
0000
0020
0000
0100
0000
,
0031
0100
0201
0010
1300
0000
0002
0010
,
0103
0000
0010
0001
2000
0000
0100
0000
3010
0000
0001
0000
0200
0001
0000
0000
,
0010
0000
1300
0000
0001
0000
0001
0000
0010
0001
0010
0000
0001
0100
0001
0000
,
1000
0001
1000
0000
0010
0000
0010
0000
1000
0100
1000
0000
0010
1000
0010
0000
,
1000
0001
1000
0000
0001
0100
0001
0100
0010
1000
0010
1000
0001
0010
0001
0010
,
0100
1000
0100
1000
0001
1000
0001
1000
0001
0000
0110
0000
2002
0000
0000
0000
,
3003
0000
0110
0001
0100
0010
1000
0100
,
0010
0100
1000
0100
0010
0001
1000
0001
,
0010
0000
0001
0000
0100
0000
0000
0100
0010
0000
1000
0000
1020
0000
0000
0000
,
1030
0000
0010
1000
0010
0000
0100
0000
0001
0000
0010
0000
0100
0000
0020
0000
,
0001
1030
1001
0010
0101
0010
1000
0100
,
1100
0010
0001
0100
0101
0010
1000
0001
,
1001
0000
0001
0010
0100
0000
0010
0000
0001
0000
0010
0000
0012
0000
0000
0000
,
1003
0000
0001
1000
0100
0000
1000
0000
0010
0000
0100
0000
0001
0000
0010
0100
,
1000
0000
0100
0000
2100
0000
0000
0000
3010
0000
0100
0001
0100
0000
0001
0010
,
0000
0010
0100
0000
0210
0000
0000
0000
0301
0000
1000
0001
0010
0000
0001
1000
,
0000
1000
0010
0000
0210
0000
0000
0000
0310
0000
1000
0010
2000
0000
0000
0000
,
3001
0000
0010
0001
0010
0000
0100
0000
0100
0000
1000
0000
1100
0000
1000
0010
,
0000
0010
0100
0000
0010
0000
0010
0000
1000
0100
1000
0000
0001
0010
0001
0000
,
1000
0001
1000
0000
0001
0000
0001
0000
0100
0001
0100
0000
0010
1000
0010
0000
,
1000
0001
1000
0000
0001
0010
0001
0010
0100
1000
0100
1000
0001
0000
0100
0001
,
0000
0001
1000
0000
0010
0000
0100
0001
0020
0000
0130
0000
1100
0000
0000
0011
,
0000
0000
1001
0000
0110
0000
0001
0000
1001
0000
0010
0000
1000
0000
0000
0100
,
0000
0000
1000
0000
0010
0000
0000
0010
0000
0000
0100
0000
0000
0000
0001
0000
,
0010
0000
0100
0000
0010
0000
0000
0001
0000
0000
1000
0000
0000
0000
0001
0000
,
0100
0000
0010
0000
1000
0000
0000
0100
0000
0000
0010
0000
0000
0000
0100
0000
,
1000
0000
0001
0000
1000
0000
0100
0010
0000
0010
0001
0000
0010
0000
0100
1000
,
0000
1000
0001
0000
1000
0000
0010
0100
0000
0100
0001
0000
0100
0000
0010
1000
,
0000
1000
0001
0000
1000
0000
0000
0100
1000
0100
2000
0000
0000
0000
3010
0000
,
0100
0000
0001
0000
0010
0000
0000
0001
0010
0001
0020
0000
0000
0000
0031
0000
,
1000
0000
0001
0000
1001
0000
0010
0000
1001
0000
0100
0000
0010
0000
0100
0001
,
0000
0001
1000
0000
0001
0000
0010
0100
0000
0100
1000
0000
0100
0000
0010
0001
,
0000
0001
1000
0001
0100
0000
0010
1000
0000
1000
0010
0000
0100
0000
0001
0010
,
0000
0010
0001
1000
0100
0000
1000
0001
0000
0001
1000
0000
0001
0000
0010
0100
,
0000
0100
0010
0000
1001
0000
0010
0000
1001
0000
0100
0000
0010
0001
0010
0000
,
0001
0100
0001
0000
1000
0000
1000
0000
0010
1000
0010
0000
0100
0001
0100
0000
,
0001
1000
0001
0000
1000
0100
1000
0100
0010
0001
0010
0001
1000
0100
0010
0001
,
1000
0100
0001
0100
2000
0000
0000
0000
0000
0000
3001
1000
0001
0000
0000
1001
,
0000
0000
0110
0000
1001
0000
0010
0100
0001
0100
0010
0000
1000
0000
0100
0010
,
0001
0010
0100
0000
1000
0000
0010
1000
0001
1000
0010
0000
0100
0000
0101
0000
,
0001
1000
0010
0000
0100
0000
0010
1000
0100
1000
0010
0000
0100
0000
0001
0010
,
0100
0010
0001
0000
0010
0000
0001
0100
0010
1000
0001
0000
0100
0000
0100
0000
,
0010
0000
0110
0000
1001
0000
1000
0100
0010
0001
1000
0000
0001
0000
0010
0100
,
1000
0100
0010
0000
0001
0000
0100
0001
0010
0001
0100
0000
0010
0000
0100
0010
,
1000
0010
0100
0000
0010
0000
1000
0001
0000
0001
0010
0000
0100
0010
0100
0010
,
0001
1000
0001
1000
0010
0100
0010
0100
0001
1000
0001
1000
1001
0000
0000
1100
,
0000
0011
1001
0010
2002
0000
0000
0000
,
0000
0000
0000
0000
,
3003
0000
0000
0000
;
