#TITLE:CONTRACT;
#ARTIST:朱雀;
#ARTISTTRANSLIT:SUZAKU;
#BANNER:CONTRACT.png;
#BACKGROUND:CONTRACT-bg.png;
#JACKET:CONTRACT-jacket.png;
#CDTITLE:./CDTITLES/BEATMANIA IIDX.PNG;
#MUSIC:CONTRACT.ogg;
#SAMPLESTART:54.667;
#SAMPLELENGTH:15;
#BPMS:0=180,100=90,128=180,168=90,176=180;

//---------------dance-single - t7r----------------
#NOTES:
     dance-single:
     t7r:
     Beginner:
     3:
     :
0000
0000
0000
0000
,
0000
0000
0000
0000
,
0000
0000
0000
0000
,
0000
0000
0000
0000
,
0000
0000
0000
0000
,
0010
0000
0000
0000
,
0010
0000
0000
0000
,
0100
0000
0100
0000
,
0010
0000
0000
0000
,
1000
0000
0001
0000
,
1000
0000
0001
0000
,
1000
0000
0001
0000
,
1000
0000
0001
0001
,
0001
0000
1000
0000
,
0001
0000
1000
0000
,
0001
0000
1000
0000
,
0001
0000
1000
1000
,
1000
0000
0010
0000
,
1000
0000
0001
0000
,
1000
0000
0010
0000
,
0000
1000
1000
1000
,
1000
0000
0010
0000
,
0100
0000
0001
0000
,
1000
0000
0010
0000
,
0100
0000
0001
0000
,
1000
0000
0000
0000
,
0001
0000
0000
0000
,
1000
0000
0000
0000
,
0010
0000
0000
0000
,
0100
0000
0001
0000
,
1000
0000
0001
0000
,
1000
0000
0100
0000
,
0010
0000
0010
0000
,
0100
0000
0010
0000
,
1000
0000
0000
0000
,
0000
0000
0000
0000
,
0000
0000
0000
0000
,
0000
0000
0000
0000
,
0001
0000
0000
0000
,
0000
0000
0000
0000
,
1000
0000
0000
0000
,
0010
0000
0000
0000
,
0100
0000
0000
0000
,
0000
0000
0000
0000
,
0010
0000
0100
0000
,
0010
0000
1000
0000
,
0010
0000
1000
0000
,
0001
0000
1000
0000
,
0001
0000
0100
0000
,
0001
0000
0010
0000
,
0100
0000
0100
0000
,
0100
0000
0100
0100
,
0100
0000
1000
0000
,
0001
0000
1000
0000
,
0001
0000
0010
0000
,
0001
0000
1000
0000
,
1000
0000
0010
0000
,
1000
0000
0100
0000
,
1000
0000
0010
0000
,
0100
0000
0001
0000
,
1000
0000
0000
0000
,
0001
0000
0000
0000
,
1000
0000
0000
0000
,
0010
0000
0000
0000
,
0100
0000
0001
0000
,
1000
0000
0010
0000
,
0100
0000
0001
0000
,
1000
0000
0010
0000
,
0100
0100
0000
0000
;

//---------------dance-single - t7r----------------
#NOTES:
     dance-single:
     t7r:
     Easy:
     7:
     :
0000
0000
0000
0000
,
0000
0000
0000
0000
,
0000
0000
0000
0000
,
0000
0000
0000
0000
,
0000
0000
0000
0000
,
1000
0000
1000
0000
,
0001
0000
0001
0000
,
1000
0001
1000
0001
,
2000
0000
0000
3000
,
0001
0010
0001
0010
,
0001
1000
0001
1000
,
0001
0010
0001
0010
,
0001
1000
0001
0010
,
1000
0010
1000
0010
,
1000
0001
1000
0001
,
1000
0010
1000
0010
,
0001
1001
1000
1001
,
1000
0100
1000
0001
,
0001
0100
0001
1000
,
1000
0100
1000
0001
,
0100
0001
0100
1000
,
0100
0010
0001
0010
,
0100
0010
1000
0010
,
0100
0010
0001
0010
,
1000
1001
0001
1001
,
0020
0000
0000
0030
,
0200
0000
0000
0300
,
2000
0000
0000
3000
,
0002
0000
0000
0003
,
1000
1000
0001
0001
,
1000
0001
1000
0001
,
1000
1000
0010
0100
,
0010
0010
0010
0010
,
0100
0100
0010
0010
,
1001
0000
0000
0010
0000
0000
0100
0000
,
0000
0010
0000
0000
0100
0000
0100
0000
,
0010
0000
0000
1000
0000
0000
0001
0000
,
0000
1000
0000
0000
0001
0000
0001
0000
,
1000
0000
0000
0100
0000
0000
1000
0000
,
0000
0010
0000
0000
0100
0000
0010
0000
,
1000
0001
1000
0001
,
1000
1001
0001
1001
,
0020
0000
0000
0000
,
0000
0000
0000
0030
,
1000
0010
2000
3000
,
0001
0100
0002
0003
,
1000
0010
1000
0010
,
1000
0001
2000
3000
,
0001
0100
0002
0003
,
1000
0100
2000
3000
,
0001
1001
1000
1001
,
1000
1001
0001
1001
,
1000
0010
0100
0001
,
0100
0100
0010
0010
,
1000
0010
1000
0001
,
0100
0001
0010
0010
,
0100
1000
0001
0100
,
0001
0001
1000
1000
,
0010
0010
0100
0100
,
0001
1001
1000
1001
,
1000
0000
0000
0101
0000
0000
0010
0000
,
0000
1100
0000
0000
0001
0000
1001
0000
,
0100
0000
0000
0110
0000
0000
0010
0000
,
0000
1001
0000
0000
1000
0000
1001
0000
,
0001
0000
0000
0101
0000
0000
0010
0000
,
0000
1100
0000
0000
0010
0000
0101
0000
,
0001
1001
1000
1001
,
0001
0110
1000
0110
,
0002
2000
0000
0000
,
0000
0000
0000
0000
,
3003
0000
0000
0000
;

//---------------dance-single - t7r----------------
#NOTES:
     dance-single:
     t7r:
     Medium:
     8:
     :
0000
0000
0000
0000
,
0000
0000
0000
0000
,
0000
0000
0000
0000
,
0000
0000
0000
0000
,
0000
0000
0000
0000
,
0002
0003
2000
3000
,
0002
0003
2000
3000
,
0001
0100
0001
1000
,
0020
0000
0000
0030
,
1000
0000
0100
0000
1000
0010
1000
0000
,
1000
0000
0100
0000
1000
0010
1000
0000
,
1000
0000
0100
0000
1000
0010
1000
0000
,
1000
0000
0100
0000
0010
0001
0010
0000
,
0001
0000
0100
0000
0001
0010
0001
0000
,
0001
0000
0100
0000
0001
0010
0001
0000
,
0001
0000
0100
0000
0001
0010
0001
0000
,
0001
1000
0001
1000
0001
1000
0001
1000
,
0001
0000
0100
0000
0001
1000
0100
0000
,
1000
0000
0100
0000
1000
0001
0100
0000
,
0001
0000
0100
0000
0001
1000
0100
0000
,
0001
1000
0001
1000
0001
1000
0001
0000
,
1000
0000
0100
0000
1000
0010
0100
0000
,
0001
0000
0100
0000
0001
0010
0100
0000
,
1000
0000
0100
0000
1000
0010
0100
0000
,
0001
0010
0100
0000
1000
0010
0100
0000
,
1000
1001
0001
0000
,
0001
1001
1000
0000
,
1000
0110
0010
0000
,
0001
0110
0010
0000
,
1000
0001
1000
0001
0100
0000
0010
0000
,
0100
0010
0100
0010
1000
0000
0001
0000
,
1000
0100
1000
0010
0100
0000
0010
0000
,
1000
1001
0001
1001
,
0001
1000
0001
1000
0001
1000
0001
0000
,
2100
0000
0000
3010
0000
0000
0102
0000
,
0000
0013
0000
0000
1000
0000
1001
0000
,
2100
0000
0000
3001
0000
0000
0102
0000
,
0000
1003
0000
0000
0001
0000
0101
0000
,
1002
0000
0000
0013
0000
0000
2001
0000
,
0000
3010
0000
0000
0100
0000
0110
0000
,
2001
0000
0000
3100
0000
0000
1002
0000
,
0000
0103
0000
0000
0001
0000
1001
0000
,
2000
0000
0000
0000
,
0000
0000
0000
3000
,
1000
0010
0100
0010
,
0110
0001
1000
0100
,
0001
0010
0100
1000
,
0110
1000
0001
0100
,
0001
1000
0010
0100
,
0110
0010
1000
0001
,
1000
1001
0001
1001
,
1000
0001
1000
0001
1000
0001
1000
0000
,
1000
0000
0010
0000
1000
0001
0100
0000
,
0001
0000
0010
0000
0001
1000
0100
0000
,
1000
0000
0010
0000
1000
0001
0100
0000
,
0001
1000
0100
0000
1000
0001
0100
0000
,
0001
0010
0001
0000
1000
0100
1000
0000
,
0001
0100
0001
0000
1000
0010
1000
0000
,
1000
0100
0010
0000
0001
0010
0100
0000
,
1000
0100
0010
0001
0010
0100
1000
0100
,
0010
0000
0000
0101
0000
0000
0010
0000
,
0000
1100
0000
0000
0001
0000
1001
0000
,
0010
0000
0000
1001
0000
0000
0100
0000
,
0000
1001
0000
0000
1000
0000
1100
0000
,
1001
0000
0000
0011
0000
0000
1001
0000
,
0000
1010
0000
0000
0010
0000
0110
0000
,
1001
0000
0000
0101
0000
0000
1001
0000
,
0000
1010
0000
0000
1000
0000
1100
0000
,
0002
2000
0000
0000
,
0000
0000
0000
0000
,
3003
0000
0000
0000
;

//---------------dance-single - t7r----------------
#NOTES:
     dance-single:
     t7r:
     Hard:
     14:
     :
0000
0000
0000
0000
,
0000
0000
0000
0000
,
0000
0000
0000
0000
,
0000
0000
0000
0000
,
0000
0000
0000
0000
,
0002
0000
0000
0000
0103
0000
0001
0000
0000
0000
0001
0000
1000
0000
0000
0100
,
1000
0000
0100
0000
0000
0000
0100
0000
1000
0000
0000
0000
0001
0000
0000
0001
,
1000
1000
0001
0001
0100
0100
0010
0010
,
1000
1000
0100
0100
0010
0010
0001
0001
,
1000
0010
0100
0001
1000
0100
0010
0001
,
1000
0010
0100
0001
1000
0100
0010
0001
,
1000
0100
0010
0100
1000
0010
0100
0001
,
1000
0100
0001
0100
1000
0100
0000
0000
,
1001
0010
0100
1000
0001
0100
0010
1000
,
0001
0010
0100
1000
0001
0100
0010
1000
,
0001
0100
0010
0100
0001
0010
0100
1000
,
0001
0000
0001
0000
1000
0000
1000
0000
0010
0100
0010
0100
0010
0000
0000
0000
,
1001
0000
0010
0000
0100
0000
1000
0000
0000
0010
0000
0100
0000
0001
0000
1000
,
0001
0100
0010
1000
0001
0010
0100
1000
,
0001
0100
0010
0100
0001
0010
0100
1000
,
0001
0001
0100
0100
0010
0100
0000
0000
,
1001
0100
0010
0001
1000
0010
0100
0001
,
1000
0100
0010
0001
1000
0010
0100
0001
,
1000
1000
0001
0001
0100
0100
0010
0010
,
0100
0000
0100
0000
0001
0000
0001
0000
1000
0100
1000
0100
1000
0000
0001
0000
,
2000
0100
3010
0000
0002
0100
0010
0103
,
0010
0100
0001
0000
2000
0010
0100
3010
,
0100
0010
1000
0000
0020
0100
0001
1000
,
0031
0000
0010
0000
0100
0000
0000
0110
0000
0000
0001
0000
1000
0100
1000
0000
,
0001
0100
0001
1000
0001
0000
0010
0000
0001
0000
1000
0100
1000
0001
1000
0000
,
0010
0100
0010
1000
0010
0100
0010
0001
0010
0000
0100
0010
1000
0001
0100
0000
,
0001
0010
0100
0010
0001
0000
1000
0000
0100
0000
1000
0010
0100
0001
1000
0000
,
0001
0001
1000
1000
0001
0001
0010
0010
,
0100
0000
0100
0000
0010
0000
0010
0000
0001
1000
0001
1000
0001
0000
0000
0000
,
0101
0000
0000
0011
0000
0000
1001
0000
,
0000
1010
0000
0000
1001
0000
1100
0000
,
0110
0000
0000
1001
0000
0000
0101
0000
,
0000
1010
0000
0000
1100
0000
0110
0000
,
1001
0000
0001
0101
0000
1000
1100
0000
,
0001
0011
0000
1000
1010
0000
1001
0000
,
1001
0010
0100
1000
0001
0010
0100
1000
,
0001
0000
0100
0000
0010
0000
1000
0000
0001
0000
1000
0000
0001
1000
0001
0000
,
2002
0000
0000
0000
,
0000
0000
0000
3003
,
0010
1000
0100
0001
0100
0000
2000
0000
,
3010
0000
0001
0010
1000
0010
0002
0000
,
0103
0010
0100
0001
0100
0010
0100
1000
,
0200
0000
1300
0010
0100
0001
1000
0001
,
0010
0001
0100
1000
0100
0000
0002
0000
,
0013
0000
1000
0100
0001
0100
2000
0000
,
3001
0001
0100
0100
0010
0010
1000
1000
,
0001
0000
0001
0000
0010
0000
0010
0000
0100
1000
0100
1000
0100
0000
0000
0000
,
1000
0010
0100
0001
1000
0100
0010
0001
,
1000
0010
0100
0001
1000
0100
0001
0100
,
1000
0010
0100
0001
1000
0100
0010
0001
,
1000
1000
0100
0100
0110
0110
0001
1000
,
1001
0010
0100
1000
0001
0100
0010
1000
,
0001
0010
0100
1000
0001
0100
0010
1000
,
0001
0001
1000
1000
0100
0100
0010
0010
,
0100
0000
0100
0000
1000
0000
1000
0000
0001
1000
0001
1000
0001
1000
0001
1000
,
0001
0000
0010
0011
0000
0100
1100
0000
,
1000
1010
0000
0001
0101
0000
1100
0000
,
1001
0000
0010
1010
0000
0100
0101
0000
,
0001
1001
0000
0100
1100
0000
0011
0000
,
1001
0000
0010
0101
0000
0010
1100
0000
,
1000
0011
0000
0001
1100
0000
1001
0000
,
0001
0100
0001
0000
1000
0100
1000
0000
0001
0010
0001
0000
1000
0010
1000
0000
,
0001
0100
0001
0100
0010
1000
0010
1000
0001
0010
0001
0010
0100
1000
0100
1000
,
0002
2000
0000
0000
,
0000
0000
0000
0000
,
3003
0000
0000
0000
;

//---------------dance-single - t7r----------------
#NOTES:
     dance-single:
     t7r:
     Challenge:
     18:
     :
0000
0000
0000
0000
,
0000
0000
0000
0000
,
0000
0000
0000
0000
,
0000
0000
0000
0000
,
0000
0000
0000
0000
,
1001
0000
0000
0000
0100
0000
0001
0000
0000
0000
1000
0000
0100
0000
0010
0100
,
1000
0000
0001
0000
0000
0000
0001
0000
1000
0000
0001
1000
0100
0000
1000
0001
,
0010
0110
0010
0011
0001
0101
0100
0110
,
0010
1000
0010
1000
0010
1000
0010
1000
0001
0100
0001
0100
0010
1000
0001
1000
,
0001
0000
0010
0100
1000
0000
0100
0000
0010
0000
0001
0000
1000
0000
0010
1000
,
0001
0000
0010
0100
1000
0000
0100
0000
0010
0000
0001
0000
1000
0000
0010
1000
,
0001
0000
0100
0010
1000
0000
0010
0000
0100
0000
0001
0000
1000
0000
0001
1000
,
0100
0000
1000
0010
0100
0000
0001
0000
1000
0000
1001
0000
0010
0000
0100
0000
,
1001
0000
0100
0010
0001
0000
1000
0000
0100
0000
0010
0000
0100
0000
1000
0001
,
0100
0000
0010
1000
0001
0000
1000
0000
0100
0000
0010
0000
0001
0000
1000
0001
,
0010
0000
0001
1000
0100
0000
1000
0000
0010
0000
0100
0000
0001
0000
1000
0000
,
0001
0000
1001
0000
1000
0000
1001
0000
0110
0000
0110
0000
0001
1000
0100
1000
,
0001
0000
1000
0100
0010
0000
0100
0000
1000
0000
0001
0000
0100
0001
0100
0001
,
0010
0000
0100
0010
0001
0000
1000
0000
0001
0000
0100
0000
0010
1000
0010
1000
,
0100
0000
0010
0100
1000
0000
0100
0000
0010
0000
0001
0000
1000
0001
1000
0001
,
0010
0001
0010
0000
0100
1000
0100
0000
1000
0010
1000
0010
0100
0000
0110
0000
,
0001
0010
0001
0000
0100
0010
1000
0000
0010
0100
0001
0000
1000
0001
0010
0001
,
1000
0100
1000
0000
0010
0100
0010
0000
0100
0001
1000
0000
0001
0010
0001
1000
,
0001
0100
0010
0000
1000
0100
0010
0000
0001
0010
0100
0000
1000
0001
0010
0001
,
0100
0000
0110
0000
0010
0000
0110
0000
1000
0001
1000
0001
0100
0010
0100
0010
,
2000
0000
0100
0000
3010
0000
0001
0010
0100
0000
0110
0000
0001
0000
1001
0000
,
0020
0000
0100
0000
0031
0000
1000
0001
0100
0000
0001
0000
0101
0000
0010
0000
,
2010
0000
0100
0000
3010
0000
1000
0001
0100
0000
0001
0000
0101
0000
1000
0000
,
1200
0000
0010
0000
0301
0000
1000
0100
0020
0000
0100
0000
1030
0001
0100
0000
,
1001
0010
0100
1000
0100
0000
2000
0000
3010
0000
1000
0100
0001
0100
2000
0000
,
3001
0010
0100
1000
0001
0010
0100
0010
0001
0000
1000
0010
0100
0001
1000
0100
,
1000
0010
0100
0001
1000
0000
0002
0000
0013
0000
1000
0100
0001
0100
2000
0000
,
3001
0010
0001
0000
1000
0100
1000
0000
0010
0100
0010
0000
1000
0001
1000
0000
,
0010
0000
0110
0000
0100
0000
0110
0000
0001
1000
0001
1000
0100
1000
0100
1000
,
0011
0000
0100
0001
0100
0000
1010
0000
0100
0001
0100
0000
0011
0000
0100
1000
,
0100
0000
1010
0000
0100
0001
0100
0000
1001
0000
0000
0000
0110
0000
0000
0000
,
1100
0000
1000
0010
1000
0000
0101
0000
0001
0010
0001
0000
1100
0000
0100
1000
,
0100
0000
0011
0000
0001
0010
0001
0000
1001
0000
0000
0000
0110
0000
0000
0000
,
1010
0000
0010
0100
0001
0000
0011
0000
0100
0010
0001
0000
1010
0000
0100
0010
,
1000
0000
0110
0000
0001
1000
0100
0000
1100
0000
0000
0000
0011
0000
0000
0000
,
1010
0000
0100
0001
0100
0000
0011
0000
0100
1000
0001
0000
1001
0000
0010
0100
,
0001
0000
0110
0000
0001
1000
0100
0000
1100
0000
0010
0001
0110
0000
0000
0000
,
2002
0000
0000
0000
,
0000
0000
0000
3003
,
0001
0010
0100
1000
0001
0000
2000
0000
,
3010
0000
1000
0100
0001
0100
2000
0000
,
3010
0100
0001
1000
0001
0010
0100
1000
,
0002
0000
1003
0100
0001
0100
1000
0010
,
0100
0010
1000
0001
0100
0000
0002
0000
,
0013
0000
1000
0010
0001
0010
2000
0000
,
3001
1001
1000
1001
0010
0110
0100
0110
,
0010
0100
0010
0100
0010
0100
0010
0100
0001
1000
0001
1000
0001
0010
0100
1000
,
0001
0000
0100
0001
0100
0000
0010
1000
0010
0000
1000
0001
0100
0000
0001
1000
,
0010
0000
1000
0100
1000
0000
0001
0010
0001
0000
1000
0010
0100
0000
0001
0010
,
0100
0000
0010
0001
0010
0000
0100
1000
0100
0000
1000
0010
0100
0000
0010
1000
,
0001
0100
0001
0000
0010
0001
0010
0000
0001
0000
0100
0000
0101
0000
1100
0000
,
0100
1000
0100
0000
0010
0001
0010
0000
0001
1000
0100
0000
1000
0010
0100
0010
,
1000
0100
1000
0000
0001
0100
0001
0000
1000
0100
0010
0000
0001
0010
0100
0010
,
0001
0010
0001
0000
1000
0010
1000
0000
0001
0100
0001
0000
1000
0100
1000
0000
,
0001
0000
1001
0000
1000
0000
1001
0000
0010
0100
0001
0100
0001
0010
0100
1000
,
0011
0000
0100
0001
0100
0000
1010
0000
0100
1000
0100
0000
0011
0000
0100
0001
,
0100
0000
1010
0000
0100
1000
0100
0000
1001
0000
0010
0000
0101
0000
0001
0000
,
1100
0000
0100
1000
0100
0000
1010
0000
0010
1000
0010
0000
0101
0000
0001
0100
,
0001
0000
0011
0000
0001
0010
0001
0000
1001
0000
0001
0000
0110
0000
0010
0000
,
1010
0000
0100
0010
1000
0000
0110
0000
0100
0010
0001
0000
1001
0000
0001
1000
,
0100
0000
1001
0000
1000
0001
0010
0000
0101
0000
0010
0000
1100
0100
0010
0000
,
1001
0001
1000
0000
0001
0010
0110
0000
0010
0001
1000
0000
1010
0010
1000
0000
,
0001
0010
0011
0010
0100
1000
0100
1000
1001
0010
0100
1000
0110
0010
0100
0001
,
2000
0002
0000
0000
,
0000
0000
0000
0000
,
3003
0000
0000
0000
;
