#TITLE:Bloody Tears(IIDX EDITION);
#ARTIST:DJ YOSHITAKA;
#BANNER:Bloody Tears(IIDX EDITION).png;
#BACKGROUND:Bloody Tears(IIDX EDITION)-bg.png;
#JACKET:Bloody Tears(IIDX EDITION)-jacket.png;
#CDTITLE:./CDTITLES/BEATMANIA IIDX.PNG;
#MUSIC:Bloody Tears(IIDX EDITION).ogg;
#SAMPLESTART:50.814;
#SAMPLELENGTH:15;
#BPMS:0=170;
#STOPS:64.000=1.058823
,233.000=1.058823
;

//---------------dance-single - t7r----------------
#NOTES:
     dance-single:
     t7r:
     Beginner:
     3:
     :
0000
0000
0000
0000
,
0000
0000
0000
0000
,
0000
0000
0000
0000
,
0000
0000
0000
0000
,
0000
0000
0000
0000
,
0000
0010
0000
0010
,
0010
0000
0000
0000
,
0000
0100
0000
0100
,
0100
0000
0000
0000
,
0001
0000
0000
0000
,
1000
0000
0000
0000
,
0010
0000
0000
0000
,
0100
0000
0000
0000
,
0001
0000
0000
0000
,
0010
0000
0000
0000
,
0100
0000
0000
0000
,
1000
0000
0000
0000
,
0000
0000
1000
0000
,
1000
0000
1000
0000
,
0000
0000
0001
0000
,
0001
0000
0001
0000
,
0000
0000
0010
0000
,
0010
0000
0010
0000
,
0000
0000
0100
0000
,
0100
0100
0000
0000
,
0000
0010
0000
0000
,
0000
1000
0000
0000
,
0000
0001
0000
0000
,
0000
0010
0000
0000
,
0000
0001
0000
0000
,
0000
1000
0000
0000
,
0000
0010
0000
0000
,
0000
1000
0000
0000
,
0000
0100
0000
0000
,
0000
0010
0000
0000
,
0000
0100
0000
0100
,
0000
0100
0000
0000
,
0000
0010
0000
0010
,
0000
0010
0000
0000
,
0000
0001
0000
0001
,
0000
0001
0000
0000
,
0000
1000
0000
1000
,
0000
1000
0000
0000
,
0000
0000
0010
0000
,
0010
0010
0000
0000
,
0000
0000
0100
0000
,
0100
0100
0000
0000
,
0000
0000
0001
0000
,
0001
0001
0000
0000
,
0000
0000
1000
0000
,
1000
1000
0000
0000
,
0000
0010
0000
0000
,
0000
0100
0000
0000
,
0000
0001
0000
0000
,
0000
0000
0000
0000
,
0000
1000
0000
0000
,
0000
0100
0000
0000
,
0000
0010
0000
0000
,
0000
0001
0000
0000
,
0000
0000
0000
0100
,
0000
0100
0000
0000
,
0000
0000
0000
0010
,
0000
0010
0000
0000
,
0000
0000
0000
1000
,
0000
1000
0000
0000
,
0000
0000
0000
0001
,
0000
0001
0001
0000
,
0000
0000
1000
0000
,
1000
0000
1000
0000
,
0000
0000
0010
0000
,
0010
0000
0010
0000
,
0000
0000
0100
0000
,
0100
0000
0100
0000
,
0000
0000
0001
0000
,
0001
0000
0001
0000
;

//---------------dance-single - t7r----------------
#NOTES:
     dance-single:
     t7r:
     Easy:
     6:
     :
0000
0000
0000
0000
,
0000
0000
0000
0000
,
0000
0000
0000
0000
,
0000
0000
0000
0000
,
0000
0000
0000
0000
,
0001
0000
1000
0000
,
0010
0100
0010
0100
,
0001
0000
1000
0000
,
0002
0000
0000
0003
,
1000
0000
0100
0000
,
0010
0000
0001
0000
,
0010
0000
0100
0000
,
1000
0000
0001
0100
,
0001
0000
0100
0000
,
0010
0000
1000
0000
,
0010
0000
1001
0000
,
0100
0000
1001
0000
,
0110
0001
0010
0000
,
0010
0000
0010
0000
,
0010
0100
1000
0000
,
1000
1000
0000
0001
,
1000
0001
0100
0000
,
0100
0000
0100
0000
,
0010
0010
0000
1000
,
0000
0001
1000
0001
,
1000
0020
1000
0000
,
1000
1030
0000
1001
,
0000
0001
0000
0010
,
0100
1000
0000
0010
,
0100
0001
0000
1000
,
0010
1000
0000
0001
,
0000
1000
0000
0100
,
0010
0100
0000
1000
,
0001
1000
0000
0001
,
0100
0010
0010
0100
,
0100
1001
0000
0100
,
0000
0010
0000
0100
,
0100
0010
0000
0001
,
0000
1000
0000
0010
,
0100
1001
0000
0010
,
0000
0100
0000
0001
,
0010
0100
0000
1000
,
0000
0010
0000
0110
,
0000
0001
0001
0001
,
0001
1000
0100
0010
,
0100
1000
1000
1000
,
1000
0010
0100
0001
,
0100
0010
0010
0010
,
0010
0100
0001
1000
,
0001
0100
0100
0100
,
0100
0010
1000
0100
,
0010
0002
0000
0000
,
0000
1000
0000
0013
,
0000
2000
0000
0000
,
0000
0001
0000
3100
,
0000
0020
0000
0000
,
0000
0100
0000
0031
,
0000
0200
0000
0000
,
0000
0010
0000
1300
,
0000
0000
0010
0000
,
0100
0001
0100
0000
,
0001
0010
0100
0000
,
0010
0001
0010
0000
,
0001
0000
1000
0000
,
0010
1000
0010
0000
,
0100
0010
0100
0000
,
0010
1000
0100
0100
,
0010
0010
1001
0000
,
0100
0000
0010
0000
,
1000
1000
0001
0000
,
0010
0000
0100
0000
,
0010
0100
1001
0000
,
0110
0000
1001
0000
,
0001
1000
1001
0000
,
0110
0000
1010
0000
,
0101
0000
0000
0000
;

//---------------dance-single - t7r----------------
#NOTES:
     dance-single:
     t7r:
     Medium:
     10:
     :
0000
0000
0000
0000
,
0000
0000
0000
0000
,
0000
0000
0000
0000
,
0000
0000
0000
0000
,
0000
0000
0000
0000
,
0010
0100
0010
0100
,
0001
0010
0100
1000
,
0100
0010
0100
0010
,
0002
0000
0000
0003
,
1000
0000
0100
1000
0100
0000
1000
0010
,
1000
0000
0100
1000
0100
0000
1000
0001
,
1000
0000
0001
0100
0001
0000
0010
0001
,
0010
0000
0001
0100
0100
0000
0010
0000
,
0100
0000
0001
1000
0100
0000
1000
0001
,
0010
0000
0001
1000
0100
0000
1000
0000
,
1001
0010
1001
0100
,
0010
0000
0110
0000
1001
0000
0001
1000
,
0001
2000
0100
0000
,
0100
0000
0010
0000
,
3001
0002
0100
0000
,
0103
0020
0000
0100
,
0130
2001
0010
0000
,
0010
0000
0010
0000
,
3001
1000
0001
0000
0000
1000
0001
0000
,
0000
0001
1000
0000
1001
0000
0010
0100
,
0010
0100
0100
0100
,
0100
0000
0001
0000
0010
0000
0100
1000
,
0000
0000
1000
0000
0001
0000
0000
0001
0000
0000
1000
0000
0100
0000
1000
0000
,
0100
0000
0000
0000
0010
0000
0000
0010
0000
0000
0100
0000
1000
0000
0001
0000
,
1000
0000
0000
0000
0010
0000
0000
0100
0000
0000
0001
0000
0010
0000
0100
0000
,
0010
0000
0000
0000
0001
0000
0000
0001
0000
0000
1000
0000
0010
0000
0000
0010
,
0000
0000
0100
0000
0010
0000
0000
0010
0000
0000
1000
0000
0100
0000
1000
0000
,
0100
0000
0000
0000
1000
0000
0000
1000
0000
0000
0001
0000
0100
0000
0001
0000
,
0010
0000
0000
0000
0100
0000
0000
0010
0000
0000
0001
0000
1000
0000
0100
0000
,
1000
0000
0010
0000
0100
0000
0001
1000
,
0001
0000
1000
0000
0010
0000
0000
0010
0000
0000
0000
0000
0100
0000
0000
0100
,
0000
0000
0000
0000
0001
0000
0000
0001
0000
0000
0000
0000
1000
0000
0001
0000
,
1000
0000
0001
0000
1000
0000
0000
0100
0000
0000
0000
0000
0001
0000
0000
0100
,
0000
0000
0000
0000
1000
0000
0000
0010
0000
0000
0000
0000
0100
0000
0010
0000
,
1000
0000
0000
0000
0001
0000
0000
1000
0000
0000
0000
0000
1000
0000
0000
0001
,
0000
0000
0000
0000
0001
0000
0000
1000
0000
0000
0000
0000
0010
0000
0100
0000
,
0001
0000
0100
0000
0001
0000
0000
0010
0000
0000
0000
0000
1000
0000
0000
0010
,
0000
0000
0000
0000
0001
0000
0000
0010
0000
0000
0000
0000
0220
0000
0000
0000
,
0330
1001
0100
0100
,
0100
0000
0010
1000
0001
0000
0010
0001
,
1000
0001
0100
0100
,
0100
0000
0001
0010
0100
0000
1000
0010
,
0100
0001
0010
0010
,
0010
0000
0001
0010
0001
0000
1000
0010
,
1000
1001
0001
1001
,
1000
0000
0010
0000
0010
0000
0100
0010
,
0100
0010
2000
0000
0100
0000
0010
0000
,
3001
0200
0000
0310
,
1000
0002
0100
0010
,
1003
0200
0000
0310
,
0000
1002
0100
0010
,
1003
0020
0000
0130
,
0001
2000
0100
0010
,
3001
0100
0100
0010
,
0010
0000
0100
0000
0000
0000
0001
0000
1000
0000
0000
1000
0000
0000
0001
0000
,
0100
0000
0001
0000
0100
0000
0000
0000
0010
0000
0000
0010
0000
0000
0100
0000
,
0001
0000
1000
0000
0001
0000
0000
0000
1000
0000
0000
0100
0000
0000
0010
0000
,
0001
0000
0010
0000
0100
0000
0000
0000
0010
0000
0000
0001
0000
0000
1000
0000
,
0010
0000
0000
1000
0000
0000
0001
0000
0100
0000
0000
0100
0000
0000
0010
0000
,
0100
0000
0001
0000
1000
0000
0000
0000
0010
0000
0000
0010
0000
0000
1000
0000
,
0100
0000
0010
0000
0001
0000
0000
0000
0100
0000
0000
0001
0000
0000
1000
0000
,
0001
0100
0010
0000
0100
0000
0100
0000
,
0010
0000
0100
0000
0001
0000
1000
0000
0001
0000
0000
0001
0000
0000
0000
0000
,
1000
0000
0000
1000
0000
0000
0000
0000
0010
0000
0000
0010
0000
0000
0000
0000
,
0100
0000
0010
0000
0100
0000
0010
0000
1000
0000
0000
0100
0000
0000
0000
0000
,
0001
0000
0000
0100
0000
0000
0000
0000
1000
0000
0000
0100
0000
0000
0000
0000
,
1000
0000
0001
0000
0100
0000
0010
0000
0100
0000
0000
0110
0000
0000
0000
0000
,
0001
0000
0000
1001
0000
0000
0000
0000
1000
0000
0000
1100
0000
0000
0000
0000
,
1000
0000
0010
0000
0100
0000
0001
0000
0100
0000
0000
1010
0000
0000
0000
0000
,
0100
0000
0000
0011
0000
0000
0000
0000
0100
0000
0000
1001
0000
0000
0010
0000
,
0100
0010
0000
0000
;

//---------------dance-single - t7r----------------
#NOTES:
     dance-single:
     t7r:
     Hard:
     14:
     :
0000
0000
0000
0000
,
0000
0000
0000
0000
,
0000
0000
0000
0000
,
0000
0000
0000
0000
,
0000
0000
0000
0000
,
0010
0100
0010
0100
,
0001
1000
0001
0010
0001
1000
0001
0100
,
0010
1000
0001
0100
,
0001
1000
0000
0001
0000
1000
0000
0100
,
0010
0000
0010
0100
1000
0000
0001
0100
,
0010
0000
0100
0001
1000
0000
0001
0010
,
0100
0000
0010
0001
1000
0000
0010
1000
,
0100
0000
0010
0001
0100
0010
0100
0001
,
1000
0000
1000
0001
0100
0000
0100
0010
,
0100
0000
0100
0001
1000
0000
1000
0001
,
0011
0000
1000
0100
1100
0000
0001
0100
,
0101
0000
0010
1000
1001
0010
0100
0001
,
2000
3000
0000
0000
1001
0000
0000
0000
0010
0000
0000
0000
0000
0000
0000
0000
,
0010
0000
0010
0000
,
0010
0100
0100
0000
0001
0000
0000
0000
,
0001
0110
0000
1001
,
1100
1001
1000
0000
,
1000
0000
1000
0000
,
1000
0001
0001
0000
0000
1000
1000
0000
,
0000
0010
0010
0000
0110
0000
0001
1000
,
0100
0000
1000
0000
0001
0000
1000
0100
1000
0000
0001
0100
0001
0000
1000
0010
,
2000
0000
0000
0000
3001
0000
0001
0000
1000
0000
1000
0000
0010
0100
0010
0100
,
0000
0000
0001
0000
0010
0000
0001
0100
0000
0000
0010
0000
1000
0000
0001
0000
,
1000
0000
0010
0000
1000
0000
0000
1001
0000
0000
0100
0000
1000
0100
1000
0000
,
0010
0000
0100
0000
0001
0000
0010
0001
0000
0000
1000
0000
0001
0100
0001
0000
,
1000
0000
0010
0000
0100
0000
0000
0101
0000
0000
1000
0000
0010
0000
0000
0110
,
0000
0000
0010
0000
1000
0000
0100
0010
0000
0000
0100
0000
1000
0100
1000
0000
,
0001
0000
0100
0000
0010
0000
0000
0110
0000
0000
0100
0000
0001
0010
0001
0000
,
1000
0000
0100
0000
0010
0000
0100
1000
0000
0000
0001
0000
0100
0001
0100
0000
,
0010
0100
0001
0010
0100
1000
0100
0100
,
0010
0000
0010
0000
1001
0000
0000
1100
0000
0000
0001
0000
1001
0000
0000
0101
,
0000
0000
1000
0000
1001
0000
0000
1100
0000
0000
0001
0000
1000
0000
1000
0000
,
0001
0000
0001
0000
0100
0000
0010
1000
0000
0000
0100
0000
0010
0000
0001
0010
,
0000
0000
0001
0000
0100
0000
0010
1000
0000
0000
0001
0000
1000
0000
0001
0000
,
1000
0001
0100
0000
0110
0000
0000
1001
0000
0000
0100
0000
0101
0000
0000
1010
,
0000
0000
0100
0000
1100
0000
0000
0011
0000
0000
1000
0000
0100
0000
0010
0000
,
0100
0000
1000
0000
0001
0000
0100
0001
0000
0000
1000
0000
0010
0000
1000
0001
,
0000
0000
1000
0000
0100
0000
0010
0100
0000
0000
1000
0001
2000
0000
0000
0000
,
3000
0001
0101
0001
,
0101
0000
0001
0100
0010
1000
0100
0010
,
0100
1000
0100
0000
1100
0000
0100
0000
,
1100
0000
1000
0100
0010
0001
0100
0010
,
0100
0001
1000
0000
1001
0000
0001
0000
,
1001
0000
0010
0100
0001
0100
0001
0010
,
0100
1000
0001
0010
0001
0001
1000
0010
,
1000
0000
1000
0000
0001
0000
0100
0000
0010
0000
1000
0000
0001
1000
0001
1000
,
0001
1000
0001
1000
0001
0000
0010
0000
0100
0000
0000
0000
0010
0000
0000
0000
,
0010
2001
0010
3001
,
1000
0100
0020
0000
0100
0000
1000
0000
,
0031
0210
0000
0301
,
0000
0000
1001
0100
0010
0000
0100
0000
,
0100
1002
0010
1003
,
0001
0100
0020
0000
0100
0000
0031
0000
,
1000
0001
0100
0001
1000
0100
0010
0001
,
1000
0000
0010
0000
0000
0000
0100
0001
0100
0000
0010
1000
0000
0000
0001
0000
,
0010
0000
0001
0000
1000
0000
0001
0000
0010
0000
0000
0101
0000
0000
0010
0000
,
1000
0100
1000
0000
0100
0000
0010
0000
0001
0000
1000
0010
0000
0000
0100
0000
,
0001
1000
0001
0000
0100
0000
0010
0000
0100
0000
0000
0011
0000
0000
0001
0000
,
0100
0000
0000
1010
0000
0000
0001
0100
0001
0000
1000
0100
0000
0000
0010
0000
,
0001
1000
0001
0000
0100
0000
0010
0000
1000
0000
0000
0110
0000
0000
0001
0000
,
1000
0100
1000
0000
0100
0000
0010
0000
0100
0000
1000
0001
0000
0000
0100
0000
,
0010
0100
0010
0000
0100
0000
0001
0000
1000
0000
0100
0000
0010
0000
0001
0000
,
1000
0000
1000
0000
0001
0000
0001
0000
0110
0000
0000
1001
0000
0000
1000
0000
,
1100
0000
0000
1001
0000
0000
0001
0000
0101
0000
0000
1001
0000
0000
1000
0000
,
0010
0000
0010
0000
0100
0000
0100
0000
0110
0000
0001
1000
0000
0000
0100
0000
,
0110
0000
1000
0001
0000
0000
0100
0000
0110
0000
0001
1000
0000
0000
0001
0000
,
1000
0000
1100
0000
1000
0001
1000
0000
1100
0000
0000
0011
0000
0000
0100
0000
,
0101
0000
0000
1010
0000
0000
0100
0000
1100
0000
0000
0011
0000
0000
0001
0000
,
1000
0000
1000
0000
0001
0000
0001
0000
0110
0000
0001
0010
0000
0000
0100
0000
,
0110
0000
1000
0010
0000
0000
0100
0000
0110
0000
0001
0010
0000
0000
0100
1000
,
0001
0000
1000
0000
0010
1000
0000
0000
0000
0000
0000
0000
0000
0000
0000
0000
;

//---------------dance-single - t7r----------------
#NOTES:
     dance-single:
     t7r:
     Challenge:
     16:
     :
0000
0000
0000
0000
,
0000
0000
0000
0000
,
0000
0000
0000
0000
,
0000
0000
0000
0000
,
0000
0000
0000
0000
,
0001
0101
0001
0101
,
1000
0100
0001
0100
1000
0010
0100
0010
,
1000
1010
1000
1010
,
0010
0100
0000
0001
0000
1000
0000
0001
,
0011
0000
1000
0100
0110
0000
0100
1000
,
1001
0000
0010
0100
0101
0000
0100
0001
,
0011
0000
0001
1000
1010
0000
1000
0100
,
0110
0000
0100
1000
0010
0100
0001
0010
,
0011
0000
0001
0000
1000
0100
1000
0000
0001
0100
0001
0000
1000
0010
1000
0000
,
0001
0000
0010
0000
0001
1000
0001
0000
0100
0010
0100
0000
0010
1000
0010
0000
,
1000
0100
1000
0100
0010
0100
1000
0000
0001
0100
0001
0100
0010
0100
0001
0000
,
1000
0010
1000
0010
0100
0001
0100
0001
1000
0000
1001
0000
0001
0000
1001
0000
,
0220
0330
0000
0000
1010
0000
0100
0000
0001
0000
0010
0000
1000
0000
0010
0000
,
0001
0100
1000
0100
0001
0010
0100
1000
,
0100
0010
0110
0001
0100
0001
0010
1000
,
0100
1000
0110
1000
0100
0001
0110
0001
,
0110
1000
1010
0100
0001
0100
1000
0010
,
0001
0010
1000
0100
0010
0001
1000
0010
,
0100
0001
0101
1000
0010
1000
1100
0001
,
0010
0001
0101
0000
1100
0000
0001
0001
,
1000
0000
1000
0000
0010
0000
0100
0010
0100
0000
0001
0100
0000
0001
0010
0100
,
1000
0010
0000
0010
0100
0000
0110
0000
0001
0000
1001
0000
1000
0010
0100
0001
,
0000
0000
1000
0100
1000
0000
0001
0010
0000
0000
0001
0000
0100
0001
0100
0000
,
0010
0000
0100
0000
0001
0000
0010
0001
0000
0000
1000
0000
0100
1000
0100
0000
,
1000
0000
0010
0000
0100
0000
0010
1000
0000
0000
0001
0000
0010
0001
0010
0000
,
0001
0000
0100
0000
0010
0000
1000
0001
0000
0000
1000
0100
0010
0000
0100
1000
,
0000
0000
0001
0100
0001
0000
0010
0001
0000
0000
1000
0000
0010
1000
0010
0000
,
0100
0000
0010
0000
1000
0000
0001
0010
0000
0000
0100
0000
0010
0001
0010
0000
,
0001
0000
1000
0000
0010
0000
0100
0010
0000
0000
1000
0000
0100
1000
0100
0000
,
1000
0010
0100
0001
0010
1000
0010
0001
,
0100
0000
1000
0000
0110
0000
0000
0101
0000
0000
1000
0000
1010
0000
0000
1100
,
0000
0000
0001
0000
0011
0000
0000
0101
0000
0000
0001
0000
1000
0001
0100
0001
,
1000
0001
0010
0001
1000
0000
0100
0010
0000
0000
0001
0000
0100
0000
0010
1000
,
0000
0000
1000
0000
0100
0000
0010
0001
0000
0000
0100
0000
0010
0000
1000
0000
,
0001
1000
0100
0000
1100
0000
0000
0011
0000
0000
0001
0000
0101
0000
0000
1010
,
0000
0000
1000
0000
1100
0000
0000
1010
0000
0000
0010
0000
0100
0001
1000
0000
,
0010
0000
0100
0000
0001
0000
0010
0100
0000
0000
1000
0000
0010
0000
0100
0001
,
0000
0000
0001
0000
0010
0000
0100
1000
0000
0000
0010
0100
0001
0000
1000
0000
,
0100
0010
0000
0000
0011
0000
0001
0000
0100
0000
1000
0000
0100
0000
0001
0000
,
0010
1000
0010
0100
0110
0100
0101
0001
,
0011
1000
1100
1000
0100
0001
0100
1000
,
0010
0100
0010
1000
1010
0010
0110
0100
,
0101
0001
1001
0010
1100
0010
1001
0010
,
0101
0010
1100
0100
0110
0010
0011
0001
,
1001
0000
0001
0000
0101
0000
0001
0100
0010
0100
0001
0000
1100
0000
1000
0100
,
0010
0100
1000
0000
0001
0100
0001
0100
0010
1000
0010
1000
0001
0000
1001
0000
,
1000
1001
0010
0100
0001
0100
1000
0100
,
0001
0010
1000
0010
0001
0000
1000
0100
,
0001
0100
2000
0000
0010
0000
0100
0000
,
3001
0000
1000
0010
0100
0001
1000
0100
,
0010
0001
1001
0010
0100
1000
0010
0001
,
0010
1000
0001
0100
0010
0000
1000
0000
,
0010
0100
0002
0000
0010
0000
1000
0000
,
0103
0010
1000
0010
0100
0001
1000
0100
,
0010
0000
0001
0000
0000
0000
1000
0100
1000
0000
0010
1000
0000
1000
0001
0000
,
0100
0001
0100
0000
0001
0000
1000
0000
0010
0000
1000
0010
0000
0010
1000
0000
,
0001
0010
0001
0000
1000
0000
0001
0000
0100
0000
0010
0100
0000
0100
0001
0010
,
0100
0010
0100
1000
0100
1000
0001
0000
0100
0000
0010
0100
0000
0100
0001
1000
,
0010
0000
1000
0001
0000
0001
1000
0010
1000
0000
0001
0100
0000
0010
0100
0001
,
0100
0001
0100
0001
0010
0100
0010
0000
0100
0000
1000
0010
0000
1000
0001
1000
,
0010
1000
0010
1000
0001
0000
0100
0000
0010
0000
1000
0100
0000
0010
0100
1000
,
0100
0010
0100
0010
0001
0100
0010
0000
0100
0000
0010
0000
1000
0000
0100
0000
,
0001
0000
0010
0000
0001
0000
0100
0000
1010
0000
0000
1100
0000
0000
0001
0000
,
1010
0000
0000
1100
0000
0000
1000
0000
0011
0000
0000
0101
0000
0000
1000
0000
,
0001
0100
0001
0100
0001
0010
0100
1000
0001
0000
0100
0010
0000
0000
1000
0000
,
1100
0000
0010
0001
0000
0000
0100
0000
0101
0000
0010
1000
0000
0000
0010
0000
,
0110
0000
1001
0000
0001
0010
0100
0000
0110
0000
0000
0011
0000
0000
1000
0000
,
0110
0000
0000
0011
0000
0000
0001
0000
0110
0000
0000
1010
0000
0000
0001
0000
,
1000
0100
1000
0100
0010
0100
1000
0000
1100
0000
0010
0001
0000
0000
0100
0000
,
0101
0000
0010
1000
0000
0000
0100
0000
0110
0000
0001
1000
0000
0000
0010
0100
,
0001
0000
1000
0000
0010
1000
0000
0000
0000
0000
0000
0000
0000
0000
0000
0000
;
